osu file format v14

[General]
AudioFilename: audio.mp3
AudioLeadIn: 0
PreviewTime: 207959
Countdown: 0
SampleSet: None
StackLeniency: 0.3
Mode: 0
LetterboxInBreaks: 0
EpilepsyWarning: 1
WidescreenStoryboard: 1

[Editor]
Bookmarks: 94,8094,14094,16094,32094,48094,62094,64094,72094,80094,94094,96094,112094,128094,144094,160094,176094,191094,192094,206094,208094,224094,231219
DistanceSpacing: 1.3
BeatDivisor: 4
GridSize: 16
TimelineZoom: 1.6

[Metadata]
Title:LollyBomb
TitleUnicode:LollyBomb
Artist:LITTLE BIG
ArtistUnicode:LITTLE BIG
Creator:Daycore
Version:The Man who Blew the World
Source:
Tags:English Rave Iliya Prusikin Lubim North Korea Dance Electronic Antipositive djulus yamakudzi milr_ [_white_music_] shmiklak marvollo m_a_r_v_o_l_l_o electronic pt.1 илья прусикин кликклак
BeatmapID:1869167
BeatmapSetID:703820

[Difficulty]
HPDrainRate:5
CircleSize:4.5
OverallDifficulty:8.3
ApproachRate:8.6
SliderMultiplier:1.95
SliderTickRate:0.5

[Events]
//Background and Video events
0,0,"bollylomb.jpg",0,0
//Break Periods
2,64289,71430
2,128288,139430
//Storyboard Layer 0 (Background)
//Storyboard Layer 1 (Fail)
//Storyboard Layer 2 (Pass)
//Storyboard Layer 3 (Foreground)
//Storyboard Layer 4 (Overlay)
//Storyboard Sound Samples

[TimingPoints]
89,500,4,3,1,60,1,0
16089,-100,4,3,1,60,0,0
21964,-100,4,3,1,5,0,0
22089,-100,4,3,1,60,0,0
28464,-100,4,3,1,5,0,0
28589,-100,4,3,1,60,0,0
32089,-100,4,3,1,80,0,1
35464,-100,4,3,1,5,0,1
35589,-100,4,3,1,80,0,1
39464,-100,4,3,1,5,0,1
39589,-100,4,3,1,80,0,1
43464,-100,4,3,1,5,0,1
43589,-100,4,3,1,80,0,1
44464,-100,4,3,1,5,0,1
44589,-100,4,3,1,60,0,1
47964,-100,4,3,1,5,0,1
48089,-100,4,3,1,60,0,0
64086,-100,4,3,1,30,0,0
72089,-166.666666666667,4,3,1,30,0,0
78089,-100,4,3,1,30,0,0
79964,-100,4,3,1,5,0,0
80089,-100,4,3,1,80,0,1
81964,-100,4,3,1,5,0,1
82089,-100,4,3,1,80,0,1
85964,-100,4,3,1,5,0,1
86089,-100,4,3,1,80,0,1
89964,-100,4,3,1,5,0,1
90089,-100,4,3,1,80,0,1
92464,-100,4,3,1,5,0,1
92589,-100,4,3,1,70,0,1
94089,-100,4,3,1,70,0,0
96089,-100,4,3,1,80,0,1
97964,-100,4,3,1,5,0,1
98089,-100,4,3,1,80,0,1
101964,-100,4,3,1,5,0,1
102089,-100,4,3,1,80,0,1
105964,-100,4,3,1,5,0,1
106089,-100,4,3,1,80,0,1
108464,-100,4,3,1,5,0,1
108589,-100,4,3,1,70,0,1
111964,-100,4,3,1,5,0,0
112089,-100,4,3,1,70,0,0
127089,-250,4,3,1,70,0,0
128089,-250,4,3,1,70,0,0
144089,-250.000000000001,4,3,1,40,0,0
151589,-142.857142857143,4,3,1,40,0,0
151964,-142.857142857143,4,3,1,5,0,0
152089,-250.000000000001,4,3,1,40,0,0
158089,-166.666666666667,4,3,1,30,0,0
160089,-100,4,3,1,65,0,0
175089,-166.666666666667,4,3,1,40,0,0
175339,-166.666666666667,4,3,1,5,0,0
175589,-250,4,3,1,85,0,0
175964,-100,4,3,1,5,0,0
176089,-100,4,3,1,90,0,1
182464,-100,4,3,1,5,0,1
182589,-100,4,3,1,90,0,1
190089,-133.333333333333,4,3,1,90,0,1
191089,-100,4,3,1,50,0,0
191964,-100,4,3,1,5,0,0
192089,-100,4,3,1,100,0,1
193964,-100,4,3,1,5,0,1
194089,-100,4,3,1,100,0,1
197964,-100,4,3,1,5,0,1
198089,-100,4,3,1,100,0,1
201964,-100,4,3,1,5,0,1
202089,-100,4,3,1,100,0,1
207089,-100,4,3,1,75,0,0
207964,-100,4,3,1,5,0,0
208089,-100,4,3,1,100,0,1
209964,-100,4,3,1,5,0,1
210089,-100,4,3,1,100,0,1
213964,-100,4,3,1,5,0,1
214089,-100,4,3,1,100,0,1
217964,-100,4,3,1,5,0,1
218089,-100,4,3,1,100,0,1
222089,-100,4,3,1,80,0,1
224089,-100,4,3,1,30,0,0

[Colours]
Combo1 : 128,0,255
Combo2 : 0,128,255
Combo3 : 255,128,255
Combo4 : 213,0,0

[HitObjects]
256,192,14089,12,2,15839,2:0:0:0:
208,80,16089,6,0,B|256:64|256:64|321:89,1,97.5,6|2,0:0|0:0,0:0:0:0:
329,97,16464,1,0,0:0:0:0:
329,97,16589,1,6,0:0:0:0:
423,71,16839,1,2,0:0:0:0:
458,161,17089,2,0,L|353:191,1,97.5,6|2,0:0|0:0,0:0:0:0:
372,284,17589,2,0,L|465:257,1,97.5,4|0,0:0|0:0,0:0:0:0:
364,187,18089,5,6,0:0:0:0:
282,241,18339,1,2,0:0:0:0:
272,243,18464,1,0,0:0:0:0:
262,246,18589,2,0,L|153:284,1,97.5,6|2,0:0|0:0,0:0:0:0:
105,351,19089,2,0,P|77:310|86:238,1,97.5,6|0,0:0|0:0,0:0:0:0:
121,177,19589,1,6,0:0:0:0:
42,118,19839,1,2,0:0:0:0:
51,22,20089,6,0,P|104:11|163:44,1,97.5,6|2,0:0|0:0,0:0:0:0:
170,46,20464,1,0,0:0:0:0:
170,46,20589,1,6,0:0:0:0:
238,114,20839,1,2,0:0:0:0:
210,207,21089,2,0,P|262:208|316:171,1,97.5,6|2,0:0|0:0,0:0:0:0:
361,110,21589,2,0,B|376:171|376:171|390:180|390:180|406:265,1,146.25,4|0,0:0|0:0,0:0:0:0:
436,284,22089,6,0,L|321:302,1,97.5,6|2,0:0|0:0,0:0:0:0:
243,317,22589,1,6,0:0:0:0:
301,187,22839,1,2,0:0:0:0:
236,340,23089,2,0,B|141:322|141:322|32:347,1,195,6|6,0:0|0:0,0:0:0:0:
82,254,23839,1,2,0:0:0:0:
37,167,24089,6,0,B|72:172|72:172|148:151,1,97.5,6|2,0:0|0:0,0:0:0:0:
177,138,24464,1,0,0:0:0:0:
177,138,24589,1,6,0:0:0:0:
273,151,24839,1,2,0:0:0:0:
362,113,25089,2,0,B|370:162|370:162|359:240,1,97.5,6|2,0:0|0:0,0:0:0:0:
469,208,25589,2,0,B|463:161|463:161|471:112,1,97.5,4|0,0:0|0:0,0:0:0:0:
487,15,26089,5,6,0:0:0:0:
389,15,26339,1,2,0:0:0:0:
379,15,26464,1,0,0:0:0:0:
369,16,26589,2,0,L|249:16,1,97.5,6|2,0:0|0:0,0:0:0:0:
272,112,27089,2,0,L|399:112,1,97.5,6|0,0:0|0:0,0:0:0:0:
369,208,27589,1,6,0:0:0:0:
272,208,27839,1,2,0:0:0:0:
254,302,28089,2,0,B|325:318|325:318|413:302,1,146.25,6|0,0:0|0:0,0:0:0:0:
446,294,28589,5,6,0:0:0:0:
369,208,28839,1,0,0:0:0:0:
404,98,29089,1,6,0:0:0:0:
482,183,29339,1,0,0:0:0:0:
315,132,29589,1,4,0:0:0:0:
315,132,30089,5,2,0:0:0:0:
201,203,30339,1,2,0:0:0:0:
335,212,30589,1,2,0:0:0:0:
232,126,30839,1,2,0:0:0:0:
264,256,31089,1,2,0:0:0:0:
315,132,31339,1,2,0:0:0:0:
184,319,31589,1,0,0:0:0:0:
184,319,32089,6,0,P|184:266|164:206,1,97.5,6|2,0:2|0:0,0:0:0:0:
144,160,32464,1,0,0:0:0:0:
144,160,32589,1,10,0:0:0:0:
216,73,32839,1,2,0:0:0:0:
295,145,33089,1,6,0:0:0:0:
225,226,33339,1,2,0:0:0:0:
133,68,33589,2,0,P|152:17|202:-9,1,97.5,8|0,0:0|0:0,0:0:0:0:
305,57,34089,5,6,0:0:0:0:
374,182,34339,1,2,0:0:0:0:
391,41,34589,1,10,0:0:0:0:
295,145,34839,1,2,0:0:0:0:
434,117,35089,2,0,B|455:185|455:185|459:185|459:185|480:252,1,146.25,6|0,0:0|0:0,0:0:0:0:
505,300,35589,2,0,B|465:286|465:286|378:302,1,97.5,10|2,0:0|0:0,0:0:0:0:
305,314,36089,5,6,0:0:0:0:
341,211,36339,1,2,0:0:0:0:
341,211,36464,1,0,0:0:0:0:
341,211,36589,1,10,0:0:0:0:
410,295,36839,1,2,0:0:0:0:
335,193,37089,1,6,0:0:0:0:
297,338,37339,1,2,0:0:0:0:
505,285,37589,2,0,B|458:280|458:280|409:294,1,97.5,8|0,0:0|0:0,0:0:0:0:
297,338,38089,5,6,0:0:0:0:
325,210,38339,1,2,0:0:0:0:
208,338,38589,1,10,0:0:0:0:
180,210,38839,1,2,0:0:0:0:
102,369,39089,2,0,B|115:346|115:346|88:229,1,146.25,6|2,0:0|0:0,0:0:0:0:
65,174,39589,1,10,0:0:0:0:
180,210,39839,1,2,0:0:0:0:
265,132,40089,6,0,P|271:83|328:46,1,97.5,6|2,0:0|0:0,0:0:0:0:
377,63,40464,1,0,0:0:0:0:
377,63,40589,1,10,0:0:0:0:
400,208,40839,1,2,0:0:0:0:
256,208,41089,1,6,0:0:0:0:
400,208,41339,1,2,0:0:0:0:
400,352,41589,1,8,0:0:0:0:
256,352,41839,1,0,0:0:0:0:
468,161,42089,6,0,P|426:128|356:141,1,97.5,6|2,0:0|0:0,0:0:0:0:
329,177,42464,1,0,0:0:0:0:
329,177,42589,1,10,0:0:0:0:
484,179,42839,1,2,0:0:0:0:
357,57,43089,2,0,P|309:132|342:188,1,146.25,6|0,0:0|0:0,0:0:0:0:
383,127,43589,2,0,L|280:120,1,97.5,10|2,0:0|0:0,0:0:0:0:
208,110,44089,2,0,B|213:169|213:169|220:187|220:187|229:288,1,146.25,6|0,0:0|0:0,0:0:0:0:
232,293,44589,5,8,0:0:0:0:
330,194,44839,1,2,0:0:0:0:
455,279,45089,1,6,0:0:0:0:
329,289,45339,1,2,0:0:0:0:
497,204,45589,1,8,0:0:0:0:
497,204,46089,5,6,0:0:0:0:
472,361,46339,1,2,0:0:0:0:
329,289,46589,1,10,0:0:0:0:
512,289,46839,1,2,0:0:0:0:
272,343,47089,2,0,P|250:281|277:233,1,97.5,6|2,0:0|0:0,0:0:0:0:
432,120,47589,2,2,P|469:89|406:33,1,146.25,0|0,0:2|0:0,0:2:0:0:
382,32,48089,6,0,P|311:37|264:29,1,97.5,4|0,0:2|0:0,0:0:0:0:
244,37,48464,1,0,0:0:0:0:
244,37,48589,1,8,0:2:0:0:
255,146,48839,1,0,0:0:0:0:
152,215,49089,2,0,P|213:236|251:282,1,97.5,4|0,0:0|0:0,0:0:0:0:
255,297,49464,1,0,0:0:0:0:
255,297,49589,1,8,0:2:0:0:
342,232,49839,1,0,0:0:0:0:
158,293,50089,6,0,P|104:278|77:230,1,97.5,4|0,0:0|0:0,0:0:0:0:
77,199,50464,1,0,0:0:0:0:
77,199,50589,1,8,0:2:0:0:
174,201,50839,1,0,0:0:0:0:
289,105,51089,2,0,P|352:131|399:124,1,97.5,4|0,0:0|0:0,0:0:0:0:
420,112,51464,1,0,0:0:0:0:
420,112,51589,2,0,P|459:102|510:105,2,48.75,8|0|0,0:2|0:0|0:0,0:0:0:0:
466,240,52089,6,0,P|402:213|367:216,1,97.5,4|0,0:0|0:0,0:0:0:0:
335,223,52464,1,0,0:0:0:0:
335,223,52589,1,8,0:2:0:0:
202,191,52839,1,0,0:0:0:0:
173,325,53089,2,0,P|137:335|57:302,1,97.5,4|0,0:0|0:0,0:0:0:0:
56,283,53464,1,0,0:0:0:0:
56,283,53589,1,8,0:2:0:0:
119,184,53839,1,0,0:0:0:0:
71,63,54089,6,0,P|123:61|191:56,1,97.5,4|0,0:0|0:0,0:0:0:0:
210,57,54464,1,0,0:0:0:0:
210,57,54589,1,8,0:2:0:0:
282,106,54839,1,0,0:0:0:0:
347,0,55089,2,0,P|341:43|371:105,1,97.5,4|0,0:0|0:0,0:0:0:0:
391,123,55464,1,0,0:2:0:0:
391,123,55589,2,0,P|428:118|477:121,2,48.75,8|0|0,0:2|0:0|0:0,0:0:0:0:
360,216,56089,6,0,P|368:248|333:322,1,97.5,4|0,0:0|0:0,0:0:0:0:
279,333,56464,1,0,0:0:0:0:
279,333,56589,1,8,0:2:0:0:
144,355,56839,1,0,0:0:0:0:
144,355,56964,1,0,0:0:0:0:
144,355,57089,2,0,P|150:308|183:253,1,97.5
213,196,57464,1,0,0:0:0:0:
213,196,57589,2,0,P|220:148|243:105,1,97.5,8|0,0:2|0:0,0:0:0:0:
462,17,58089,5,4,0:0:0:0:
447,30,58214,1,0,0:0:0:0:
432,42,58339,2,0,L|353:58,1,48.75
489,108,58589,2,0,L|376:128,1,97.5,8|0,0:2|0:0,0:0:0:0:
306,24,58964,1,0,0:2:0:0:
306,24,59089,2,0,B|296:45|309:78|309:78|322:111|302:149,1,97.5,4|0,0:0|0:0,0:0:0:0:
326,171,59464,1,0,0:0:0:0:
326,171,59589,2,0,P|276:157|224:146,1,97.5,8|0,0:2|0:0,0:0:0:0:
183,245,60089,6,0,P|224:269|259:315,1,97.5,4|0,0:0|0:0,0:0:0:0:
328,288,60464,1,0,0:0:0:0:
328,288,60589,2,0,P|354:326|400:351,1,97.5,8|0,0:2|0:0,0:0:0:0:
475,343,60964,1,0,0:0:0:0:
475,343,61089,1,4,0:0:0:0:
340,384,61339,1,0,0:0:0:0:
340,384,61464,1,0,0:0:0:0:
340,384,61589,2,0,P|331:314|330:260,1,97.5,8|0,0:2|0:0,0:0:0:0:
258,177,62089,6,0,P|362:180|388:188,2,97.5,4|0|4,0:0|0:0|0:0,0:0:0:0:
418,137,62839,2,0,P|407:216|422:265,1,97.5
444,353,63339,1,0,0:0:0:0:
420,350,63464,1,0,0:0:0:0:
396,347,63589,1,0,0:0:0:0:
300,279,63839,1,0,0:0:0:0:
138,359,64089,5,4,2:0:0:0:
143,80,72089,6,0,B|181:152|136:131|166:193,1,116.999996429443,4|4,0:0|0:0,0:0:0:0:
150,263,73089,2,0,B|165:234|165:234|260:221,1,116.999996429443,4|4,0:0|0:0,0:0:0:0:
246,140,74089,1,4,0:0:0:0:
319,181,74589,1,4,0:0:0:0:
380,234,75089,2,0,L|365:308,1,58.4999982147217,4|0,0:0|0:0,0:0:0:0:
417,349,75589,2,0,P|382:366|306:333,1,116.999996429443,4|4,0:0|0:0,0:0:0:0:
238,349,76589,1,4,0:0:0:0:
267,282,77089,2,0,P|293:253|319:168,1,116.999996429443,4|4,0:0|0:0,0:0:0:0:
392,114,78089,5,2,2:0:0:0:
392,114,78339,2,0,L|456:121,1,48.75,4|2,2:0|2:0,2:0:0:0:
426,210,78839,5,2,2:0:0:0:
426,210,79089,2,0,L|361:204,1,48.75,4|2,2:0|2:0,2:0:0:0:
309,262,79589,6,2,B|326:198|326:198|312:104,1,146.25,0|0,0:0|0:0,0:2:0:0:
303,66,80089,6,0,L|201:83,1,97.5,6|2,0:2|0:0,0:0:0:0:
135,101,80464,1,0,0:0:0:0:
135,101,80589,1,10,0:0:0:0:
28,187,80839,1,2,0:0:0:0:
184,242,81089,2,0,P|193:282|186:354,1,97.5,6|2,0:0|0:0,0:0:0:0:
127,184,81589,2,0,B|152:211|152:211|283:211,1,146.25,8|0,0:0|0:0,0:0:0:0:
335,211,82089,5,6,0:0:0:0:
415,330,82339,1,2,0:0:0:0:
415,330,82464,1,0,0:0:0:0:
415,330,82589,2,0,P|441:276|480:227,1,97.5,10|2,0:0|0:0,0:0:0:0:
454,90,83089,1,6,0:0:0:0:
463,246,83339,1,2,0:0:0:0:
489,18,83589,2,0,P|454:11|387:43,1,97.5,10|2,0:0|0:0,0:0:0:0:
251,98,84089,6,0,B|286:104|286:104|347:69,1,97.5,6|2,0:0|0:0,0:0:0:0:
402,36,84464,1,0,0:0:0:0:
402,36,84589,1,10,0:0:0:0:
458,167,84839,1,2,0:0:0:0:
326,232,85089,1,6,0:0:0:0:
478,76,85339,1,2,0:0:0:0:
433,287,85589,2,0,B|332:314|332:314|274:307,1,146.25,8|0,0:0|0:0,0:0:0:0:
225,276,86089,5,6,0:0:0:0:
147,151,86339,1,2,0:0:0:0:
147,151,86464,1,0,0:0:0:0:
147,151,86589,1,10,0:0:0:0:
147,313,86839,1,2,0:0:0:0:
225,189,87089,1,6,0:0:0:0:
225,364,87339,1,2,0:0:0:0:
147,230,87589,2,0,L|43:230,1,97.5,10|2,0:0|0:0,0:0:0:0:
43,83,88089,6,0,L|147:83,1,97.5,6|2,0:0|0:0,0:0:0:0:
213,83,88464,1,0,0:0:0:0:
213,83,88589,1,10,0:0:0:0:
354,120,88839,1,2,0:0:0:0:
361,266,89089,1,6,0:0:0:0:
225,319,89339,1,2,0:0:0:0:
133,205,89589,2,0,B|118:184|118:184|191:192|191:192|201:197|201:197|271:202,1,146.25,8|0,0:0|0:0,0:0:0:0:
309,208,90089,5,6,0:0:0:0:
418,334,90339,1,2,0:0:0:0:
418,334,90464,1,0,0:0:0:0:
418,334,90589,1,10,0:0:0:0:
466,185,90839,1,2,0:0:0:0:
311,306,91089,1,6,0:0:0:0:
377,148,91339,1,2,0:0:0:0:
504,283,91589,2,0,P|471:230|473:161,1,97.5,10|2,0:0|0:0,0:0:0:0:
485,40,92089,2,0,B|443:63|443:63|301:57|301:57,1,146.25,6|0,0:0|0:0,0:0:0:0:
267,50,92589,5,10,0:0:0:0:
245,142,92839,1,2,0:0:0:0:
88,92,93089,1,6,0:0:0:0:
115,6,93339,1,2,0:0:0:0:
267,50,93589,1,8,0:0:0:0:
152,156,93839,1,0,0:0:0:0:
271,256,94089,6,0,L|389:217,1,97.5,6|2,0:0|0:0,0:0:0:0:
433,202,94464,1,0,0:0:0:0:
433,202,94589,1,10,0:0:0:0:
305,349,94839,1,2,0:0:0:0:
453,290,95089,1,6,0:0:0:0:
220,328,95339,1,2,0:0:0:0:
388,377,95589,1,8,0:0:0:0:
301,187,95839,1,0,0:0:0:0:
220,328,96089,6,0,L|99:326,1,97.5,6|2,0:2|0:0,0:0:0:0:
49,323,96464,1,0,0:0:0:0:
49,323,96589,1,10,0:0:0:0:
119,194,96839,1,2,0:0:0:0:
122,326,97089,1,6,0:0:0:0:
119,176,97339,1,2,0:0:0:0:
251,251,97589,2,0,B|272:210|260:159|260:159|273:183|323:190,1,146.25,8|0,0:0|0:0,0:0:0:0:
375,189,98089,5,6,0:0:0:0:
506,225,98339,1,2,0:0:0:0:
506,225,98464,1,0,0:0:0:0:
506,225,98589,1,10,0:0:0:0:
464,344,98839,1,2,0:0:0:0:
342,311,99089,1,6,0:0:0:0:
506,225,99339,1,2,0:0:0:0:
246,236,99589,2,0,P|226:188|263:116,1,97.5,10|2,0:0|0:0,0:0:0:0:
382,148,100089,6,0,P|391:195|371:238,1,97.5,6|2,0:0|0:0,0:0:0:0:
342,311,100464,1,0,0:0:0:0:
342,311,100589,1,10,0:0:0:0:
311,186,100839,1,2,0:0:0:0:
187,281,101089,1,6,0:0:0:0:
146,130,101339,1,2,0:0:0:0:
105,378,101589,2,0,B|98:361|98:361|156:358|156:358|161:363|161:363|235:359,1,146.25,8|0,0:0|0:0,0:0:0:0:
302,355,102089,5,6,0:0:0:0:
425,259,102339,1,2,0:0:0:0:
425,259,102464,1,0,0:0:0:0:
425,259,102589,1,10,0:0:0:0:
269,262,102839,1,2,0:0:0:0:
390,355,103089,1,6,0:0:0:0:
343,206,103339,1,2,0:0:0:0:
496,384,103589,2,0,B|482:335|482:335|501:290,1,97.5,10|2,0:0|0:0,0:0:0:0:
499,144,104089,6,0,B|513:95|513:95|494:50,1,97.5,6|2,0:0|0:0,0:0:0:0:
433,11,104464,1,0,0:0:0:0:
433,11,104589,1,10,0:0:0:0:
349,130,104839,1,2,0:0:0:0:
211,81,105089,2,0,B|220:136|220:136|201:204,1,97.5,6|2,0:0|0:0,0:0:0:0:
96,269,105589,2,0,P|103:239|166:293,1,146.25,8|0,0:0|0:0,0:0:0:0:
186,344,106089,6,0,B|225:335|225:335|305:335,1,97.5,6|2,0:0|0:0,0:0:0:0:
355,342,106464,1,0,0:0:0:0:
355,342,106589,1,10,0:0:0:0:
500,357,106839,1,2,0:0:0:0:
438,224,107089,1,6,0:0:0:0:
426,382,107339,1,2,0:0:0:0:
479,152,107589,2,0,P|433:142|376:167,1,97.5,10|2,0:0|0:0,0:0:0:0:
263,279,108089,2,0,B|247:197|280:244|245:100,1,146.25,6|0,0:0|0:0,0:0:0:0:
296,74,108589,6,0,P|247:60|199:84,1,97.5,10|2,0:0|0:0,0:0:0:0:
96,172,109089,1,6,0:0:0:0:
205,77,109339,1,2,0:0:0:0:
71,17,109589,1,8,0:0:0:0:
71,17,110089,5,6,0:0:0:0:
96,172,110339,1,2,0:0:0:0:
205,77,110589,1,10,0:0:0:0:
230,232,110839,1,2,0:0:0:0:
96,172,111089,1,6,0:0:0:0:
283,118,111339,1,2,0:0:0:0:
305,312,111589,2,0,P|224:301|139:318,1,146.25
88,357,112089,6,0,B|61:305|91:258|91:258|123:215|87:155,1,195,4|8,0:2|0:2,0:0:0:0:
161,311,112839,1,0,0:0:0:0:
96,172,113089,1,4,0:0:0:0:
257,208,113339,2,0,L|304:220,2,48.75,0|0|8,0:0|0:0|0:2,0:0:0:0:
144,64,113839,1,0,0:0:0:0:
331,46,114089,6,0,B|286:29|233:61|233:61|181:87|132:58,1,195,4|8,0:0|0:2,0:0:0:0:
71,172,114839,1,0,0:0:0:0:
144,64,115089,1,4,0:0:0:0:
260,131,115339,2,0,P|293:112|331:109,1,48.75,0|0,0:0|0:0,0:0:0:0:
379,75,115589,2,0,P|386:116|325:186,1,97.5,8|0,0:2|0:0,0:0:0:0:
502,224,116089,6,0,B|459:202|410:226|410:226|363:252|316:225,1,195,4|8,0:0|0:2,0:0:0:0:
168,320,116839,1,0,0:0:0:0:
315,224,117089,1,4,0:0:0:0:
151,329,117339,2,0,P|139:303|145:253,2,48.75,0|0|8,0:0|0:0|0:2,0:0:0:0:
0,209,117839,6,0,B|191:232|104:133|292:176,1,292.5,0|8,0:0|0:2,0:0:0:0:
417,159,118839,1,0,0:0:0:0:
293,99,119089,1,4,0:0:0:0:
302,248,119339,2,0,L|323:291,2,48.75,0|0|8,0:0|0:0|0:2,0:0:0:0:
185,152,119839,1,0,0:0:0:0:
185,152,120089,6,0,B|161:194|193:248|193:248|221:300|184:354,1,195,4|8,0:0|0:2,0:0:0:0:
257,188,120839,2,0,P|286:184|335:182,2,48.75
131,292,121339,2,0,P|106:293|82:296,2,48.75,0|0|8,0:0|0:0|0:2,0:0:0:0:
257,188,121839,1,0,0:0:0:0:
60,68,122089,6,0,P|119:70|158:74,1,97.5,4|0,0:0|0:0,0:0:0:0:
202,134,122464,1,0,0:0:0:0:
202,134,122589,2,0,P|212:80|219:23,1,97.5,8|0,0:2|0:0,0:0:0:0:
294,38,122964,1,0,0:0:0:0:
294,38,123089,2,0,P|300:86|309:134,1,97.5,4|0,0:0|0:0,0:0:0:0:
304,216,123464,1,0,0:0:0:0:
304,216,123589,2,0,P|249:207|202:219,1,97.5,8|0,0:2|0:0,0:0:0:0:
163,293,124089,6,0,B|216:293|216:293|257:267|301:293|301:293|363:293,1,195,4|8,0:0|0:2,0:0:0:0:
391,358,124839,1,0,0:0:0:0:
409,353,124964,1,0,0:0:0:0:
422,340,125089,2,0,P|436:292|410:236,1,97.5,4|0,0:0|0:0,0:0:0:0:
456,182,125464,1,0,0:0:0:0:
446,173,125589,2,0,P|383:176|351:211,1,97.5,8|0,0:2|0:0,0:0:0:0:
259,279,126089,5,4,0:0:0:0:
112,172,126339,1,0,0:0:0:0:
154,160,126464,1,0,0:0:0:0:
190,183,126589,1,8,0:2:0:0:
233,358,126839,1,0,0:0:0:0:
276,360,126964,1,0,0:0:0:0:
314,340,127089,2,2,B|348:338|370:350|370:350|407:337|407:337|440:354|462:350,1,156,4|6,0:0|0:2,0:2:0:0:
256,192,140089,12,0,143589,0:0:0:0:
189,295,144089,6,0,B|164:277|119:207|152:127|210:112|279:161|237:219,1,273,2|0,0:2|0:0,0:0:0:0:
241,211,146089,2,0,B|294:216|294:216|317:231|317:231|405:237|405:237|403:187|403:187|399:181|399:181|397:127,1,273,2|0,0:0|0:0,0:0:0:0:
447,69,148089,6,0,B|411:93|411:93|283:77|283:77|280:72|280:72|186:58,1,273,2|0,0:0|0:0,0:0:0:0:
186,58,150089,2,0,L|189:145,1,78,2|0,0:0|0:0,0:0:0:0:
154,201,150839,2,0,B|191:191|191:191|242:195,1,78,2|0,0:0|0:0,0:0:0:0:
306,159,151589,2,0,L|317:274,1,102.374996875763,2|0,0:0|0:0,0:2:0:0:
315,272,152089,6,0,B|320:316|365:325|410:314|407:256|407:256|401:182|429:216|416:122,1,273,2|0,0:0|0:0,0:0:0:0:
491,114,154089,2,0,P|491:157|344:117,1,273,2|0,0:0|0:0,0:0:0:0:
363,54,156089,6,0,B|304:47|304:47|291:50|291:50|239:44|239:44|228:38|228:38|186:30|186:30|204:125,1,273,2|0,0:0|0:0,0:0:0:0:
247,181,158089,2,0,B|182:147|182:147|172:145|172:145|85:98,2,175.499994644165,2|2|2,0:0|0:0|0:0,0:0:0:0:
247,181,160089,6,0,L|249:287,1,97.5,4|0,0:0|0:0,0:0:0:0:
224,326,160464,1,0,0:0:0:0:
224,326,160589,2,0,L|361:318,1,97.5,8|0,0:2|0:0,0:0:0:0:
426,342,161089,1,0,0:0:0:0:
395,239,161339,1,0,0:0:0:0:
492,111,161589,2,0,L|390:119,1,97.5,8|0,0:2|0:0,0:0:0:0:
323,38,162089,6,0,L|420:30,1,97.5,0|0,0:0|0:0,0:0:0:0:
512,123,162589,2,0,L|410:131,1,97.5,8|0,0:2|0:0,0:0:0:0:
367,157,162964,1,0,0:0:0:0:
367,157,163089,2,0,L|265:165,1,97.5,0|0,0:0|0:0,0:0:0:0:
175,112,163589,2,0,P|162:165|201:241,1,97.5,8|0,0:2|0:0,0:0:0:0:
218,302,164089,6,0,B|266:292|266:292|338:301,1,97.5,0|0,0:0|0:0,0:0:0:0:
365,312,164464,1,0,0:0:0:0:
365,312,164589,1,8,0:2:0:0:
464,352,164839,1,0,0:0:0:0:
438,227,165089,1,0,0:0:0:0:
482,106,165339,1,0,0:0:0:0:
482,106,165464,1,0,0:0:0:0:
482,106,165589,2,0,B|458:125|458:125|344:119,1,97.5,8|0,0:2|0:0,0:0:0:0:
283,118,166089,6,0,L|164:115,2,97.5,0|0|8,0:0|0:0|0:2,0:0:0:0:
391,121,166839,1,0,0:0:0:0:
248,192,167089,2,0,L|129:189,2,97.5,0|0|8,0:0|0:0|0:2,0:0:0:0:
283,118,167839,1,0,0:0:0:0:
267,337,168089,6,0,B|314:324|314:324|368:338,1,97.5,8|0,0:2|0:0,0:0:0:0:
445,253,168589,2,0,B|398:266|398:266|344:252,1,97.5,8|0,0:2|0:0,0:0:0:0:
249,194,169089,1,8,0:2:0:0:
249,194,169339,1,0,0:0:0:0:
361,162,169589,1,8,0:2:0:0:
361,162,169839,1,0,0:0:0:0:
143,299,170089,6,0,P|199:308|254:283,1,97.5,8|0,0:2|0:2,0:2:0:0:
322,344,170589,2,0,P|331:288|306:233,1,97.5,8|0,0:2|0:2,0:2:0:0:
361,162,171089,2,0,P|305:152|250:177,1,97.5,8|0,0:2|0:2,0:2:0:0:
182,116,171589,2,0,P|171:172|197:226,1,97.5,8|0,0:2|0:2,0:2:0:0:
322,344,172089,5,8,0:2:0:0:
419,200,172339,1,8,0:2:0:0:
425,373,172589,1,8,0:2:0:0:
318,236,172839,1,8,0:2:0:0:
485,284,173089,5,8,0:2:0:0:
245,290,173339,1,8,0:2:0:0:
424,168,173589,1,8,0:2:0:0:
423,384,173839,1,8,0:2:0:0:
285,165,174089,5,8,0:2:0:0:
500,289,174339,1,8,0:2:0:0:
234,312,174589,1,8,0:2:0:0:
451,40,174839,1,8,0:2:0:0:
512,384,175089,6,0,L|521:321,1,58.4999982147217,8|0,0:2|0:0,0:0:0:0:
371,139,175589,6,2,L|359:77,1,58.5,2|0,0:2|0:0,0:2:0:0:
354,71,176089,6,0,B|296:56|245:71,1,97.5,6|0,0:2|0:0,0:1:0:0:
91,116,176589,2,0,P|157:119|213:110,1,97.5,6|0,0:0|0:0,0:1:0:0:
428,158,177089,1,6,0:0:0:0:
310,226,177339,1,2,0:0:0:0:
355,97,177589,1,6,0:0:0:0:
389,229,177839,1,2,0:0:0:0:
509,164,178089,6,0,B|503:217|503:217|509:267,1,97.5,6|0,0:0|0:0,0:1:0:0:
389,325,178589,2,0,B|394:281|394:281|388:228,1,97.5,6|0,0:0|0:0,0:1:0:0:
345,36,179089,1,6,0:0:0:0:
249,133,179339,1,2,0:0:0:0:
212,1,179589,1,6,0:0:0:0:
248,146,179839,1,2,0:0:0:0:
366,79,180089,6,0,P|362:117|394:207,1,97.5,6|0,0:0|0:0,0:1:0:0:
239,241,180589,2,0,P|251:193|247:145,1,97.5,6|0,0:0|0:0,0:1:0:0:
202,17,181089,1,6,0:0:0:0:
112,122,181339,1,2,0:0:0:0:
247,145,181589,1,6,0:0:0:0:
202,17,181839,1,2,0:0:0:0:
112,122,182089,6,0,B|62:198|128:180|75:270,1,146.25,6|0,0:0|0:0,0:0:0:0:
26,315,182589,2,0,P|98:335|135:317,1,97.5,6|0,0:0|0:0,0:0:0:0:
249,361,183089,2,0,B|304:345|304:345|376:363,2,97.5,6|0|6,0:0|0:0|0:0,0:0:0:0:
214,238,183839,1,2,0:0:0:0:
214,238,184089,6,0,L|338:203,1,97.5,12|0,2:3|0:0,0:0:0:0:
288,145,184464,1,0,0:0:0:0:
288,145,184589,2,0,L|194:171,1,97.5,12|0,2:3|0:0,0:0:0:0:
72,202,185089,5,12,2:3:0:0:
194,170,185339,1,2,0:0:0:0:
225,293,185589,1,12,2:3:0:0:
102,323,185839,1,2,0:0:0:0:
289,83,186089,6,0,L|423:52,1,97.5,12|0,2:3|0:0,0:0:0:0:
412,128,186464,1,0,0:0:0:0:
412,128,186589,2,0,L|317:149,1,97.5,12|0,2:3|0:0,0:0:0:0:
164,180,187089,5,12,0:3:0:0:
316,149,187339,1,2,0:0:0:0:
346,303,187589,1,12,0:3:0:0:
193,332,187839,1,2,0:0:0:0:
141,168,188089,6,0,L|149:278,1,97.5,12|0,2:3|0:0,0:0:0:0:
80,277,188464,1,0,0:0:0:0:
80,277,188589,2,12,L|72:180,1,97.5,12|0,2:3|2:1,2:1:0:0:
227,7,189089,5,12,2:3:0:0:
379,71,189339,1,2,0:0:0:0:
314,224,189589,1,12,2:3:0:0:
161,158,189839,1,2,0:0:0:0:
227,7,190089,6,0,B|186:4|186:4|150:23,1,73.1250027894975,2|0,0:2|0:0,0:0:0:0:
139,36,190464,1,0,0:0:0:0:
139,36,190589,1,2,0:2:0:0:
161,158,190839,1,0,0:0:0:0:
354,198,191089,6,2,B|369:156|347:101|298:109|256:99|238:177|238:177|211:259|117:228,1,341.25,0|0,0:0|0:0,0:2:0:0:
161,158,192089,5,6,0:2:0:0:
120,338,192339,1,2,0:0:0:0:
120,338,192464,1,0,0:0:0:0:
120,338,192589,1,10,0:0:0:0:
260,217,192839,1,2,0:0:0:0:
74,217,193089,1,6,0:0:0:0:
215,336,193339,1,2,0:0:0:0:
97,121,193589,2,0,P|176:86|230:133,1,146.25,8|0,0:0|0:0,0:0:0:0:
260,217,194089,5,6,0:0:0:0:
361,61,194339,1,2,0:0:0:0:
361,61,194464,1,0,0:0:0:0:
361,61,194589,1,10,0:0:0:0:
341,245,194839,1,2,0:0:0:0:
220,114,195089,1,6,0:0:0:0:
404,184,195339,1,2,0:0:0:0:
294,316,195589,2,0,B|341:304|341:304|425:320,1,97.5,10|2,0:0|0:0,0:0:0:0:
188,348,196089,5,6,0:0:0:0:
106,170,196339,1,2,0:0:0:0:
106,170,196464,1,0,0:0:0:0:
106,170,196589,1,10,0:0:0:0:
32,350,196839,1,2,0:0:0:0:
195,244,197089,1,6,0:0:0:0:
25,146,197339,1,2,0:0:0:0:
171,54,197589,2,0,B|214:80|214:80|348:68,1,146.25,8|0,0:0|0:0,0:0:0:0:
406,71,198089,5,6,0:0:0:0:
446,265,198339,1,2,0:0:0:0:
446,265,198464,1,0,0:0:0:0:
446,265,198589,1,10,0:0:0:0:
309,71,198839,1,2,0:0:0:0:
287,264,199089,1,6,0:0:0:0:
452,160,199339,1,2,0:0:0:0:
239,330,199589,2,0,B|289:318|289:318|347:332,1,97.5,10|2,0:0|0:0,0:0:0:0:
498,372,200089,5,6,0:0:0:0:
459,166,200339,1,2,0:0:0:0:
459,166,200464,1,0,0:0:0:0:
459,166,200589,1,10,0:0:0:0:
333,328,200839,1,2,0:0:0:0:
511,249,201089,1,6,0:0:0:0:
354,132,201339,1,2,0:0:0:0:
333,328,201589,2,0,B|287:318|287:318|170:348,1,146.25,8|0,0:0|0:0,0:0:0:0:
99,372,202089,5,6,0:0:0:0:
131,179,202339,1,2,0:0:0:0:
131,179,202464,1,0,0:0:0:0:
131,179,202589,1,10,0:0:0:0:
316,230,202839,1,2,0:0:0:0:
116,276,203089,1,6,0:0:0:0:
227,116,203339,1,2,0:0:0:0:
344,304,203589,2,0,P|391:257|386:202,1,97.5,10|2,0:0|0:0,0:0:0:0:
287,384,204089,6,0,B|256:351|256:351|169:338,1,97.5,6|0,0:0|0:0,0:0:0:0:
103,336,204464,1,0,0:0:0:0:
103,336,204589,1,10,0:0:0:0:
270,204,204839,1,2,0:0:0:0:
204,343,205089,1,6,0:0:0:0:
172,197,205339,1,2,0:0:0:0:
332,268,205589,1,8,0:0:0:0:
332,268,206089,5,6,0:0:0:0:
396,136,206339,1,2,0:0:0:0:
472,260,206589,1,10,0:0:0:0:
311,179,206839,1,2,0:0:0:0:
409,321,207089,1,0,0:0:0:0:
396,136,207339,1,0,0:0:0:0:
260,237,207589,2,0,P|316:258|363:239,1,97.5
354,50,208089,5,6,0:2:0:0:
187,151,208339,1,2,0:0:0:0:
187,151,208464,1,0,0:0:0:0:
187,151,208589,1,10,0:0:0:0:
210,22,208839,1,2,0:0:0:0:
329,176,209089,1,6,0:0:0:0:
140,226,209339,1,2,0:0:0:0:
394,131,209589,2,0,P|406:185|347:253,1,146.25,8|0,0:0|0:0,0:0:0:0:
256,231,210089,5,6,0:0:0:0:
217,28,210339,1,2,0:0:0:0:
217,28,210464,1,0,0:0:0:0:
217,28,210589,1,10,0:0:0:0:
56,169,210839,1,2,0:0:0:0:
268,116,211089,1,6,0:0:0:0:
48,67,211339,1,2,0:0:0:0:
338,74,211589,2,0,B|320:117|320:117|348:186,1,97.5,10|2,0:0|0:0,0:0:0:0:
403,349,212089,5,6,0:0:0:0:
416,122,212339,1,2,0:0:0:0:
416,122,212464,1,0,0:0:0:0:
416,122,212589,1,10,0:0:0:0:
474,311,212839,1,2,0:0:0:0:
339,164,213089,1,6,0:0:0:0:
403,349,213339,1,2,0:0:0:0:
234,293,213589,2,0,B|194:281|194:281|48:324,1,146.25,8|0,0:0|0:0,0:0:0:0:
7,357,214089,5,6,0:0:0:0:
95,161,214339,1,2,0:0:0:0:
95,161,214464,1,0,0:0:0:0:
95,161,214589,1,10,0:0:0:0:
193,368,214839,1,2,0:0:0:0:
4,233,215089,1,6,0:0:0:0:
234,293,215339,1,2,0:0:0:0:
14,315,215589,2,0,P|76:281|83:222,1,97.5,10|2,0:0|0:0,0:0:0:0:
186,46,216089,5,6,0:0:0:0:
165,255,216339,1,2,0:0:0:0:
165,255,216464,1,0,0:0:0:0:
165,255,216589,1,10,0:0:0:0:
326,46,216839,1,2,0:0:0:0:
347,255,217089,1,6,0:0:0:0:
161,144,217339,1,2,0:0:0:0:
415,213,217589,2,0,P|424:288|345:337,1,146.25,8|0,0:0|0:0,0:0:0:0:
268,343,218089,5,6,0:0:0:0:
264,128,218339,1,2,0:0:0:0:
264,128,218464,1,0,0:0:0:0:
264,128,218589,1,10,0:0:0:0:
82,243,218839,1,2,0:0:0:0:
296,243,219089,1,6,0:0:0:0:
103,128,219339,1,2,0:0:0:0:
357,178,219589,2,0,P|381:235|354:301,1,97.5,10|2,0:0|0:0,0:0:0:0:
378,88,220089,6,0,B|356:80|356:80|259:93,1,97.5,6|2,0:0|0:0,0:0:0:0:
193,102,220464,1,0,0:0:0:0:
193,102,220589,1,10,0:0:0:0:
190,260,220839,1,2,0:0:0:0:
297,129,221089,1,6,0:0:0:0:
129,179,221339,1,2,0:0:0:0:
293,229,221589,1,8,0:0:0:0:
293,229,222089,5,2,0:0:0:0:
338,69,222339,1,2,0:0:0:0:
395,225,222589,1,2,0:0:0:0:
257,132,222839,1,2,0:0:0:0:
423,127,223089,1,2,0:0:0:0:
283,247,223339,1,2,0:0:0:0:
467,384,223589,2,0,P|393:357|375:357,1,97.5
338,365,223964,1,0,0:0:0:0:
338,365,224089,5,4,0:2:0:0:
