osu file format v14

[General]
AudioFilename: audio.ogg
AudioLeadIn: 0
PreviewTime: 64834
Countdown: 0
SampleSet: Soft
StackLeniency: 0.7
Mode: 3
LetterboxInBreaks: 0
SpecialStyle: 0
WidescreenStoryboard: 0

[Editor]
DistanceSpacing: 1
BeatDivisor: 8
GridSize: 4
TimelineZoom: 1.9

[Metadata]
Title:BIG DICK
TitleUnicode:BIG DICK
Artist:LITTLE BIG
ArtistUnicode:LITTLE BIG
Creator:keksikosu
Version:SOOO BIG?
Source:
Tags:russian русский English chordjack cj dump vocal tech speed minijack mj большой биг дик novelty electronic Hip Hop meme MocaLoca Flade Илья Прусикин Iliya Ilya Prusikin Олимпия Ивлева Olimpiya Ivleva кликклак klikklak Funeral Rave Trash
BeatmapID:4058012
BeatmapSetID:1956910

[Difficulty]
HPDrainRate:8.5
CircleSize:4
OverallDifficulty:8
ApproachRate:5
SliderMultiplier:1.4
SliderTickRate:1

[Events]
//Background and Video events
0,0,"pika.jpg",0,0
//Break Periods
//Storyboard Layer 0 (Background)
//Storyboard Layer 1 (Fail)
//Storyboard Layer 2 (Pass)
//Storyboard Layer 3 (Foreground)
//Storyboard Layer 4 (Overlay)
//Storyboard Sound Samples

[TimingPoints]
1074,500,4,2,1,40,1,0
17074,-100,4,2,1,40,0,1
33074,-100,4,2,1,40,0,0
65074,-100,4,2,1,40,0,1
81074,-100,4,2,1,40,0,0
137074,-100,4,2,1,40,0,1
153074,-100,4,2,1,40,0,0

[HitObjects]
448,192,1074,5,0,0:0:0:0:
64,192,1074,1,0,0:0:0:0:
192,192,1449,1,0,0:0:0:0:
320,192,1574,1,0,0:0:0:0:
448,192,1574,1,0,0:0:0:0:
192,192,1824,1,0,0:0:0:0:
320,192,2074,1,0,0:0:0:0:
448,192,2074,1,0,0:0:0:0:
64,192,2199,1,0,0:0:0:0:
448,192,2574,1,0,0:0:0:0:
320,192,2574,1,0,0:0:0:0:
320,192,2824,1,0,0:0:0:0:
192,192,2949,1,0,0:0:0:0:
448,192,3074,1,0,0:0:0:0:
64,192,3074,1,0,0:0:0:0:
320,192,3449,1,0,0:0:0:0:
192,192,3574,1,0,0:0:0:0:
64,192,3574,1,0,0:0:0:0:
320,192,3824,1,0,0:0:0:0:
192,192,4074,1,0,0:0:0:0:
64,192,4074,1,0,0:0:0:0:
448,192,4199,1,0,0:0:0:0:
192,192,4574,1,0,0:0:0:0:
64,192,4574,1,0,0:0:0:0:
320,192,4699,1,0,0:0:0:0:
192,192,4824,1,0,0:0:0:0:
320,192,4949,1,0,0:0:0:0:
448,192,5074,1,0,0:0:0:0:
64,192,5074,1,0,0:0:0:0:
192,192,5449,1,0,0:0:0:0:
320,192,5574,1,0,0:0:0:0:
448,192,5574,1,0,0:0:0:0:
192,192,5824,1,0,0:0:0:0:
320,192,6074,1,0,0:0:0:0:
448,192,6074,1,0,0:0:0:0:
64,192,6199,1,0,0:0:0:0:
448,192,6574,1,0,0:0:0:0:
320,192,6574,1,0,0:0:0:0:
320,192,6824,1,0,0:0:0:0:
192,192,6949,1,0,0:0:0:0:
64,192,7074,1,0,0:0:0:0:
448,192,7074,1,0,0:0:0:0:
320,192,7449,1,0,0:0:0:0:
192,192,7574,1,0,0:0:0:0:
64,192,7574,1,0,0:0:0:0:
320,192,7824,1,0,0:0:0:0:
192,192,8074,1,0,0:0:0:0:
64,192,8074,1,0,0:0:0:0:
448,192,8199,1,0,0:0:0:0:
192,192,8574,1,0,0:0:0:0:
64,192,8574,1,0,0:0:0:0:
192,192,8824,1,0,0:0:0:0:
320,192,8949,1,0,0:0:0:0:
448,192,9074,128,0,9324:0:0:0:0:
64,192,9074,128,0,9324:0:0:0:0:
192,192,9449,1,0,0:0:0:0:
192,192,9824,1,0,0:0:0:0:
64,192,10199,1,0,0:0:0:0:
320,192,10824,1,0,0:0:0:0:
192,192,10949,1,0,0:0:0:0:
448,192,11074,1,0,0:0:0:0:
320,192,11449,1,0,0:0:0:0:
320,192,11824,1,0,0:0:0:0:
448,192,12199,1,0,0:0:0:0:
192,192,12574,1,0,0:0:0:0:
320,192,12699,1,0,0:0:0:0:
192,192,12824,1,0,0:0:0:0:
320,192,12949,1,0,0:0:0:0:
64,192,13074,1,0,0:0:0:0:
192,192,13449,1,0,0:0:0:0:
192,192,13824,1,0,0:0:0:0:
64,192,14199,1,0,0:0:0:0:
192,192,14824,1,0,0:0:0:0:
320,192,14949,1,0,0:0:0:0:
64,192,15074,1,0,0:0:0:0:
192,192,15074,1,0,0:0:0:0:
192,192,15199,1,0,0:0:0:0:
64,192,15199,1,0,0:0:0:0:
320,192,15324,1,0,0:0:0:0:
448,192,15324,1,0,0:0:0:0:
320,192,15449,1,0,0:0:0:0:
448,192,15449,1,0,0:0:0:0:
192,192,15574,1,0,0:0:0:0:
64,192,15574,1,0,0:0:0:0:
192,192,15699,1,0,0:0:0:0:
64,192,15699,1,0,0:0:0:0:
320,192,15824,1,0,0:0:0:0:
448,192,15824,1,0,0:0:0:0:
448,192,15949,1,0,0:0:0:0:
320,192,15949,1,0,0:0:0:0:
192,192,16074,1,0,0:0:0:0:
64,192,16074,1,0,0:0:0:0:
320,192,16074,1,0,0:0:0:0:
448,192,16199,1,0,0:0:0:0:
192,192,16824,1,0,0:0:0:0:
448,192,16824,1,0,0:0:0:0:
320,192,16949,1,0,0:0:0:0:
192,192,17074,1,0,0:0:0:0:
64,192,17074,1,0,0:0:0:0:
448,192,17074,1,0,0:0:0:0:
64,192,17199,1,0,0:0:0:0:
320,192,17199,1,0,0:0:0:0:
192,192,17324,1,0,0:0:0:0:
448,192,17324,1,0,0:0:0:0:
320,192,17449,1,0,0:0:0:0:
192,192,17449,1,0,0:0:0:0:
64,192,17449,1,0,0:0:0:0:
64,192,17574,1,0,0:0:0:0:
320,192,17574,1,0,0:0:0:0:
448,192,17574,1,0,0:0:0:0:
192,192,17824,1,0,0:0:0:0:
448,192,17824,1,0,0:0:0:0:
320,192,17824,1,0,0:0:0:0:
64,192,18074,1,0,0:0:0:0:
192,192,18074,1,0,0:0:0:0:
64,192,18199,1,0,0:0:0:0:
320,192,18199,1,0,0:0:0:0:
448,192,18199,1,0,0:0:0:0:
192,192,18324,1,0,0:0:0:0:
320,192,18324,1,0,0:0:0:0:
448,192,18449,1,0,0:0:0:0:
64,192,18449,1,0,0:0:0:0:
192,192,18574,1,0,0:0:0:0:
64,192,18574,1,0,0:0:0:0:
320,192,18574,1,0,0:0:0:0:
448,192,18824,1,0,0:0:0:0:
320,192,18824,1,0,0:0:0:0:
320,192,18949,1,0,0:0:0:0:
64,192,19074,1,0,0:0:0:0:
192,192,19074,1,0,0:0:0:0:
448,192,19074,1,0,0:0:0:0:
64,192,19199,1,0,0:0:0:0:
448,192,19324,1,0,0:0:0:0:
192,192,19324,1,0,0:0:0:0:
64,192,19449,1,0,0:0:0:0:
448,192,19449,1,0,0:0:0:0:
320,192,19449,1,0,0:0:0:0:
192,192,19574,1,0,0:0:0:0:
64,192,19574,1,0,0:0:0:0:
320,192,19574,1,0,0:0:0:0:
192,192,19699,1,0,0:0:0:0:
320,192,19824,1,0,0:0:0:0:
64,192,19824,1,0,0:0:0:0:
448,192,19824,1,0,0:0:0:0:
192,192,20074,1,0,0:0:0:0:
64,192,20074,1,0,0:0:0:0:
448,192,20199,1,0,0:0:0:0:
320,192,20199,1,0,0:0:0:0:
64,192,20199,1,0,0:0:0:0:
192,192,20324,1,0,0:0:0:0:
448,192,20324,1,0,0:0:0:0:
192,192,20449,1,0,0:0:0:0:
320,192,20574,1,0,0:0:0:0:
64,192,20574,1,0,0:0:0:0:
448,192,20574,1,0,0:0:0:0:
320,192,20699,1,0,0:0:0:0:
448,192,20824,1,0,0:0:0:0:
64,192,20824,1,0,0:0:0:0:
64,192,20949,1,0,0:0:0:0:
448,192,21074,1,0,0:0:0:0:
320,192,21074,1,0,0:0:0:0:
192,192,21074,1,0,0:0:0:0:
320,192,21199,1,0,0:0:0:0:
64,192,21199,1,0,0:0:0:0:
192,192,21324,1,0,0:0:0:0:
448,192,21324,1,0,0:0:0:0:
320,192,21449,1,0,0:0:0:0:
64,192,21449,1,0,0:0:0:0:
192,192,21449,1,0,0:0:0:0:
320,192,21574,1,0,0:0:0:0:
448,192,21574,1,0,0:0:0:0:
64,192,21574,1,0,0:0:0:0:
192,192,21824,1,0,0:0:0:0:
320,192,21824,1,0,0:0:0:0:
448,192,21824,1,0,0:0:0:0:
64,192,22074,1,0,0:0:0:0:
320,192,22074,1,0,0:0:0:0:
448,192,22199,1,0,0:0:0:0:
320,192,22199,1,0,0:0:0:0:
192,192,22199,1,0,0:0:0:0:
64,192,22324,1,0,0:0:0:0:
192,192,22324,1,0,0:0:0:0:
320,192,22449,1,0,0:0:0:0:
448,192,22449,1,0,0:0:0:0:
192,192,22574,1,0,0:0:0:0:
64,192,22574,1,0,0:0:0:0:
448,192,22574,1,0,0:0:0:0:
320,192,22824,1,0,0:0:0:0:
64,192,22824,1,0,0:0:0:0:
64,192,22949,1,0,0:0:0:0:
448,192,23074,1,0,0:0:0:0:
192,192,23074,1,0,0:0:0:0:
320,192,23074,1,0,0:0:0:0:
448,192,23199,1,0,0:0:0:0:
192,192,23324,1,0,0:0:0:0:
64,192,23324,1,0,0:0:0:0:
64,192,23449,1,0,0:0:0:0:
320,192,23449,1,0,0:0:0:0:
448,192,23449,1,0,0:0:0:0:
320,192,23574,1,0,0:0:0:0:
192,192,23574,1,0,0:0:0:0:
448,192,23574,1,0,0:0:0:0:
192,192,23699,1,0,0:0:0:0:
64,192,23824,1,0,0:0:0:0:
448,192,23824,1,0,0:0:0:0:
320,192,23824,1,0,0:0:0:0:
192,192,24074,1,0,0:0:0:0:
448,192,24074,1,0,0:0:0:0:
320,192,24199,1,0,0:0:0:0:
192,192,24199,1,0,0:0:0:0:
64,192,24199,1,0,0:0:0:0:
448,192,24324,1,0,0:0:0:0:
64,192,24324,1,0,0:0:0:0:
320,192,24386,1,0,0:0:0:0:
192,192,24449,1,0,0:0:0:0:
192,192,24574,1,0,0:0:0:0:
448,192,24574,1,0,0:0:0:0:
320,192,24636,1,0,0:0:0:0:
64,192,24657,1,0,0:0:0:0:
448,192,24699,1,0,0:0:0:0:
192,192,24824,1,0,0:0:0:0:
64,192,24824,1,0,0:0:0:0:
320,192,24886,1,0,0:0:0:0:
448,192,24949,1,0,0:0:0:0:
192,192,24949,1,0,0:0:0:0:
64,192,24949,1,0,0:0:0:0:
448,192,25074,1,0,0:0:0:0:
320,192,25074,1,0,0:0:0:0:
192,192,25136,1,0,0:0:0:0:
64,192,25199,1,0,0:0:0:0:
320,192,25261,1,0,0:0:0:0:
192,192,25324,1,0,0:0:0:0:
448,192,25386,1,0,0:0:0:0:
320,192,25449,1,0,0:0:0:0:
64,192,25449,1,0,0:0:0:0:
448,192,25574,1,0,0:0:0:0:
192,192,25574,1,0,0:0:0:0:
64,192,25574,1,0,0:0:0:0:
192,192,25824,1,0,0:0:0:0:
448,192,25824,1,0,0:0:0:0:
320,192,25907,1,0,0:0:0:0:
64,192,25990,1,0,0:0:0:0:
448,192,26074,1,0,0:0:0:0:
320,192,26074,1,0,0:0:0:0:
192,192,26136,1,0,0:0:0:0:
320,192,26199,1,0,0:0:0:0:
64,192,26199,1,0,0:0:0:0:
448,192,26261,1,0,0:0:0:0:
192,192,26324,1,0,0:0:0:0:
320,192,26386,1,0,0:0:0:0:
448,192,26574,1,0,0:0:0:0:
320,192,26574,1,0,0:0:0:0:
192,192,26574,1,0,0:0:0:0:
64,192,26636,1,0,0:0:0:0:
448,192,26699,1,0,0:0:0:0:
64,192,26761,1,0,0:0:0:0:
320,192,26824,1,0,0:0:0:0:
192,192,26886,1,0,0:0:0:0:
320,192,26949,1,0,0:0:0:0:
192,192,27011,1,0,0:0:0:0:
64,192,27074,1,0,0:0:0:0:
448,192,27074,1,0,0:0:0:0:
320,192,27136,1,0,0:0:0:0:
192,192,27199,1,0,0:0:0:0:
448,192,27261,1,0,0:0:0:0:
64,192,27324,1,0,0:0:0:0:
192,192,27386,1,0,0:0:0:0:
448,192,27449,1,0,0:0:0:0:
320,192,27449,1,0,0:0:0:0:
192,192,27574,1,0,0:0:0:0:
64,192,27574,1,0,0:0:0:0:
448,192,27574,1,0,0:0:0:0:
320,192,27636,1,0,0:0:0:0:
192,192,27699,1,0,0:0:0:0:
64,192,27761,1,0,0:0:0:0:
448,192,27824,1,0,0:0:0:0:
320,192,27824,1,0,0:0:0:0:
192,192,28074,1,0,0:0:0:0:
64,192,28074,1,0,0:0:0:0:
320,192,28136,1,0,0:0:0:0:
448,192,28199,1,0,0:0:0:0:
192,192,28199,1,0,0:0:0:0:
64,192,28261,1,0,0:0:0:0:
320,192,28324,1,0,0:0:0:0:
448,192,28386,1,0,0:0:0:0:
64,192,28431,1,0,0:0:0:0:
192,192,28502,1,0,0:0:0:0:
320,192,28574,1,0,0:0:0:0:
64,192,28574,1,0,0:0:0:0:
448,192,28574,1,0,0:0:0:0:
192,192,28636,1,0,0:0:0:0:
320,192,28699,1,0,0:0:0:0:
64,192,28761,1,0,0:0:0:0:
448,192,28824,1,0,0:0:0:0:
192,192,28886,1,0,0:0:0:0:
448,192,28949,1,0,0:0:0:0:
192,192,29011,1,0,0:0:0:0:
320,192,29074,1,0,0:0:0:0:
64,192,29074,1,0,0:0:0:0:
448,192,29136,1,0,0:0:0:0:
192,192,29199,1,0,0:0:0:0:
320,192,29261,1,0,0:0:0:0:
64,192,29324,1,0,0:0:0:0:
192,192,29386,1,0,0:0:0:0:
320,192,29449,1,0,0:0:0:0:
448,192,29449,1,0,0:0:0:0:
448,192,29574,1,0,0:0:0:0:
64,192,29574,1,0,0:0:0:0:
192,192,29574,1,0,0:0:0:0:
448,192,29824,1,0,0:0:0:0:
64,192,29824,1,0,0:0:0:0:
320,192,29907,1,0,0:0:0:0:
192,192,29990,1,0,0:0:0:0:
448,192,30074,1,0,0:0:0:0:
320,192,30074,1,0,0:0:0:0:
64,192,30136,1,0,0:0:0:0:
192,192,30199,1,0,0:0:0:0:
448,192,30199,1,0,0:0:0:0:
320,192,30261,1,0,0:0:0:0:
192,192,30324,1,0,0:0:0:0:
64,192,30386,1,0,0:0:0:0:
320,192,30574,1,0,0:0:0:0:
192,192,30574,1,0,0:0:0:0:
64,192,30574,1,0,0:0:0:0:
448,192,30636,1,0,0:0:0:0:
192,192,30699,1,0,0:0:0:0:
448,192,30761,1,0,0:0:0:0:
64,192,30824,1,0,0:0:0:0:
320,192,30886,1,0,0:0:0:0:
64,192,30949,1,0,0:0:0:0:
320,192,31011,1,0,0:0:0:0:
192,192,31074,1,0,0:0:0:0:
448,192,31074,1,0,0:0:0:0:
64,192,31136,1,0,0:0:0:0:
320,192,31199,1,0,0:0:0:0:
192,192,31261,1,0,0:0:0:0:
448,192,31324,1,0,0:0:0:0:
320,192,31386,1,0,0:0:0:0:
64,192,31449,1,0,0:0:0:0:
192,192,31449,1,0,0:0:0:0:
320,192,31574,1,0,0:0:0:0:
448,192,31574,1,0,0:0:0:0:
64,192,31574,1,0,0:0:0:0:
192,192,31636,1,0,0:0:0:0:
320,192,31699,1,0,0:0:0:0:
448,192,31761,1,0,0:0:0:0:
64,192,31824,1,0,0:0:0:0:
192,192,31824,1,0,0:0:0:0:
320,192,32074,1,0,0:0:0:0:
448,192,32074,1,0,0:0:0:0:
192,192,32136,1,0,0:0:0:0:
64,192,32199,1,0,0:0:0:0:
320,192,32199,1,0,0:0:0:0:
448,192,32261,1,0,0:0:0:0:
192,192,32324,1,0,0:0:0:0:
64,192,32324,1,0,0:0:0:0:
192,192,32449,1,0,0:0:0:0:
320,192,32449,1,0,0:0:0:0:
320,192,32574,1,0,0:0:0:0:
448,192,32574,1,0,0:0:0:0:
64,192,32574,1,0,0:0:0:0:
192,192,32657,1,0,0:0:0:0:
320,192,32740,1,0,0:0:0:0:
192,192,32824,1,0,0:0:0:0:
448,192,32824,1,0,0:0:0:0:
64,192,32949,1,0,0:0:0:0:
192,192,32949,1,0,0:0:0:0:
320,192,32949,1,0,0:0:0:0:
64,192,33074,1,0,0:0:0:0:
320,192,33074,1,0,0:0:0:0:
448,192,33074,1,0,0:0:0:0:
192,192,33199,1,0,0:0:0:0:
64,192,33324,1,0,0:0:0:0:
320,192,33324,1,0,0:0:0:0:
192,192,33449,1,0,0:0:0:0:
448,192,33449,1,0,0:0:0:0:
320,192,33574,1,0,0:0:0:0:
64,192,33574,1,0,0:0:0:0:
448,192,33574,1,0,0:0:0:0:
192,192,33699,1,0,0:0:0:0:
192,192,33824,1,0,0:0:0:0:
448,192,33824,1,0,0:0:0:0:
320,192,33949,1,0,0:0:0:0:
64,192,34074,1,0,0:0:0:0:
448,192,34074,1,0,0:0:0:0:
64,192,34199,1,0,0:0:0:0:
320,192,34199,1,0,0:0:0:0:
192,192,34324,1,0,0:0:0:0:
448,192,34449,1,0,0:0:0:0:
320,192,34449,1,0,0:0:0:0:
192,192,34574,1,0,0:0:0:0:
64,192,34574,1,0,0:0:0:0:
448,192,34574,1,0,0:0:0:0:
320,192,34657,1,0,0:0:0:0:
192,192,34740,1,0,0:0:0:0:
64,192,34824,1,0,0:0:0:0:
448,192,34824,1,0,0:0:0:0:
320,192,34907,1,0,0:0:0:0:
192,192,34990,1,0,0:0:0:0:
448,192,35074,1,0,0:0:0:0:
320,192,35074,1,0,0:0:0:0:
64,192,35199,1,0,0:0:0:0:
192,192,35324,1,0,0:0:0:0:
448,192,35324,1,0,0:0:0:0:
320,192,35449,1,0,0:0:0:0:
64,192,35449,1,0,0:0:0:0:
64,192,35574,1,0,0:0:0:0:
192,192,35574,1,0,0:0:0:0:
448,192,35574,1,0,0:0:0:0:
320,192,35699,1,0,0:0:0:0:
320,192,35824,1,0,0:0:0:0:
64,192,35824,1,0,0:0:0:0:
192,192,35949,1,0,0:0:0:0:
320,192,36074,1,0,0:0:0:0:
448,192,36074,1,0,0:0:0:0:
448,192,36199,1,0,0:0:0:0:
64,192,36199,1,0,0:0:0:0:
192,192,36324,1,0,0:0:0:0:
320,192,36324,1,0,0:0:0:0:
64,192,36449,1,0,0:0:0:0:
448,192,36449,1,0,0:0:0:0:
64,192,36574,1,0,0:0:0:0:
192,192,36605,1,0,0:0:0:0:
320,192,36636,1,0,0:0:0:0:
448,192,36667,1,0,0:0:0:0:
448,192,36824,1,0,0:0:0:0:
320,192,36855,1,0,0:0:0:0:
192,192,36886,1,0,0:0:0:0:
64,192,36917,1,0,0:0:0:0:
320,192,37074,1,0,0:0:0:0:
64,192,37074,1,0,0:0:0:0:
448,192,37199,1,0,0:0:0:0:
192,192,37324,1,0,0:0:0:0:
64,192,37324,1,0,0:0:0:0:
320,192,37449,1,0,0:0:0:0:
448,192,37449,1,0,0:0:0:0:
64,192,37574,1,0,0:0:0:0:
192,192,37574,1,0,0:0:0:0:
320,192,37574,1,0,0:0:0:0:
448,192,37699,1,0,0:0:0:0:
64,192,37824,1,0,0:0:0:0:
448,192,37824,1,0,0:0:0:0:
192,192,37949,1,0,0:0:0:0:
448,192,38074,1,0,0:0:0:0:
64,192,38074,1,0,0:0:0:0:
320,192,38199,1,0,0:0:0:0:
64,192,38199,1,0,0:0:0:0:
192,192,38324,1,0,0:0:0:0:
448,192,38449,1,0,0:0:0:0:
320,192,38449,1,0,0:0:0:0:
192,192,38574,1,0,0:0:0:0:
64,192,38574,1,0,0:0:0:0:
320,192,38574,1,0,0:0:0:0:
448,192,38657,1,0,0:0:0:0:
192,192,38740,1,0,0:0:0:0:
448,192,38824,1,0,0:0:0:0:
320,192,38824,1,0,0:0:0:0:
64,192,38907,1,0,0:0:0:0:
320,192,38990,1,0,0:0:0:0:
192,192,39074,1,0,0:0:0:0:
64,192,39074,1,0,0:0:0:0:
192,192,39199,1,0,0:0:0:0:
448,192,39324,1,0,0:0:0:0:
320,192,39324,1,0,0:0:0:0:
64,192,39449,1,0,0:0:0:0:
192,192,39449,1,0,0:0:0:0:
320,192,39574,1,0,0:0:0:0:
448,192,39574,1,0,0:0:0:0:
64,192,39574,1,0,0:0:0:0:
448,192,39699,1,0,0:0:0:0:
320,192,39824,1,0,0:0:0:0:
64,192,39824,1,0,0:0:0:0:
192,192,39949,1,0,0:0:0:0:
320,192,40074,1,0,0:0:0:0:
448,192,40074,1,0,0:0:0:0:
192,192,40157,1,0,0:0:0:0:
448,192,40199,1,0,0:0:0:0:
64,192,40240,1,0,0:0:0:0:
320,192,40324,1,0,0:0:0:0:
192,192,40365,1,0,0:0:0:0:
64,192,40407,1,0,0:0:0:0:
448,192,40449,1,0,0:0:0:0:
320,192,40490,1,0,0:0:0:0:
192,192,40532,1,0,0:0:0:0:
64,192,40574,1,0,0:0:0:0:
448,192,40574,1,0,0:0:0:0:
192,192,40824,1,0,0:0:0:0:
448,192,40824,1,0,0:0:0:0:
64,192,40949,1,0,0:0:0:0:
192,192,40949,1,0,0:0:0:0:
448,192,41074,1,0,0:0:0:0:
320,192,41074,1,0,0:0:0:0:
192,192,41324,1,0,0:0:0:0:
448,192,41324,1,0,0:0:0:0:
64,192,41449,1,0,0:0:0:0:
320,192,41449,1,0,0:0:0:0:
320,192,41574,1,0,0:0:0:0:
448,192,41574,1,0,0:0:0:0:
192,192,41574,1,0,0:0:0:0:
64,192,41699,1,0,0:0:0:0:
320,192,41824,1,0,0:0:0:0:
448,192,41824,1,0,0:0:0:0:
192,192,41949,1,0,0:0:0:0:
64,192,42074,1,0,0:0:0:0:
320,192,42074,1,0,0:0:0:0:
320,192,42199,1,0,0:0:0:0:
192,192,42199,1,0,0:0:0:0:
448,192,42324,1,0,0:0:0:0:
192,192,42449,1,0,0:0:0:0:
64,192,42449,1,0,0:0:0:0:
448,192,42574,1,0,0:0:0:0:
320,192,42574,1,0,0:0:0:0:
64,192,42574,1,0,0:0:0:0:
192,192,42657,1,0,0:0:0:0:
448,192,42740,1,0,0:0:0:0:
320,192,42824,1,0,0:0:0:0:
64,192,42824,1,0,0:0:0:0:
192,192,42907,1,0,0:0:0:0:
320,192,42990,1,0,0:0:0:0:
448,192,43074,1,0,0:0:0:0:
64,192,43074,1,0,0:0:0:0:
320,192,43199,1,0,0:0:0:0:
64,192,43199,1,0,0:0:0:0:
192,192,43324,1,0,0:0:0:0:
448,192,43324,1,0,0:0:0:0:
448,192,43449,1,0,0:0:0:0:
64,192,43449,1,0,0:0:0:0:
320,192,43574,1,0,0:0:0:0:
192,192,43574,1,0,0:0:0:0:
64,192,43574,1,0,0:0:0:0:
448,192,43699,1,0,0:0:0:0:
192,192,43824,1,0,0:0:0:0:
64,192,43824,1,0,0:0:0:0:
320,192,43949,1,0,0:0:0:0:
448,192,44074,1,0,0:0:0:0:
192,192,44074,1,0,0:0:0:0:
192,192,44199,1,0,0:0:0:0:
448,192,44199,1,0,0:0:0:0:
320,192,44324,1,0,0:0:0:0:
64,192,44449,1,0,0:0:0:0:
192,192,44449,1,0,0:0:0:0:
448,192,44574,1,0,0:0:0:0:
320,192,44605,1,0,0:0:0:0:
192,192,44636,1,0,0:0:0:0:
64,192,44667,1,0,0:0:0:0:
64,192,44824,1,0,0:0:0:0:
192,192,44855,1,0,0:0:0:0:
320,192,44886,1,0,0:0:0:0:
448,192,44917,1,0,0:0:0:0:
320,192,45074,1,0,0:0:0:0:
448,192,45074,1,0,0:0:0:0:
192,192,45199,1,0,0:0:0:0:
64,192,45324,1,0,0:0:0:0:
448,192,45324,1,0,0:0:0:0:
192,192,45449,1,0,0:0:0:0:
320,192,45449,1,0,0:0:0:0:
320,192,45574,1,0,0:0:0:0:
64,192,45574,1,0,0:0:0:0:
448,192,45574,1,0,0:0:0:0:
192,192,45699,1,0,0:0:0:0:
64,192,45824,1,0,0:0:0:0:
320,192,45824,1,0,0:0:0:0:
448,192,45949,1,0,0:0:0:0:
192,192,46074,1,0,0:0:0:0:
64,192,46074,1,0,0:0:0:0:
192,192,46199,1,0,0:0:0:0:
320,192,46199,1,0,0:0:0:0:
448,192,46324,1,0,0:0:0:0:
320,192,46449,1,0,0:0:0:0:
64,192,46449,1,0,0:0:0:0:
192,192,46574,1,0,0:0:0:0:
64,192,46574,1,0,0:0:0:0:
448,192,46574,1,0,0:0:0:0:
320,192,46657,1,0,0:0:0:0:
448,192,46740,1,0,0:0:0:0:
192,192,46824,1,0,0:0:0:0:
64,192,46824,1,0,0:0:0:0:
320,192,46907,1,0,0:0:0:0:
192,192,46990,1,0,0:0:0:0:
64,192,47074,1,0,0:0:0:0:
448,192,47074,1,0,0:0:0:0:
320,192,47199,1,0,0:0:0:0:
192,192,47324,1,0,0:0:0:0:
448,192,47324,1,0,0:0:0:0:
320,192,47449,1,0,0:0:0:0:
64,192,47449,1,0,0:0:0:0:
192,192,47574,1,0,0:0:0:0:
448,192,47574,1,0,0:0:0:0:
64,192,47574,1,0,0:0:0:0:
320,192,47699,1,0,0:0:0:0:
448,192,47824,1,0,0:0:0:0:
64,192,47824,1,0,0:0:0:0:
192,192,47949,1,0,0:0:0:0:
64,192,48074,1,0,0:0:0:0:
320,192,48074,1,0,0:0:0:0:
448,192,48157,1,0,0:0:0:0:
192,192,48199,1,0,0:0:0:0:
64,192,48240,1,0,0:0:0:0:
320,192,48324,1,0,0:0:0:0:
448,192,48324,1,0,0:0:0:0:
192,192,48407,1,0,0:0:0:0:
64,192,48490,1,0,0:0:0:0:
320,192,48574,1,0,0:0:0:0:
448,192,48574,1,0,0:0:0:0:
192,192,48615,1,0,0:0:0:0:
64,192,48657,1,0,0:0:0:0:
448,192,48699,1,0,0:0:0:0:
320,192,48740,1,0,0:0:0:0:
192,192,48782,1,0,0:0:0:0:
64,192,48824,1,0,0:0:0:0:
448,192,48824,1,0,0:0:0:0:
320,192,48949,1,0,0:0:0:0:
192,192,48949,1,0,0:0:0:0:
64,192,49074,1,0,0:0:0:0:
192,192,49074,1,0,0:0:0:0:
448,192,49074,1,0,0:0:0:0:
320,192,49324,1,0,0:0:0:0:
64,192,49449,1,0,0:0:0:0:
320,192,49574,1,0,0:0:0:0:
448,192,49574,1,0,0:0:0:0:
192,192,49574,1,0,0:0:0:0:
64,192,49824,1,0,0:0:0:0:
192,192,49824,1,0,0:0:0:0:
192,192,49949,1,0,0:0:0:0:
448,192,50074,1,0,0:0:0:0:
64,192,50074,1,0,0:0:0:0:
320,192,50199,1,0,0:0:0:0:
448,192,50324,1,0,0:0:0:0:
192,192,50324,1,0,0:0:0:0:
64,192,50449,1,0,0:0:0:0:
448,192,50574,1,0,0:0:0:0:
320,192,50574,1,0,0:0:0:0:
192,192,50574,1,0,0:0:0:0:
320,192,50824,1,0,0:0:0:0:
64,192,50824,1,0,0:0:0:0:
192,192,50949,1,0,0:0:0:0:
448,192,51074,1,0,0:0:0:0:
64,192,51074,1,0,0:0:0:0:
192,192,51324,1,0,0:0:0:0:
320,192,51449,1,0,0:0:0:0:
192,192,51574,1,0,0:0:0:0:
64,192,51574,1,0,0:0:0:0:
448,192,51574,1,0,0:0:0:0:
448,192,51824,1,0,0:0:0:0:
320,192,51824,1,0,0:0:0:0:
320,192,51949,1,0,0:0:0:0:
64,192,52074,1,0,0:0:0:0:
448,192,52074,1,0,0:0:0:0:
192,192,52199,1,0,0:0:0:0:
320,192,52324,1,0,0:0:0:0:
64,192,52324,1,0,0:0:0:0:
448,192,52449,1,0,0:0:0:0:
192,192,52574,1,0,0:0:0:0:
64,192,52574,1,0,0:0:0:0:
320,192,52574,1,0,0:0:0:0:
448,192,52824,1,0,0:0:0:0:
192,192,52824,1,0,0:0:0:0:
320,192,52949,1,0,0:0:0:0:
64,192,53074,1,0,0:0:0:0:
448,192,53074,1,0,0:0:0:0:
320,192,53324,1,0,0:0:0:0:
192,192,53449,1,0,0:0:0:0:
320,192,53574,1,0,0:0:0:0:
448,192,53574,1,0,0:0:0:0:
64,192,53574,1,0,0:0:0:0:
192,192,53824,1,0,0:0:0:0:
448,192,53824,1,0,0:0:0:0:
192,192,53949,1,0,0:0:0:0:
64,192,54074,1,0,0:0:0:0:
320,192,54074,1,0,0:0:0:0:
448,192,54199,1,0,0:0:0:0:
320,192,54324,1,0,0:0:0:0:
192,192,54324,1,0,0:0:0:0:
64,192,54449,1,0,0:0:0:0:
448,192,54574,1,0,0:0:0:0:
320,192,54574,1,0,0:0:0:0:
192,192,54574,1,0,0:0:0:0:
64,192,54824,1,0,0:0:0:0:
320,192,54824,1,0,0:0:0:0:
192,192,54949,1,0,0:0:0:0:
64,192,55074,1,0,0:0:0:0:
448,192,55074,1,0,0:0:0:0:
192,192,55324,1,0,0:0:0:0:
448,192,55324,1,0,0:0:0:0:
320,192,55449,1,0,0:0:0:0:
192,192,55574,1,0,0:0:0:0:
64,192,55574,1,0,0:0:0:0:
448,192,55574,1,0,0:0:0:0:
320,192,55824,1,0,0:0:0:0:
64,192,55824,1,0,0:0:0:0:
320,192,55949,1,0,0:0:0:0:
448,192,56074,1,0,0:0:0:0:
192,192,56074,1,0,0:0:0:0:
192,192,56199,1,0,0:0:0:0:
64,192,56324,1,0,0:0:0:0:
448,192,56324,1,0,0:0:0:0:
320,192,56324,1,0,0:0:0:0:
64,192,56574,1,0,0:0:0:0:
192,192,56574,1,0,0:0:0:0:
320,192,56574,1,0,0:0:0:0:
448,192,56824,1,0,0:0:0:0:
192,192,56824,1,0,0:0:0:0:
320,192,56949,1,0,0:0:0:0:
64,192,56949,1,0,0:0:0:0:
448,192,57074,1,0,0:0:0:0:
192,192,57074,1,0,0:0:0:0:
64,192,57074,1,0,0:0:0:0:
320,192,57324,1,0,0:0:0:0:
448,192,57324,1,0,0:0:0:0:
192,192,57449,1,0,0:0:0:0:
64,192,57574,1,0,0:0:0:0:
320,192,57574,1,0,0:0:0:0:
448,192,57574,1,0,0:0:0:0:
448,192,57824,1,0,0:0:0:0:
320,192,57824,1,0,0:0:0:0:
448,192,57949,1,0,0:0:0:0:
192,192,58074,1,0,0:0:0:0:
64,192,58074,1,0,0:0:0:0:
320,192,58199,1,0,0:0:0:0:
64,192,58324,1,0,0:0:0:0:
448,192,58324,1,0,0:0:0:0:
192,192,58449,1,0,0:0:0:0:
64,192,58574,1,0,0:0:0:0:
320,192,58574,1,0,0:0:0:0:
448,192,58574,1,0,0:0:0:0:
448,192,58824,1,0,0:0:0:0:
320,192,58824,1,0,0:0:0:0:
192,192,58949,1,0,0:0:0:0:
448,192,59074,1,0,0:0:0:0:
64,192,59074,1,0,0:0:0:0:
320,192,59199,1,0,0:0:0:0:
192,192,59324,1,0,0:0:0:0:
64,192,59324,1,0,0:0:0:0:
448,192,59449,1,0,0:0:0:0:
192,192,59574,1,0,0:0:0:0:
320,192,59574,1,0,0:0:0:0:
64,192,59574,1,0,0:0:0:0:
64,192,59824,1,0,0:0:0:0:
192,192,59824,1,0,0:0:0:0:
64,192,59949,1,0,0:0:0:0:
320,192,60074,1,0,0:0:0:0:
448,192,60074,1,0,0:0:0:0:
192,192,60199,1,0,0:0:0:0:
448,192,60324,1,0,0:0:0:0:
64,192,60324,1,0,0:0:0:0:
320,192,60449,1,0,0:0:0:0:
448,192,60574,1,0,0:0:0:0:
192,192,60574,1,0,0:0:0:0:
64,192,60574,1,0,0:0:0:0:
64,192,60824,1,0,0:0:0:0:
192,192,60824,1,0,0:0:0:0:
320,192,60949,1,0,0:0:0:0:
64,192,61074,1,0,0:0:0:0:
448,192,61074,1,0,0:0:0:0:
64,192,61199,1,0,0:0:0:0:
320,192,61324,1,0,0:0:0:0:
448,192,61324,1,0,0:0:0:0:
192,192,61449,1,0,0:0:0:0:
64,192,61449,1,0,0:0:0:0:
448,192,61574,1,0,0:0:0:0:
64,192,61574,1,0,0:0:0:0:
320,192,61574,1,0,0:0:0:0:
320,192,61699,1,0,0:0:0:0:
192,192,61824,1,0,0:0:0:0:
64,192,61824,1,0,0:0:0:0:
320,192,61949,1,0,0:0:0:0:
448,192,62074,1,0,0:0:0:0:
64,192,62074,1,0,0:0:0:0:
320,192,62199,1,0,0:0:0:0:
448,192,62199,1,0,0:0:0:0:
192,192,62324,1,0,0:0:0:0:
64,192,62324,1,0,0:0:0:0:
320,192,62449,1,0,0:0:0:0:
448,192,62574,1,0,0:0:0:0:
64,192,62574,1,0,0:0:0:0:
192,192,62574,1,0,0:0:0:0:
192,192,62699,1,0,0:0:0:0:
64,192,62824,1,0,0:0:0:0:
320,192,62824,1,0,0:0:0:0:
192,192,62949,1,0,0:0:0:0:
320,192,63074,1,0,0:0:0:0:
448,192,63074,1,0,0:0:0:0:
64,192,63199,1,0,0:0:0:0:
448,192,63199,1,0,0:0:0:0:
320,192,63324,1,0,0:0:0:0:
192,192,63324,1,0,0:0:0:0:
192,192,63449,1,0,0:0:0:0:
64,192,63449,1,0,0:0:0:0:
320,192,63574,1,0,0:0:0:0:
448,192,63574,1,0,0:0:0:0:
64,192,63574,1,0,0:0:0:0:
192,192,63699,1,0,0:0:0:0:
448,192,63699,1,0,0:0:0:0:
320,192,63824,1,0,0:0:0:0:
64,192,63824,1,0,0:0:0:0:
192,192,63949,1,0,0:0:0:0:
320,192,63949,1,0,0:0:0:0:
64,192,64074,1,0,0:0:0:0:
192,192,64074,1,0,0:0:0:0:
448,192,64074,1,0,0:0:0:0:
448,192,64324,1,0,0:0:0:0:
64,192,64324,1,0,0:0:0:0:
320,192,64449,1,0,0:0:0:0:
192,192,64449,1,0,0:0:0:0:
64,192,64574,1,0,0:0:0:0:
448,192,64574,1,0,0:0:0:0:
320,192,64824,1,0,0:0:0:0:
192,192,64824,1,0,0:0:0:0:
320,192,65074,1,0,0:0:0:0:
448,192,65074,1,0,0:0:0:0:
64,192,65074,1,0,0:0:0:0:
448,192,65199,1,0,0:0:0:0:
192,192,65199,1,0,0:0:0:0:
320,192,65324,1,0,0:0:0:0:
64,192,65324,1,0,0:0:0:0:
192,192,65449,1,0,0:0:0:0:
320,192,65449,1,0,0:0:0:0:
448,192,65449,1,0,0:0:0:0:
448,192,65574,1,0,0:0:0:0:
192,192,65574,1,0,0:0:0:0:
64,192,65574,1,0,0:0:0:0:
320,192,65824,1,0,0:0:0:0:
64,192,65824,1,0,0:0:0:0:
192,192,65824,1,0,0:0:0:0:
448,192,66074,1,0,0:0:0:0:
320,192,66074,1,0,0:0:0:0:
448,192,66199,1,0,0:0:0:0:
192,192,66199,1,0,0:0:0:0:
64,192,66199,1,0,0:0:0:0:
320,192,66324,1,0,0:0:0:0:
192,192,66324,1,0,0:0:0:0:
64,192,66449,1,0,0:0:0:0:
448,192,66449,1,0,0:0:0:0:
320,192,66574,1,0,0:0:0:0:
448,192,66574,1,0,0:0:0:0:
192,192,66574,1,0,0:0:0:0:
64,192,66824,1,0,0:0:0:0:
192,192,66824,1,0,0:0:0:0:
192,192,66949,1,0,0:0:0:0:
448,192,67074,1,0,0:0:0:0:
320,192,67074,1,0,0:0:0:0:
64,192,67074,1,0,0:0:0:0:
448,192,67199,1,0,0:0:0:0:
64,192,67324,1,0,0:0:0:0:
320,192,67324,1,0,0:0:0:0:
448,192,67449,1,0,0:0:0:0:
64,192,67449,1,0,0:0:0:0:
192,192,67449,1,0,0:0:0:0:
320,192,67574,1,0,0:0:0:0:
448,192,67574,1,0,0:0:0:0:
192,192,67574,1,0,0:0:0:0:
320,192,67699,1,0,0:0:0:0:
192,192,67824,1,0,0:0:0:0:
448,192,67824,1,0,0:0:0:0:
64,192,67824,1,0,0:0:0:0:
320,192,68074,1,0,0:0:0:0:
448,192,68074,1,0,0:0:0:0:
64,192,68199,1,0,0:0:0:0:
192,192,68199,1,0,0:0:0:0:
448,192,68199,1,0,0:0:0:0:
320,192,68324,1,0,0:0:0:0:
64,192,68324,1,0,0:0:0:0:
320,192,68449,1,0,0:0:0:0:
192,192,68574,1,0,0:0:0:0:
448,192,68574,1,0,0:0:0:0:
64,192,68574,1,0,0:0:0:0:
192,192,68699,1,0,0:0:0:0:
64,192,68824,1,0,0:0:0:0:
448,192,68824,1,0,0:0:0:0:
448,192,68949,1,0,0:0:0:0:
64,192,69074,1,0,0:0:0:0:
192,192,69074,1,0,0:0:0:0:
320,192,69074,1,0,0:0:0:0:
192,192,69199,1,0,0:0:0:0:
448,192,69199,1,0,0:0:0:0:
320,192,69324,1,0,0:0:0:0:
64,192,69324,1,0,0:0:0:0:
192,192,69449,1,0,0:0:0:0:
448,192,69449,1,0,0:0:0:0:
320,192,69449,1,0,0:0:0:0:
192,192,69574,1,0,0:0:0:0:
64,192,69574,1,0,0:0:0:0:
448,192,69574,1,0,0:0:0:0:
320,192,69824,1,0,0:0:0:0:
448,192,69824,1,0,0:0:0:0:
64,192,69824,1,0,0:0:0:0:
448,192,70074,1,0,0:0:0:0:
192,192,70074,1,0,0:0:0:0:
64,192,70199,1,0,0:0:0:0:
192,192,70199,1,0,0:0:0:0:
320,192,70199,1,0,0:0:0:0:
448,192,70324,1,0,0:0:0:0:
320,192,70324,1,0,0:0:0:0:
192,192,70449,1,0,0:0:0:0:
64,192,70449,1,0,0:0:0:0:
320,192,70574,1,0,0:0:0:0:
448,192,70574,1,0,0:0:0:0:
64,192,70574,1,0,0:0:0:0:
192,192,70824,1,0,0:0:0:0:
448,192,70824,1,0,0:0:0:0:
448,192,70949,1,0,0:0:0:0:
64,192,71074,1,0,0:0:0:0:
320,192,71074,1,0,0:0:0:0:
192,192,71074,1,0,0:0:0:0:
64,192,71199,1,0,0:0:0:0:
320,192,71324,1,0,0:0:0:0:
448,192,71324,1,0,0:0:0:0:
448,192,71449,1,0,0:0:0:0:
192,192,71449,1,0,0:0:0:0:
64,192,71449,1,0,0:0:0:0:
192,192,71574,1,0,0:0:0:0:
320,192,71574,1,0,0:0:0:0:
64,192,71574,1,0,0:0:0:0:
320,192,71699,1,0,0:0:0:0:
448,192,71824,1,0,0:0:0:0:
64,192,71824,1,0,0:0:0:0:
192,192,71824,1,0,0:0:0:0:
320,192,72074,1,0,0:0:0:0:
64,192,72074,1,0,0:0:0:0:
192,192,72199,1,0,0:0:0:0:
320,192,72199,1,0,0:0:0:0:
448,192,72199,1,0,0:0:0:0:
64,192,72324,1,0,0:0:0:0:
448,192,72324,1,0,0:0:0:0:
192,192,72386,1,0,0:0:0:0:
320,192,72449,1,0,0:0:0:0:
320,192,72574,1,0,0:0:0:0:
64,192,72574,1,0,0:0:0:0:
192,192,72636,1,0,0:0:0:0:
448,192,72657,1,0,0:0:0:0:
64,192,72699,1,0,0:0:0:0:
320,192,72824,1,0,0:0:0:0:
448,192,72824,1,0,0:0:0:0:
192,192,72886,1,0,0:0:0:0:
64,192,72949,1,0,0:0:0:0:
320,192,72949,1,0,0:0:0:0:
448,192,72949,1,0,0:0:0:0:
64,192,73074,1,0,0:0:0:0:
192,192,73074,1,0,0:0:0:0:
320,192,73136,1,0,0:0:0:0:
448,192,73199,1,0,0:0:0:0:
192,192,73261,1,0,0:0:0:0:
320,192,73324,1,0,0:0:0:0:
64,192,73386,1,0,0:0:0:0:
192,192,73449,1,0,0:0:0:0:
448,192,73449,1,0,0:0:0:0:
64,192,73574,1,0,0:0:0:0:
448,192,73574,1,0,0:0:0:0:
320,192,73574,1,0,0:0:0:0:
64,192,73824,1,0,0:0:0:0:
320,192,73824,1,0,0:0:0:0:
192,192,73907,1,0,0:0:0:0:
448,192,73990,1,0,0:0:0:0:
64,192,74074,1,0,0:0:0:0:
192,192,74074,1,0,0:0:0:0:
320,192,74136,1,0,0:0:0:0:
192,192,74199,1,0,0:0:0:0:
448,192,74199,1,0,0:0:0:0:
64,192,74261,1,0,0:0:0:0:
320,192,74324,1,0,0:0:0:0:
192,192,74386,1,0,0:0:0:0:
64,192,74574,1,0,0:0:0:0:
192,192,74574,1,0,0:0:0:0:
320,192,74574,1,0,0:0:0:0:
448,192,74636,1,0,0:0:0:0:
64,192,74699,1,0,0:0:0:0:
448,192,74761,1,0,0:0:0:0:
192,192,74824,1,0,0:0:0:0:
320,192,74886,1,0,0:0:0:0:
192,192,74949,1,0,0:0:0:0:
320,192,75011,1,0,0:0:0:0:
448,192,75074,1,0,0:0:0:0:
64,192,75074,1,0,0:0:0:0:
192,192,75136,1,0,0:0:0:0:
320,192,75199,1,0,0:0:0:0:
64,192,75261,1,0,0:0:0:0:
448,192,75324,1,0,0:0:0:0:
320,192,75386,1,0,0:0:0:0:
64,192,75449,1,0,0:0:0:0:
192,192,75449,1,0,0:0:0:0:
320,192,75574,1,0,0:0:0:0:
448,192,75574,1,0,0:0:0:0:
64,192,75574,1,0,0:0:0:0:
192,192,75636,1,0,0:0:0:0:
320,192,75699,1,0,0:0:0:0:
448,192,75761,1,0,0:0:0:0:
64,192,75824,1,0,0:0:0:0:
192,192,75824,1,0,0:0:0:0:
320,192,76074,1,0,0:0:0:0:
448,192,76074,1,0,0:0:0:0:
192,192,76136,1,0,0:0:0:0:
64,192,76199,1,0,0:0:0:0:
320,192,76199,1,0,0:0:0:0:
448,192,76261,1,0,0:0:0:0:
192,192,76324,1,0,0:0:0:0:
64,192,76386,1,0,0:0:0:0:
448,192,76431,1,0,0:0:0:0:
320,192,76502,1,0,0:0:0:0:
192,192,76574,1,0,0:0:0:0:
448,192,76574,1,0,0:0:0:0:
64,192,76574,1,0,0:0:0:0:
320,192,76636,1,0,0:0:0:0:
192,192,76699,1,0,0:0:0:0:
448,192,76761,1,0,0:0:0:0:
64,192,76824,1,0,0:0:0:0:
320,192,76886,1,0,0:0:0:0:
64,192,76949,1,0,0:0:0:0:
320,192,77011,1,0,0:0:0:0:
192,192,77074,1,0,0:0:0:0:
448,192,77074,1,0,0:0:0:0:
64,192,77136,1,0,0:0:0:0:
320,192,77199,1,0,0:0:0:0:
192,192,77261,1,0,0:0:0:0:
448,192,77324,1,0,0:0:0:0:
320,192,77386,1,0,0:0:0:0:
192,192,77449,1,0,0:0:0:0:
64,192,77449,1,0,0:0:0:0:
64,192,77574,1,0,0:0:0:0:
448,192,77574,1,0,0:0:0:0:
320,192,77574,1,0,0:0:0:0:
64,192,77824,1,0,0:0:0:0:
448,192,77824,1,0,0:0:0:0:
192,192,77907,1,0,0:0:0:0:
320,192,77990,1,0,0:0:0:0:
64,192,78074,1,0,0:0:0:0:
192,192,78074,1,0,0:0:0:0:
448,192,78136,1,0,0:0:0:0:
320,192,78199,1,0,0:0:0:0:
64,192,78199,1,0,0:0:0:0:
192,192,78261,1,0,0:0:0:0:
320,192,78324,1,0,0:0:0:0:
448,192,78386,1,0,0:0:0:0:
192,192,78574,1,0,0:0:0:0:
320,192,78574,1,0,0:0:0:0:
448,192,78574,1,0,0:0:0:0:
64,192,78636,1,0,0:0:0:0:
320,192,78699,1,0,0:0:0:0:
64,192,78761,1,0,0:0:0:0:
448,192,78824,1,0,0:0:0:0:
192,192,78886,1,0,0:0:0:0:
448,192,78949,1,0,0:0:0:0:
192,192,79011,1,0,0:0:0:0:
320,192,79074,1,0,0:0:0:0:
64,192,79074,1,0,0:0:0:0:
448,192,79136,1,0,0:0:0:0:
192,192,79199,1,0,0:0:0:0:
320,192,79261,1,0,0:0:0:0:
64,192,79324,1,0,0:0:0:0:
192,192,79386,1,0,0:0:0:0:
448,192,79449,1,0,0:0:0:0:
320,192,79449,1,0,0:0:0:0:
192,192,79574,1,0,0:0:0:0:
64,192,79574,1,0,0:0:0:0:
448,192,79574,1,0,0:0:0:0:
320,192,79636,1,0,0:0:0:0:
192,192,79699,1,0,0:0:0:0:
64,192,79761,1,0,0:0:0:0:
448,192,79824,1,0,0:0:0:0:
320,192,79824,1,0,0:0:0:0:
192,192,80074,1,0,0:0:0:0:
64,192,80074,1,0,0:0:0:0:
320,192,80136,1,0,0:0:0:0:
448,192,80199,1,0,0:0:0:0:
192,192,80199,1,0,0:0:0:0:
64,192,80261,1,0,0:0:0:0:
320,192,80324,1,0,0:0:0:0:
448,192,80324,1,0,0:0:0:0:
192,192,80449,1,0,0:0:0:0:
320,192,80449,1,0,0:0:0:0:
192,192,80574,1,0,0:0:0:0:
64,192,80574,1,0,0:0:0:0:
448,192,80574,1,0,0:0:0:0:
320,192,80657,1,0,0:0:0:0:
192,192,80740,1,0,0:0:0:0:
320,192,80824,1,0,0:0:0:0:
64,192,80824,1,0,0:0:0:0:
448,192,80949,1,0,0:0:0:0:
320,192,80949,1,0,0:0:0:0:
192,192,80949,1,0,0:0:0:0:
448,192,81074,1,0,0:0:0:0:
192,192,81074,1,0,0:0:0:0:
64,192,81074,1,0,0:0:0:0:
320,192,81199,1,0,0:0:0:0:
448,192,81324,1,0,0:0:0:0:
192,192,81324,1,0,0:0:0:0:
320,192,81449,1,0,0:0:0:0:
64,192,81449,1,0,0:0:0:0:
192,192,81574,1,0,0:0:0:0:
448,192,81574,1,0,0:0:0:0:
64,192,81574,1,0,0:0:0:0:
320,192,81699,1,0,0:0:0:0:
448,192,81824,1,0,0:0:0:0:
192,192,81824,1,0,0:0:0:0:
64,192,81949,1,0,0:0:0:0:
448,192,82074,1,0,0:0:0:0:
320,192,82074,1,0,0:0:0:0:
64,192,82199,1,0,0:0:0:0:
448,192,82199,1,0,0:0:0:0:
320,192,82324,1,0,0:0:0:0:
64,192,82324,1,0,0:0:0:0:
192,192,82449,1,0,0:0:0:0:
448,192,82449,1,0,0:0:0:0:
320,192,82574,1,0,0:0:0:0:
448,192,82574,1,0,0:0:0:0:
64,192,82574,1,0,0:0:0:0:
192,192,82657,1,0,0:0:0:0:
320,192,82740,1,0,0:0:0:0:
448,192,82824,1,0,0:0:0:0:
64,192,82824,1,0,0:0:0:0:
192,192,82907,1,0,0:0:0:0:
320,192,82990,1,0,0:0:0:0:
64,192,83074,1,0,0:0:0:0:
192,192,83074,1,0,0:0:0:0:
448,192,83199,1,0,0:0:0:0:
320,192,83324,1,0,0:0:0:0:
192,192,83324,1,0,0:0:0:0:
64,192,83449,1,0,0:0:0:0:
448,192,83449,1,0,0:0:0:0:
448,192,83574,1,0,0:0:0:0:
320,192,83574,1,0,0:0:0:0:
192,192,83574,1,0,0:0:0:0:
64,192,83699,1,0,0:0:0:0:
320,192,83824,1,0,0:0:0:0:
448,192,83824,1,0,0:0:0:0:
192,192,83949,1,0,0:0:0:0:
320,192,84074,1,0,0:0:0:0:
64,192,84074,1,0,0:0:0:0:
64,192,84199,1,0,0:0:0:0:
448,192,84199,1,0,0:0:0:0:
320,192,84324,1,0,0:0:0:0:
448,192,84324,1,0,0:0:0:0:
192,192,84449,1,0,0:0:0:0:
64,192,84449,1,0,0:0:0:0:
448,192,84574,1,0,0:0:0:0:
320,192,84605,1,0,0:0:0:0:
192,192,84636,1,0,0:0:0:0:
64,192,84667,1,0,0:0:0:0:
64,192,84824,1,0,0:0:0:0:
192,192,84855,1,0,0:0:0:0:
320,192,84886,1,0,0:0:0:0:
448,192,84917,1,0,0:0:0:0:
192,192,85074,1,0,0:0:0:0:
448,192,85074,1,0,0:0:0:0:
64,192,85199,1,0,0:0:0:0:
320,192,85324,1,0,0:0:0:0:
448,192,85324,1,0,0:0:0:0:
192,192,85449,1,0,0:0:0:0:
64,192,85449,1,0,0:0:0:0:
448,192,85574,1,0,0:0:0:0:
320,192,85574,1,0,0:0:0:0:
192,192,85574,1,0,0:0:0:0:
64,192,85699,1,0,0:0:0:0:
320,192,85824,1,0,0:0:0:0:
192,192,85824,1,0,0:0:0:0:
448,192,85949,1,0,0:0:0:0:
64,192,86074,1,0,0:0:0:0:
320,192,86074,1,0,0:0:0:0:
192,192,86199,1,0,0:0:0:0:
448,192,86199,1,0,0:0:0:0:
320,192,86324,1,0,0:0:0:0:
192,192,86324,1,0,0:0:0:0:
64,192,86449,1,0,0:0:0:0:
448,192,86449,1,0,0:0:0:0:
320,192,86574,1,0,0:0:0:0:
448,192,86574,1,0,0:0:0:0:
192,192,86574,1,0,0:0:0:0:
64,192,86657,1,0,0:0:0:0:
320,192,86740,1,0,0:0:0:0:
64,192,86824,1,0,0:0:0:0:
192,192,86824,1,0,0:0:0:0:
448,192,86907,1,0,0:0:0:0:
192,192,86990,1,0,0:0:0:0:
320,192,87074,1,0,0:0:0:0:
448,192,87074,1,0,0:0:0:0:
320,192,87199,1,0,0:0:0:0:
64,192,87324,1,0,0:0:0:0:
192,192,87324,1,0,0:0:0:0:
448,192,87449,1,0,0:0:0:0:
320,192,87449,1,0,0:0:0:0:
192,192,87574,1,0,0:0:0:0:
64,192,87574,1,0,0:0:0:0:
448,192,87574,1,0,0:0:0:0:
64,192,87699,1,0,0:0:0:0:
192,192,87824,1,0,0:0:0:0:
448,192,87824,1,0,0:0:0:0:
320,192,87949,1,0,0:0:0:0:
192,192,88074,1,0,0:0:0:0:
64,192,88074,1,0,0:0:0:0:
320,192,88157,1,0,0:0:0:0:
64,192,88199,1,0,0:0:0:0:
448,192,88240,1,0,0:0:0:0:
192,192,88324,1,0,0:0:0:0:
320,192,88365,1,0,0:0:0:0:
448,192,88407,1,0,0:0:0:0:
64,192,88449,1,0,0:0:0:0:
192,192,88490,1,0,0:0:0:0:
320,192,88532,1,0,0:0:0:0:
448,192,88574,1,0,0:0:0:0:
64,192,88574,1,0,0:0:0:0:
192,192,88824,1,0,0:0:0:0:
64,192,88824,1,0,0:0:0:0:
192,192,88949,1,0,0:0:0:0:
320,192,88949,1,0,0:0:0:0:
64,192,89074,1,0,0:0:0:0:
320,192,89074,1,0,0:0:0:0:
448,192,89074,1,0,0:0:0:0:
320,192,89324,1,0,0:0:0:0:
64,192,89324,1,0,0:0:0:0:
448,192,89449,1,0,0:0:0:0:
192,192,89449,1,0,0:0:0:0:
192,192,89574,1,0,0:0:0:0:
64,192,89574,1,0,0:0:0:0:
320,192,89574,1,0,0:0:0:0:
448,192,89699,1,0,0:0:0:0:
320,192,89824,1,0,0:0:0:0:
192,192,89824,1,0,0:0:0:0:
64,192,89949,1,0,0:0:0:0:
448,192,90074,1,0,0:0:0:0:
320,192,90074,1,0,0:0:0:0:
64,192,90199,1,0,0:0:0:0:
448,192,90199,1,0,0:0:0:0:
64,192,90324,1,0,0:0:0:0:
192,192,90324,1,0,0:0:0:0:
320,192,90449,1,0,0:0:0:0:
448,192,90449,1,0,0:0:0:0:
64,192,90574,1,0,0:0:0:0:
192,192,90574,1,0,0:0:0:0:
448,192,90574,1,0,0:0:0:0:
320,192,90657,1,0,0:0:0:0:
64,192,90740,1,0,0:0:0:0:
192,192,90824,1,0,0:0:0:0:
448,192,90824,1,0,0:0:0:0:
320,192,90907,1,0,0:0:0:0:
192,192,90990,1,0,0:0:0:0:
64,192,91074,1,0,0:0:0:0:
448,192,91074,1,0,0:0:0:0:
320,192,91199,1,0,0:0:0:0:
192,192,91324,1,0,0:0:0:0:
64,192,91324,1,0,0:0:0:0:
320,192,91449,1,0,0:0:0:0:
448,192,91449,1,0,0:0:0:0:
192,192,91574,1,0,0:0:0:0:
64,192,91574,1,0,0:0:0:0:
448,192,91574,1,0,0:0:0:0:
320,192,91699,1,0,0:0:0:0:
192,192,91824,1,0,0:0:0:0:
448,192,91824,1,0,0:0:0:0:
64,192,91949,1,0,0:0:0:0:
320,192,91949,1,0,0:0:0:0:
192,192,92074,1,0,0:0:0:0:
320,192,92074,1,0,0:0:0:0:
448,192,92199,1,0,0:0:0:0:
64,192,92199,1,0,0:0:0:0:
192,192,92324,1,0,0:0:0:0:
64,192,92324,1,0,0:0:0:0:
448,192,92449,1,0,0:0:0:0:
320,192,92449,1,0,0:0:0:0:
64,192,92574,1,0,0:0:0:0:
192,192,92605,1,0,0:0:0:0:
320,192,92636,1,0,0:0:0:0:
448,192,92667,1,0,0:0:0:0:
448,192,92824,1,0,0:0:0:0:
320,192,92855,1,0,0:0:0:0:
192,192,92886,1,0,0:0:0:0:
64,192,92917,1,0,0:0:0:0:
192,192,93074,1,0,0:0:0:0:
64,192,93074,1,0,0:0:0:0:
448,192,93199,1,0,0:0:0:0:
320,192,93324,1,0,0:0:0:0:
192,192,93324,1,0,0:0:0:0:
448,192,93449,1,0,0:0:0:0:
64,192,93449,1,0,0:0:0:0:
192,192,93574,1,0,0:0:0:0:
320,192,93574,1,0,0:0:0:0:
64,192,93574,1,0,0:0:0:0:
448,192,93699,1,0,0:0:0:0:
64,192,93824,1,0,0:0:0:0:
320,192,93824,1,0,0:0:0:0:
192,192,93949,1,0,0:0:0:0:
320,192,94074,1,0,0:0:0:0:
448,192,94074,1,0,0:0:0:0:
64,192,94199,1,0,0:0:0:0:
192,192,94199,1,0,0:0:0:0:
64,192,94324,1,0,0:0:0:0:
320,192,94324,1,0,0:0:0:0:
192,192,94449,1,0,0:0:0:0:
448,192,94449,1,0,0:0:0:0:
320,192,94574,1,0,0:0:0:0:
448,192,94574,1,0,0:0:0:0:
64,192,94574,1,0,0:0:0:0:
192,192,94657,1,0,0:0:0:0:
64,192,94740,1,0,0:0:0:0:
320,192,94824,1,0,0:0:0:0:
448,192,94824,1,0,0:0:0:0:
192,192,94907,1,0,0:0:0:0:
320,192,94990,1,0,0:0:0:0:
448,192,95074,1,0,0:0:0:0:
64,192,95074,1,0,0:0:0:0:
192,192,95199,1,0,0:0:0:0:
320,192,95324,1,0,0:0:0:0:
64,192,95324,1,0,0:0:0:0:
192,192,95449,1,0,0:0:0:0:
448,192,95449,1,0,0:0:0:0:
320,192,95574,1,0,0:0:0:0:
64,192,95574,1,0,0:0:0:0:
448,192,95574,1,0,0:0:0:0:
192,192,95699,1,0,0:0:0:0:
64,192,95824,1,0,0:0:0:0:
448,192,95824,1,0,0:0:0:0:
320,192,95949,1,0,0:0:0:0:
448,192,96074,1,0,0:0:0:0:
192,192,96074,1,0,0:0:0:0:
64,192,96157,1,0,0:0:0:0:
320,192,96199,1,0,0:0:0:0:
448,192,96240,1,0,0:0:0:0:
192,192,96324,1,0,0:0:0:0:
64,192,96324,1,0,0:0:0:0:
320,192,96407,1,0,0:0:0:0:
448,192,96490,1,0,0:0:0:0:
192,192,96574,1,0,0:0:0:0:
64,192,96574,1,0,0:0:0:0:
320,192,96615,1,0,0:0:0:0:
448,192,96657,1,0,0:0:0:0:
64,192,96699,1,0,0:0:0:0:
192,192,96740,1,0,0:0:0:0:
320,192,96782,1,0,0:0:0:0:
448,192,96824,1,0,0:0:0:0:
64,192,96824,1,0,0:0:0:0:
192,192,96949,1,0,0:0:0:0:
320,192,96949,1,0,0:0:0:0:
448,192,97074,1,0,0:0:0:0:
64,192,97074,1,0,0:0:0:0:
320,192,97074,1,0,0:0:0:0:
192,192,97324,1,0,0:0:0:0:
320,192,97574,1,0,0:0:0:0:
192,192,97824,1,0,0:0:0:0:
320,192,98074,1,0,0:0:0:0:
448,192,98074,1,0,0:0:0:0:
64,192,98324,1,0,0:0:0:0:
320,192,98574,1,0,0:0:0:0:
64,192,98824,1,0,0:0:0:0:
320,192,99074,1,0,0:0:0:0:
448,192,99074,1,0,0:0:0:0:
64,192,99324,1,0,0:0:0:0:
448,192,99574,1,0,0:0:0:0:
64,192,99824,1,0,0:0:0:0:
320,192,100074,1,0,0:0:0:0:
448,192,100074,1,0,0:0:0:0:
192,192,100324,1,0,0:0:0:0:
448,192,100574,1,0,0:0:0:0:
192,192,100824,1,0,0:0:0:0:
320,192,101074,1,0,0:0:0:0:
448,192,101074,1,0,0:0:0:0:
192,192,101324,1,0,0:0:0:0:
320,192,101574,1,0,0:0:0:0:
192,192,101824,1,0,0:0:0:0:
320,192,102074,1,0,0:0:0:0:
448,192,102074,1,0,0:0:0:0:
64,192,102324,1,0,0:0:0:0:
320,192,102574,1,0,0:0:0:0:
64,192,102824,1,0,0:0:0:0:
448,192,103074,1,0,0:0:0:0:
320,192,103074,1,0,0:0:0:0:
64,192,103324,1,0,0:0:0:0:
448,192,103574,1,0,0:0:0:0:
64,192,103824,1,0,0:0:0:0:
320,192,104074,1,0,0:0:0:0:
448,192,104074,1,0,0:0:0:0:
192,192,104324,1,0,0:0:0:0:
448,192,104574,1,0,0:0:0:0:
192,192,104824,1,0,0:0:0:0:
320,192,105074,1,0,0:0:0:0:
448,192,105074,1,0,0:0:0:0:
64,192,105074,1,0,0:0:0:0:
64,192,105449,1,0,0:0:0:0:
448,192,105574,1,0,0:0:0:0:
320,192,105574,1,0,0:0:0:0:
64,192,105824,1,0,0:0:0:0:
448,192,106074,1,0,0:0:0:0:
320,192,106074,1,0,0:0:0:0:
64,192,106199,1,0,0:0:0:0:
64,192,106324,1,0,0:0:0:0:
448,192,106324,1,0,0:0:0:0:
448,192,106574,1,0,0:0:0:0:
320,192,106574,1,0,0:0:0:0:
192,192,106824,1,0,0:0:0:0:
448,192,107074,1,0,0:0:0:0:
320,192,107074,1,0,0:0:0:0:
64,192,107449,1,0,0:0:0:0:
320,192,107574,1,0,0:0:0:0:
448,192,107574,1,0,0:0:0:0:
64,192,107824,1,0,0:0:0:0:
448,192,108074,1,0,0:0:0:0:
320,192,108074,1,0,0:0:0:0:
64,192,108199,1,0,0:0:0:0:
64,192,108324,1,0,0:0:0:0:
448,192,108324,1,0,0:0:0:0:
320,192,108574,1,0,0:0:0:0:
448,192,108574,1,0,0:0:0:0:
192,192,108824,1,0,0:0:0:0:
448,192,109074,1,0,0:0:0:0:
320,192,109074,1,0,0:0:0:0:
64,192,109449,1,0,0:0:0:0:
448,192,109574,1,0,0:0:0:0:
320,192,109574,1,0,0:0:0:0:
64,192,109824,1,0,0:0:0:0:
320,192,110074,1,0,0:0:0:0:
448,192,110074,1,0,0:0:0:0:
64,192,110199,1,0,0:0:0:0:
64,192,110324,1,0,0:0:0:0:
448,192,110324,1,0,0:0:0:0:
448,192,110574,1,0,0:0:0:0:
320,192,110574,1,0,0:0:0:0:
320,192,110824,1,0,0:0:0:0:
64,192,111074,1,0,0:0:0:0:
192,192,111074,1,0,0:0:0:0:
448,192,111449,1,0,0:0:0:0:
192,192,111574,1,0,0:0:0:0:
64,192,111574,1,0,0:0:0:0:
448,192,111824,1,0,0:0:0:0:
64,192,112074,1,0,0:0:0:0:
192,192,112074,1,0,0:0:0:0:
448,192,112199,1,0,0:0:0:0:
448,192,112324,1,0,0:0:0:0:
192,192,112324,1,0,0:0:0:0:
64,192,112574,1,0,0:0:0:0:
192,192,112574,1,0,0:0:0:0:
64,192,112824,1,0,0:0:0:0:
448,192,112949,1,0,0:0:0:0:
64,192,113074,1,0,0:0:0:0:
192,192,113074,1,0,0:0:0:0:
320,192,113324,1,0,0:0:0:0:
192,192,113324,1,0,0:0:0:0:
64,192,113449,1,0,0:0:0:0:
448,192,113574,1,0,0:0:0:0:
320,192,113574,1,0,0:0:0:0:
320,192,113824,1,0,0:0:0:0:
192,192,113824,1,0,0:0:0:0:
192,192,114074,1,0,0:0:0:0:
64,192,114074,1,0,0:0:0:0:
448,192,114199,1,0,0:0:0:0:
448,192,114324,1,0,0:0:0:0:
192,192,114324,1,0,0:0:0:0:
448,192,114574,1,0,0:0:0:0:
320,192,114574,1,0,0:0:0:0:
320,192,114824,1,0,0:0:0:0:
192,192,114824,1,0,0:0:0:0:
192,192,115074,1,0,0:0:0:0:
64,192,115074,1,0,0:0:0:0:
320,192,115324,1,0,0:0:0:0:
64,192,115324,1,0,0:0:0:0:
192,192,115449,1,0,0:0:0:0:
448,192,115574,1,0,0:0:0:0:
320,192,115574,1,0,0:0:0:0:
448,192,115824,1,0,0:0:0:0:
64,192,115824,1,0,0:0:0:0:
64,192,116074,1,0,0:0:0:0:
192,192,116074,1,0,0:0:0:0:
448,192,116199,1,0,0:0:0:0:
448,192,116324,1,0,0:0:0:0:
192,192,116324,1,0,0:0:0:0:
448,192,116574,1,0,0:0:0:0:
320,192,116574,1,0,0:0:0:0:
64,192,116824,1,0,0:0:0:0:
320,192,116824,1,0,0:0:0:0:
192,192,117074,1,0,0:0:0:0:
64,192,117074,1,0,0:0:0:0:
64,192,117199,1,0,0:0:0:0:
192,192,117199,1,0,0:0:0:0:
320,192,117324,1,0,0:0:0:0:
448,192,117324,1,0,0:0:0:0:
320,192,117449,1,0,0:0:0:0:
448,192,117449,1,0,0:0:0:0:
192,192,117574,1,0,0:0:0:0:
64,192,117574,1,0,0:0:0:0:
192,192,117699,1,0,0:0:0:0:
64,192,117699,1,0,0:0:0:0:
320,192,117824,1,0,0:0:0:0:
448,192,117824,1,0,0:0:0:0:
320,192,117949,1,0,0:0:0:0:
448,192,117949,1,0,0:0:0:0:
192,192,118074,1,0,0:0:0:0:
64,192,118074,1,0,0:0:0:0:
64,192,118199,1,0,0:0:0:0:
192,192,118199,1,0,0:0:0:0:
192,192,118324,1,0,0:0:0:0:
64,192,118324,1,0,0:0:0:0:
64,192,118449,1,0,0:0:0:0:
192,192,118449,1,0,0:0:0:0:
320,192,118574,1,0,0:0:0:0:
448,192,118574,1,0,0:0:0:0:
320,192,118699,1,0,0:0:0:0:
448,192,118699,1,0,0:0:0:0:
320,192,118824,1,0,0:0:0:0:
448,192,118824,1,0,0:0:0:0:
320,192,118949,1,0,0:0:0:0:
448,192,118949,1,0,0:0:0:0:
192,192,119074,1,0,0:0:0:0:
64,192,119074,1,0,0:0:0:0:
320,192,119136,1,0,0:0:0:0:
448,192,119199,1,0,0:0:0:0:
64,192,119199,1,0,0:0:0:0:
192,192,119261,1,0,0:0:0:0:
320,192,119324,1,0,0:0:0:0:
448,192,119324,1,0,0:0:0:0:
64,192,119386,1,0,0:0:0:0:
192,192,119449,1,0,0:0:0:0:
448,192,119449,1,0,0:0:0:0:
320,192,119511,1,0,0:0:0:0:
192,192,119574,1,0,0:0:0:0:
64,192,119574,1,0,0:0:0:0:
448,192,119636,1,0,0:0:0:0:
64,192,119699,1,0,0:0:0:0:
320,192,119699,1,0,0:0:0:0:
192,192,119761,1,0,0:0:0:0:
320,192,119824,1,0,0:0:0:0:
448,192,119824,1,0,0:0:0:0:
64,192,119886,1,0,0:0:0:0:
192,192,119949,1,0,0:0:0:0:
448,192,119949,1,0,0:0:0:0:
320,192,120011,1,0,0:0:0:0:
448,192,120074,1,0,0:0:0:0:
192,192,120074,1,0,0:0:0:0:
64,192,120074,1,0,0:0:0:0:
192,192,120574,128,0,120824:0:0:0:0:
320,192,120574,128,0,120657:0:0:0:0:
64,192,120574,128,0,120657:0:0:0:0:
320,192,121074,1,0,0:0:0:0:
64,192,121074,1,0,0:0:0:0:
448,192,121074,1,0,0:0:0:0:
320,192,121324,1,0,0:0:0:0:
64,192,121324,1,0,0:0:0:0:
192,192,121449,1,0,0:0:0:0:
448,192,121449,1,0,0:0:0:0:
64,192,121449,1,0,0:0:0:0:
320,192,121574,1,0,0:0:0:0:
448,192,121574,1,0,0:0:0:0:
192,192,121574,1,0,0:0:0:0:
64,192,121824,1,0,0:0:0:0:
320,192,121824,1,0,0:0:0:0:
448,192,121824,1,0,0:0:0:0:
192,192,121949,1,0,0:0:0:0:
64,192,121949,1,0,0:0:0:0:
448,192,122074,1,0,0:0:0:0:
320,192,122074,1,0,0:0:0:0:
192,192,122199,1,0,0:0:0:0:
64,192,122199,1,0,0:0:0:0:
320,192,122199,1,0,0:0:0:0:
448,192,122324,1,0,0:0:0:0:
192,192,122324,1,0,0:0:0:0:
320,192,122449,1,0,0:0:0:0:
192,192,122574,1,0,0:0:0:0:
448,192,122574,1,0,0:0:0:0:
64,192,122574,1,0,0:0:0:0:
320,192,122824,1,0,0:0:0:0:
448,192,122824,1,0,0:0:0:0:
192,192,122949,1,0,0:0:0:0:
64,192,122949,1,0,0:0:0:0:
192,192,123074,1,0,0:0:0:0:
320,192,123074,1,0,0:0:0:0:
448,192,123074,1,0,0:0:0:0:
64,192,123199,1,0,0:0:0:0:
192,192,123324,1,0,0:0:0:0:
448,192,123324,1,0,0:0:0:0:
320,192,123449,1,0,0:0:0:0:
64,192,123449,1,0,0:0:0:0:
192,192,123449,1,0,0:0:0:0:
320,192,123574,1,0,0:0:0:0:
448,192,123574,1,0,0:0:0:0:
64,192,123574,1,0,0:0:0:0:
192,192,123824,1,0,0:0:0:0:
64,192,123824,1,0,0:0:0:0:
448,192,123824,1,0,0:0:0:0:
320,192,123949,1,0,0:0:0:0:
192,192,123949,1,0,0:0:0:0:
448,192,124074,1,0,0:0:0:0:
64,192,124074,1,0,0:0:0:0:
192,192,124199,1,0,0:0:0:0:
320,192,124199,1,0,0:0:0:0:
448,192,124199,1,0,0:0:0:0:
64,192,124324,1,0,0:0:0:0:
192,192,124324,1,0,0:0:0:0:
448,192,124449,1,0,0:0:0:0:
320,192,124574,1,0,0:0:0:0:
192,192,124574,1,0,0:0:0:0:
64,192,124574,1,0,0:0:0:0:
320,192,124699,1,0,0:0:0:0:
192,192,124824,1,0,0:0:0:0:
448,192,124824,1,0,0:0:0:0:
192,192,124949,1,0,0:0:0:0:
64,192,125074,1,0,0:0:0:0:
320,192,125074,1,0,0:0:0:0:
448,192,125074,1,0,0:0:0:0:
192,192,125199,1,0,0:0:0:0:
448,192,125324,1,0,0:0:0:0:
64,192,125324,1,0,0:0:0:0:
320,192,125449,1,0,0:0:0:0:
192,192,125449,1,0,0:0:0:0:
448,192,125449,1,0,0:0:0:0:
192,192,125574,1,0,0:0:0:0:
64,192,125574,1,0,0:0:0:0:
320,192,125574,1,0,0:0:0:0:
64,192,125824,1,0,0:0:0:0:
192,192,125824,1,0,0:0:0:0:
448,192,125824,1,0,0:0:0:0:
64,192,125949,1,0,0:0:0:0:
320,192,125949,1,0,0:0:0:0:
192,192,126074,1,0,0:0:0:0:
448,192,126074,1,0,0:0:0:0:
64,192,126199,1,0,0:0:0:0:
320,192,126199,1,0,0:0:0:0:
448,192,126199,1,0,0:0:0:0:
192,192,126324,1,0,0:0:0:0:
64,192,126324,1,0,0:0:0:0:
320,192,126449,1,0,0:0:0:0:
448,192,126574,1,0,0:0:0:0:
192,192,126574,1,0,0:0:0:0:
64,192,126574,1,0,0:0:0:0:
64,192,126824,1,0,0:0:0:0:
448,192,126824,1,0,0:0:0:0:
192,192,126949,1,0,0:0:0:0:
320,192,126949,1,0,0:0:0:0:
64,192,127074,1,0,0:0:0:0:
320,192,127074,1,0,0:0:0:0:
448,192,127074,1,0,0:0:0:0:
192,192,127199,1,0,0:0:0:0:
320,192,127324,1,0,0:0:0:0:
64,192,127324,1,0,0:0:0:0:
448,192,127449,1,0,0:0:0:0:
192,192,127449,1,0,0:0:0:0:
64,192,127449,1,0,0:0:0:0:
320,192,127574,1,0,0:0:0:0:
448,192,127574,1,0,0:0:0:0:
192,192,127574,1,0,0:0:0:0:
192,192,127824,1,0,0:0:0:0:
64,192,127824,1,0,0:0:0:0:
320,192,127824,1,0,0:0:0:0:
320,192,127949,1,0,0:0:0:0:
448,192,127949,1,0,0:0:0:0:
192,192,128074,1,0,0:0:0:0:
64,192,128074,1,0,0:0:0:0:
448,192,128199,1,0,0:0:0:0:
320,192,128199,1,0,0:0:0:0:
64,192,128199,1,0,0:0:0:0:
192,192,128324,1,0,0:0:0:0:
448,192,128324,1,0,0:0:0:0:
320,192,128449,1,0,0:0:0:0:
192,192,128574,1,0,0:0:0:0:
64,192,128574,1,0,0:0:0:0:
448,192,128574,1,0,0:0:0:0:
448,192,128824,1,0,0:0:0:0:
320,192,128824,1,0,0:0:0:0:
192,192,128824,1,0,0:0:0:0:
192,192,128949,1,0,0:0:0:0:
64,192,128949,1,0,0:0:0:0:
320,192,128949,1,0,0:0:0:0:
448,192,129074,1,0,0:0:0:0:
320,192,129074,1,0,0:0:0:0:
64,192,129074,1,0,0:0:0:0:
192,192,129324,1,0,0:0:0:0:
320,192,129324,1,0,0:0:0:0:
192,192,129449,1,0,0:0:0:0:
64,192,129449,1,0,0:0:0:0:
448,192,129449,1,0,0:0:0:0:
448,192,129574,1,0,0:0:0:0:
64,192,129574,1,0,0:0:0:0:
320,192,129574,1,0,0:0:0:0:
192,192,129824,1,0,0:0:0:0:
64,192,129824,1,0,0:0:0:0:
320,192,129824,1,0,0:0:0:0:
192,192,129949,1,0,0:0:0:0:
448,192,129949,1,0,0:0:0:0:
320,192,130074,1,0,0:0:0:0:
64,192,130074,1,0,0:0:0:0:
192,192,130199,1,0,0:0:0:0:
64,192,130199,1,0,0:0:0:0:
448,192,130199,1,0,0:0:0:0:
320,192,130324,1,0,0:0:0:0:
448,192,130324,1,0,0:0:0:0:
64,192,130449,1,0,0:0:0:0:
192,192,130574,1,0,0:0:0:0:
320,192,130574,1,0,0:0:0:0:
448,192,130574,1,0,0:0:0:0:
64,192,130824,1,0,0:0:0:0:
320,192,130824,1,0,0:0:0:0:
192,192,130949,1,0,0:0:0:0:
448,192,130949,1,0,0:0:0:0:
64,192,131074,1,0,0:0:0:0:
320,192,131074,1,0,0:0:0:0:
448,192,131074,1,0,0:0:0:0:
192,192,131199,1,0,0:0:0:0:
320,192,131324,1,0,0:0:0:0:
448,192,131324,1,0,0:0:0:0:
64,192,131449,1,0,0:0:0:0:
192,192,131449,1,0,0:0:0:0:
448,192,131449,1,0,0:0:0:0:
192,192,131574,1,0,0:0:0:0:
320,192,131574,1,0,0:0:0:0:
64,192,131574,1,0,0:0:0:0:
192,192,131824,1,0,0:0:0:0:
64,192,131824,1,0,0:0:0:0:
448,192,131824,1,0,0:0:0:0:
320,192,131949,1,0,0:0:0:0:
192,192,131949,1,0,0:0:0:0:
64,192,132074,1,0,0:0:0:0:
448,192,132074,1,0,0:0:0:0:
320,192,132199,1,0,0:0:0:0:
192,192,132199,1,0,0:0:0:0:
448,192,132199,1,0,0:0:0:0:
64,192,132324,1,0,0:0:0:0:
192,192,132324,1,0,0:0:0:0:
448,192,132449,1,0,0:0:0:0:
320,192,132574,1,0,0:0:0:0:
192,192,132574,1,0,0:0:0:0:
64,192,132574,1,0,0:0:0:0:
192,192,132699,1,0,0:0:0:0:
320,192,132824,1,0,0:0:0:0:
64,192,132824,1,0,0:0:0:0:
320,192,132949,1,0,0:0:0:0:
448,192,133074,1,0,0:0:0:0:
192,192,133074,1,0,0:0:0:0:
64,192,133074,1,0,0:0:0:0:
320,192,133199,1,0,0:0:0:0:
448,192,133324,1,0,0:0:0:0:
192,192,133324,1,0,0:0:0:0:
64,192,133449,1,0,0:0:0:0:
448,192,133449,1,0,0:0:0:0:
320,192,133449,1,0,0:0:0:0:
192,192,133574,1,0,0:0:0:0:
64,192,133574,1,0,0:0:0:0:
320,192,133574,1,0,0:0:0:0:
320,192,133824,1,0,0:0:0:0:
448,192,133824,1,0,0:0:0:0:
64,192,133824,1,0,0:0:0:0:
192,192,133949,1,0,0:0:0:0:
320,192,133949,1,0,0:0:0:0:
64,192,134074,1,0,0:0:0:0:
448,192,134074,1,0,0:0:0:0:
320,192,134199,1,0,0:0:0:0:
192,192,134199,1,0,0:0:0:0:
64,192,134199,1,0,0:0:0:0:
448,192,134324,1,0,0:0:0:0:
320,192,134324,1,0,0:0:0:0:
64,192,134449,1,0,0:0:0:0:
192,192,134574,1,0,0:0:0:0:
320,192,134574,1,0,0:0:0:0:
448,192,134574,1,0,0:0:0:0:
192,192,134824,1,0,0:0:0:0:
64,192,134824,1,0,0:0:0:0:
320,192,134949,1,0,0:0:0:0:
448,192,134949,1,0,0:0:0:0:
448,192,135074,1,0,0:0:0:0:
192,192,135074,1,0,0:0:0:0:
64,192,135074,1,0,0:0:0:0:
320,192,135199,1,0,0:0:0:0:
64,192,135324,1,0,0:0:0:0:
448,192,135324,1,0,0:0:0:0:
192,192,135449,1,0,0:0:0:0:
320,192,135449,1,0,0:0:0:0:
64,192,135449,1,0,0:0:0:0:
320,192,135574,1,0,0:0:0:0:
448,192,135574,1,0,0:0:0:0:
192,192,135574,1,0,0:0:0:0:
448,192,135824,1,0,0:0:0:0:
320,192,135824,1,0,0:0:0:0:
64,192,135824,1,0,0:0:0:0:
448,192,135949,1,0,0:0:0:0:
192,192,136074,1,0,0:0:0:0:
448,192,136199,1,0,0:0:0:0:
64,192,136199,1,0,0:0:0:0:
320,192,136199,1,0,0:0:0:0:
64,192,136324,1,0,0:0:0:0:
320,192,136449,1,0,0:0:0:0:
64,192,136574,1,0,0:0:0:0:
448,192,136574,1,0,0:0:0:0:
192,192,136574,1,0,0:0:0:0:
448,192,136824,1,0,0:0:0:0:
320,192,136824,1,0,0:0:0:0:
64,192,136824,1,0,0:0:0:0:
192,192,136949,1,0,0:0:0:0:
448,192,136949,1,0,0:0:0:0:
320,192,136949,1,0,0:0:0:0:
192,192,137074,1,0,0:0:0:0:
64,192,137074,1,0,0:0:0:0:
320,192,137074,1,0,0:0:0:0:
320,192,137324,1,0,0:0:0:0:
448,192,137324,1,0,0:0:0:0:
448,192,137449,1,0,0:0:0:0:
192,192,137449,1,0,0:0:0:0:
64,192,137449,1,0,0:0:0:0:
320,192,137574,1,0,0:0:0:0:
192,192,137574,1,0,0:0:0:0:
64,192,137574,1,0,0:0:0:0:
192,192,137824,1,0,0:0:0:0:
448,192,137824,1,0,0:0:0:0:
64,192,137824,1,0,0:0:0:0:
448,192,137949,1,0,0:0:0:0:
320,192,138074,1,0,0:0:0:0:
192,192,138074,1,0,0:0:0:0:
64,192,138074,1,0,0:0:0:0:
448,192,138199,1,0,0:0:0:0:
64,192,138199,1,0,0:0:0:0:
192,192,138199,1,0,0:0:0:0:
320,192,138324,1,0,0:0:0:0:
448,192,138324,1,0,0:0:0:0:
64,192,138449,1,0,0:0:0:0:
192,192,138574,1,0,0:0:0:0:
64,192,138574,1,0,0:0:0:0:
320,192,138574,1,0,0:0:0:0:
448,192,138824,1,0,0:0:0:0:
192,192,138824,1,0,0:0:0:0:
320,192,138949,1,0,0:0:0:0:
64,192,138949,1,0,0:0:0:0:
64,192,139074,1,0,0:0:0:0:
192,192,139074,1,0,0:0:0:0:
320,192,139074,1,0,0:0:0:0:
192,192,139324,1,0,0:0:0:0:
64,192,139324,1,0,0:0:0:0:
320,192,139324,1,0,0:0:0:0:
448,192,139449,1,0,0:0:0:0:
192,192,139449,1,0,0:0:0:0:
192,192,139574,1,0,0:0:0:0:
64,192,139574,1,0,0:0:0:0:
320,192,139574,1,0,0:0:0:0:
192,192,139824,1,0,0:0:0:0:
64,192,139824,1,0,0:0:0:0:
320,192,139824,1,0,0:0:0:0:
320,192,139949,1,0,0:0:0:0:
64,192,140074,1,0,0:0:0:0:
192,192,140074,1,0,0:0:0:0:
320,192,140074,1,0,0:0:0:0:
448,192,140199,1,0,0:0:0:0:
64,192,140199,1,0,0:0:0:0:
192,192,140199,1,0,0:0:0:0:
448,192,140324,1,0,0:0:0:0:
320,192,140324,1,0,0:0:0:0:
64,192,140449,1,0,0:0:0:0:
192,192,140574,1,0,0:0:0:0:
64,192,140574,1,0,0:0:0:0:
320,192,140574,1,0,0:0:0:0:
320,192,140699,1,0,0:0:0:0:
448,192,140824,1,0,0:0:0:0:
192,192,140824,1,0,0:0:0:0:
192,192,140949,1,0,0:0:0:0:
320,192,141074,1,0,0:0:0:0:
448,192,141074,1,0,0:0:0:0:
64,192,141074,1,0,0:0:0:0:
192,192,141324,1,0,0:0:0:0:
64,192,141324,1,0,0:0:0:0:
448,192,141449,1,0,0:0:0:0:
320,192,141449,1,0,0:0:0:0:
192,192,141449,1,0,0:0:0:0:
64,192,141574,1,0,0:0:0:0:
320,192,141574,1,0,0:0:0:0:
448,192,141574,1,0,0:0:0:0:
192,192,141824,1,0,0:0:0:0:
64,192,141824,1,0,0:0:0:0:
448,192,141824,1,0,0:0:0:0:
192,192,141949,1,0,0:0:0:0:
320,192,142074,1,0,0:0:0:0:
64,192,142074,1,0,0:0:0:0:
448,192,142074,1,0,0:0:0:0:
448,192,142199,1,0,0:0:0:0:
192,192,142199,1,0,0:0:0:0:
320,192,142199,1,0,0:0:0:0:
64,192,142324,1,0,0:0:0:0:
192,192,142324,1,0,0:0:0:0:
320,192,142449,1,0,0:0:0:0:
320,192,142574,1,0,0:0:0:0:
64,192,142574,1,0,0:0:0:0:
448,192,142574,1,0,0:0:0:0:
192,192,142824,1,0,0:0:0:0:
320,192,142824,1,0,0:0:0:0:
64,192,142949,1,0,0:0:0:0:
448,192,142949,1,0,0:0:0:0:
64,192,143074,1,0,0:0:0:0:
192,192,143074,1,0,0:0:0:0:
320,192,143136,1,0,0:0:0:0:
192,192,143199,1,0,0:0:0:0:
320,192,143324,1,0,0:0:0:0:
448,192,143324,1,0,0:0:0:0:
64,192,143449,1,0,0:0:0:0:
192,192,143449,1,0,0:0:0:0:
64,192,143574,1,0,0:0:0:0:
448,192,143574,1,0,0:0:0:0:
320,192,143574,1,0,0:0:0:0:
192,192,143636,1,0,0:0:0:0:
320,192,143699,1,0,0:0:0:0:
192,192,143824,1,0,0:0:0:0:
448,192,143824,1,0,0:0:0:0:
64,192,143886,1,0,0:0:0:0:
320,192,143949,1,0,0:0:0:0:
64,192,144074,1,0,0:0:0:0:
448,192,144074,1,0,0:0:0:0:
192,192,144136,1,0,0:0:0:0:
320,192,144199,1,0,0:0:0:0:
448,192,144261,1,0,0:0:0:0:
192,192,144324,1,0,0:0:0:0:
64,192,144324,1,0,0:0:0:0:
320,192,144449,1,0,0:0:0:0:
192,192,144449,1,0,0:0:0:0:
64,192,144574,1,0,0:0:0:0:
448,192,144574,1,0,0:0:0:0:
320,192,144636,1,0,0:0:0:0:
192,192,144699,1,0,0:0:0:0:
448,192,144761,1,0,0:0:0:0:
320,192,144824,1,0,0:0:0:0:
64,192,144824,1,0,0:0:0:0:
448,192,144949,1,0,0:0:0:0:
192,192,144949,1,0,0:0:0:0:
64,192,144949,1,0,0:0:0:0:
320,192,145074,1,0,0:0:0:0:
448,192,145074,1,0,0:0:0:0:
192,192,145074,1,0,0:0:0:0:
192,192,145324,1,0,0:0:0:0:
64,192,145324,1,0,0:0:0:0:
64,192,145449,1,0,0:0:0:0:
320,192,145449,1,0,0:0:0:0:
448,192,145449,1,0,0:0:0:0:
192,192,145574,1,0,0:0:0:0:
320,192,145574,1,0,0:0:0:0:
448,192,145574,1,0,0:0:0:0:
320,192,145824,1,0,0:0:0:0:
64,192,145824,1,0,0:0:0:0:
448,192,145824,1,0,0:0:0:0:
64,192,145949,1,0,0:0:0:0:
192,192,146074,1,0,0:0:0:0:
320,192,146074,1,0,0:0:0:0:
448,192,146074,1,0,0:0:0:0:
64,192,146199,1,0,0:0:0:0:
448,192,146199,1,0,0:0:0:0:
320,192,146199,1,0,0:0:0:0:
192,192,146324,1,0,0:0:0:0:
64,192,146324,1,0,0:0:0:0:
448,192,146449,1,0,0:0:0:0:
320,192,146574,1,0,0:0:0:0:
448,192,146574,1,0,0:0:0:0:
192,192,146574,1,0,0:0:0:0:
64,192,146824,1,0,0:0:0:0:
320,192,146824,1,0,0:0:0:0:
192,192,146949,1,0,0:0:0:0:
448,192,146949,1,0,0:0:0:0:
448,192,147074,1,0,0:0:0:0:
320,192,147074,1,0,0:0:0:0:
192,192,147074,1,0,0:0:0:0:
320,192,147324,1,0,0:0:0:0:
448,192,147324,1,0,0:0:0:0:
192,192,147324,1,0,0:0:0:0:
320,192,147449,1,0,0:0:0:0:
64,192,147449,1,0,0:0:0:0:
320,192,147574,1,0,0:0:0:0:
448,192,147574,1,0,0:0:0:0:
192,192,147574,1,0,0:0:0:0:
320,192,147824,1,0,0:0:0:0:
448,192,147824,1,0,0:0:0:0:
192,192,147824,1,0,0:0:0:0:
192,192,147949,1,0,0:0:0:0:
448,192,148074,1,0,0:0:0:0:
320,192,148074,1,0,0:0:0:0:
192,192,148074,1,0,0:0:0:0:
64,192,148199,1,0,0:0:0:0:
448,192,148199,1,0,0:0:0:0:
320,192,148199,1,0,0:0:0:0:
64,192,148324,1,0,0:0:0:0:
192,192,148324,1,0,0:0:0:0:
448,192,148449,1,0,0:0:0:0:
320,192,148574,1,0,0:0:0:0:
448,192,148574,1,0,0:0:0:0:
192,192,148574,1,0,0:0:0:0:
192,192,148699,1,0,0:0:0:0:
64,192,148824,1,0,0:0:0:0:
320,192,148824,1,0,0:0:0:0:
320,192,148949,1,0,0:0:0:0:
192,192,149074,1,0,0:0:0:0:
64,192,149074,1,0,0:0:0:0:
448,192,149074,1,0,0:0:0:0:
320,192,149324,1,0,0:0:0:0:
448,192,149324,1,0,0:0:0:0:
64,192,149449,1,0,0:0:0:0:
192,192,149449,1,0,0:0:0:0:
320,192,149449,1,0,0:0:0:0:
448,192,149574,1,0,0:0:0:0:
192,192,149574,1,0,0:0:0:0:
64,192,149574,1,0,0:0:0:0:
320,192,149824,1,0,0:0:0:0:
448,192,149824,1,0,0:0:0:0:
64,192,149824,1,0,0:0:0:0:
320,192,149949,1,0,0:0:0:0:
192,192,150074,1,0,0:0:0:0:
448,192,150074,1,0,0:0:0:0:
64,192,150074,1,0,0:0:0:0:
64,192,150199,1,0,0:0:0:0:
320,192,150199,1,0,0:0:0:0:
192,192,150199,1,0,0:0:0:0:
448,192,150324,1,0,0:0:0:0:
320,192,150324,1,0,0:0:0:0:
192,192,150449,1,0,0:0:0:0:
192,192,150574,1,0,0:0:0:0:
448,192,150574,1,0,0:0:0:0:
64,192,150574,1,0,0:0:0:0:
320,192,150824,1,0,0:0:0:0:
192,192,150824,1,0,0:0:0:0:
448,192,150949,1,0,0:0:0:0:
64,192,150949,1,0,0:0:0:0:
448,192,151074,1,0,0:0:0:0:
320,192,151074,1,0,0:0:0:0:
192,192,151136,1,0,0:0:0:0:
320,192,151199,1,0,0:0:0:0:
192,192,151324,1,0,0:0:0:0:
64,192,151324,1,0,0:0:0:0:
448,192,151449,1,0,0:0:0:0:
320,192,151449,1,0,0:0:0:0:
448,192,151574,1,0,0:0:0:0:
64,192,151574,1,0,0:0:0:0:
192,192,151574,1,0,0:0:0:0:
320,192,151636,1,0,0:0:0:0:
192,192,151699,1,0,0:0:0:0:
320,192,151824,1,0,0:0:0:0:
64,192,151824,1,0,0:0:0:0:
448,192,151886,1,0,0:0:0:0:
192,192,151949,1,0,0:0:0:0:
448,192,152074,1,0,0:0:0:0:
64,192,152074,1,0,0:0:0:0:
320,192,152136,1,0,0:0:0:0:
192,192,152199,1,0,0:0:0:0:
64,192,152261,1,0,0:0:0:0:
320,192,152324,1,0,0:0:0:0:
448,192,152324,1,0,0:0:0:0:
192,192,152449,1,0,0:0:0:0:
320,192,152449,1,0,0:0:0:0:
448,192,152574,1,0,0:0:0:0:
64,192,152574,1,0,0:0:0:0:
192,192,152636,1,0,0:0:0:0:
320,192,152699,1,0,0:0:0:0:
64,192,152761,1,0,0:0:0:0:
448,192,152824,1,0,0:0:0:0:
192,192,152824,1,0,0:0:0:0:
64,192,152949,1,0,0:0:0:0:
320,192,152949,1,0,0:0:0:0:
448,192,152949,1,0,0:0:0:0:
192,192,153074,1,0,0:0:0:0:
64,192,153074,1,0,0:0:0:0:
320,192,153074,1,0,0:0:0:0:
192,192,153449,1,0,0:0:0:0:
192,192,153824,1,0,0:0:0:0:
320,192,154199,1,0,0:0:0:0:
192,192,154574,1,0,0:0:0:0:
320,192,154699,1,0,0:0:0:0:
192,192,154824,1,0,0:0:0:0:
320,192,154949,1,0,0:0:0:0:
64,192,155074,1,0,0:0:0:0:
448,192,155449,1,0,0:0:0:0:
448,192,155824,1,0,0:0:0:0:
64,192,156199,1,0,0:0:0:0:
320,192,156824,1,0,0:0:0:0:
192,192,156949,1,0,0:0:0:0:
448,192,157074,1,0,0:0:0:0:
192,192,157449,1,0,0:0:0:0:
192,192,157824,1,0,0:0:0:0:
448,192,158199,1,0,0:0:0:0:
192,192,158824,1,0,0:0:0:0:
320,192,158949,1,0,0:0:0:0:
64,192,159074,1,0,0:0:0:0:
