osu file format v14

[General]
AudioFilename: audio.mp3
AudioLeadIn: 0
PreviewTime: 51793
Countdown: 0
SampleSet: Soft
StackLeniency: 0.7
Mode: 0
LetterboxInBreaks: 0
WidescreenStoryboard: 0

[Editor]
Bookmarks: 39793,45793,64393,84193,101793,116193,127393,144993,157793,172193,184993
DistanceSpacing: 0.4
BeatDivisor: 3
GridSize: 32
TimelineZoom: 2.3

[Metadata]
Title:LALISA
TitleUnicode:LALISA
Artist:LISA
ArtistUnicode:LISA
Creator:Nymphe
Version:Nymphe & Kujinn's Greatest of all Time
Source:
Tags:pop kpop english en korean kr blackpink rap hip hop female vocal reform kujinn kiyoshi guarden manoban 블랙핑크 리사 k-pop eli [_eli_] elinor -kemsyt solo album
BeatmapID:3213577
BeatmapSetID:1573933

[Difficulty]
HPDrainRate:5.5
CircleSize:4.2
OverallDifficulty:8.7
ApproachRate:9.2
SliderMultiplier:2.2
SliderTickRate:1

[Events]
//Background and Video events
0,0,"lisa.png",0,0
//Break Periods
//Storyboard Layer 0 (Background)
//Storyboard Layer 1 (Fail)
//Storyboard Layer 2 (Pass)
//Storyboard Layer 3 (Foreground)
//Storyboard Layer 4 (Overlay)
//Storyboard Sound Samples

[TimingPoints]
900,400.000000000001,4,2,1,40,1,0
900,-166.666666666667,4,2,1,40,0,0
10500,-142.857142857143,4,2,1,40,0,0
10799,-142.857142857143,4,2,1,5,0,0
10900,-142.857142857143,4,2,1,40,0,0
11599,-142.857142857143,4,2,1,5,0,0
11700,-142.857142857143,4,2,1,40,0,0
13199,-142.857142857143,4,2,1,5,0,0
13300,-76.9230769230769,4,2,1,40,0,0
13599,-76.9230769230769,4,2,1,5,0,0
13700,-90.9090909090909,4,2,1,65,0,0
14000,-90.9090909090909,4,2,1,5,0,0
14100,-142.857142857143,4,2,1,65,0,0
14500,-71.4285714285714,4,2,1,65,0,0
14799,-71.4285714285714,4,2,1,5,0,0
14900,-125,4,2,1,65,0,0
15200,-125,4,2,1,5,0,0
15300,-125,4,2,1,65,0,0
15500,-71.4285714285714,4,2,1,65,0,0
15700,-100,4,2,1,65,0,0
16000,-100,4,2,1,5,0,0
16100,-58.8235294117647,4,2,1,65,0,0
16400,-58.8235294117647,4,2,1,5,0,0
16500,-90.9090909090909,4,2,1,65,0,0
17200,-90.9090909090909,4,2,1,5,0,0
17300,-142.857142857143,4,2,1,65,0,0
17700,-71.4285714285714,4,2,1,65,0,0
17999,-71.4285714285714,4,2,1,5,0,0
18100,-66.6666666666667,4,2,1,65,0,0
18700,-76.9230769230769,4,2,1,65,0,0
18900,-66.6666666666667,4,2,1,65,0,0
19200,-66.6666666666667,4,2,1,5,0,0
19300,-111.111111111111,4,2,1,65,0,0
19700,-100,4,2,1,65,0,0
20000,-100,4,2,1,5,0,0
20100,-55.5555555555556,4,2,1,65,0,0
20399,-55.5555555555556,4,2,1,5,0,0
20500,-142.857142857143,4,2,1,65,0,0
20900,-71.4285714285714,4,2,1,65,0,0
21199,-71.4285714285714,4,2,1,5,0,0
21300,-125,4,2,1,65,0,0
21600,-125,4,2,1,5,0,0
21700,-125,4,2,1,65,0,0
21900,-71.4285714285714,4,2,1,65,0,0
22100,-83.3333333333333,4,2,1,65,0,0
22399,-83.3333333333333,4,2,1,5,0,0
22500,-62.5,4,2,1,65,0,0
22800,-62.5,4,2,1,5,0,0
22900,-83.3333333333333,4,2,1,65,0,0
23300,-45.4545454545455,4,2,1,65,0,0
23600,-45.4545454545455,4,2,1,5,0,0
23700,-142.857142857143,4,2,1,65,0,0
24100,-66.6666666666667,4,2,1,65,0,0
24400,-66.6666666666667,4,2,1,5,0,0
24500,-58.8235294117647,4,2,1,65,0,0
25100,-83.3333333333333,4,2,1,65,0,0
25300,-45.4545454545455,4,2,1,65,0,0
25600,-45.4545454545455,4,2,1,5,0,0
25700,-55.5555555555556,4,2,1,65,0,0
26500,-125,4,2,1,50,0,0
28300,-90.9090909090909,4,2,1,50,0,0
29200,-90.9090909090909,4,2,1,5,0,0
29300,-66.6666666666667,4,2,1,50,0,0
30100,-83.3333333333333,4,2,1,50,0,0
30399,-83.3333333333333,4,2,1,5,0,0
30500,-111.111111111111,4,2,1,50,0,0
30799,-111.111111111111,4,2,1,5,0,0
30900,-76.9230769230769,4,2,1,50,0,0
31199,-76.9230769230769,4,2,1,5,0,0
31300,-76.9230769230769,4,2,1,50,0,0
31500,-83.3333333333333,4,2,1,50,0,0
32799,-83.3333333333333,4,2,1,5,0,0
32900,-83.3333333333333,4,2,1,50,0,0
33199,-83.3333333333333,4,2,1,5,0,0
33300,-125,4,2,1,50,0,0
33700,-71.4285714285714,4,2,1,50,0,0
33999,-71.4285714285714,4,2,1,5,0,0
34100,-83.3333333333333,4,2,1,50,0,0
34700,-100,4,2,1,50,0,0
34900,-111.111111111111,4,2,1,50,0,0
35100,-125,4,2,1,50,0,0
35300,-71.4285714285714,4,2,1,50,0,0
35599,-71.4285714285714,4,2,1,5,0,0
35700,-200,4,2,1,50,0,0
36100,-125,4,2,1,50,0,0
36900,-71.4285714285714,4,2,1,50,0,0
37199,-71.4285714285714,4,2,1,5,0,0
37300,-90.9090909090909,4,2,1,50,0,0
37600,-90.9090909090909,4,2,1,5,0,0
37700,-90.9090909090909,4,2,1,50,0,0
37900,-66.6666666666667,4,2,1,50,0,0
38300,-125,4,2,1,50,0,0
38500,-111.111111111111,4,2,1,50,0,0
38799,-111.111111111111,4,2,1,5,0,0
38900,-71.4285714285714,4,2,1,50,0,0
39199,-71.4285714285714,4,2,1,5,0,0
39300,-71.4285714285714,4,2,1,50,0,0
39700,-125,4,2,1,50,0,0
41300,-100,4,2,1,50,0,0
41600,-100,4,2,1,5,0,0
41700,-100,4,2,1,50,0,0
42000,-100,4,2,1,5,0,0
42100,-100,4,2,1,50,0,0
42500,-71.4285714285714,4,2,1,50,0,0
42799,-71.4285714285714,4,2,1,5,0,0
42900,-71.4285714285714,4,2,1,50,0,0
43300,-100,4,2,1,50,0,0
44800,-100,4,2,1,5,0,0
44900,-100,4,2,1,50,0,0
45700,-66.6666666666667,4,2,1,50,0,0
46000,-66.6666666666667,4,2,1,5,0,0
46100,-66.6666666666667,4,2,1,50,0,0
46800,-66.6666666666667,4,2,1,5,0,0
46900,-66.6666666666667,4,2,1,50,0,0
47600,-66.6666666666667,4,2,1,5,0,0
47700,-66.6666666666667,4,2,1,50,0,0
48400,-66.6666666666667,4,2,1,5,0,0
48500,-66.6666666666667,4,2,1,50,0,0
50000,-66.6666666666667,4,2,1,5,0,0
50100,-66.6666666666667,4,2,1,50,0,0
50400,-66.6666666666667,4,2,1,5,0,0
50500,-66.6666666666667,4,2,1,50,0,0
51700,-181.818181818181,4,2,1,50,0,0
52000,-181.818181818181,4,2,1,5,0,0
52100,-64.5161290322581,4,2,1,80,0,1
52400,-64.5161290322581,4,2,1,5,0,1
52500,-64.5161290322581,4,2,1,80,0,1
52900,-95.2380952380952,4,2,1,80,0,1
53300,-66.6666666666667,4,2,1,80,0,1
53600,-66.6666666666667,4,2,1,5,0,1
53700,-66.6666666666667,4,2,1,80,0,1
54100,-57.1428571428571,4,2,1,80,0,1
54400,-57.1428571428571,4,2,1,5,0,1
54500,-57.1428571428571,4,2,1,80,0,1
54900,-86.9565217391304,4,2,1,80,0,1
55300,-57.1428571428571,4,2,1,80,0,1
55600,-57.1428571428571,4,2,1,5,0,1
55700,-64.5161290322581,4,2,1,80,0,1
56100,-95.2380952380952,4,2,1,80,0,1
56500,-64.5161290322581,4,2,1,80,0,1
56800,-64.5161290322581,4,2,1,5,0,1
56900,-64.5161290322581,4,2,1,80,0,1
57600,-64.5161290322581,4,2,1,5,0,1
57700,-64.5161290322581,4,2,1,80,0,1
57900,-68.9655172413793,4,2,1,80,0,1
58100,-181.818181818182,4,2,1,80,0,1
58400,-181.818181818182,4,2,1,5,0,1
58500,-54.054054054054,4,2,1,80,0,1
58799,-54.054054054054,4,2,1,5,0,1
58900,-54.054054054054,4,2,1,80,0,1
59199,-54.054054054054,4,2,1,5,0,1
59300,-74.0740740740741,4,2,1,80,0,1
60500,-60.6060606060606,4,2,1,80,0,1
60800,-60.6060606060606,4,2,1,5,0,1
60900,-74.0740740740741,4,2,1,80,0,1
61200,-74.0740740740741,4,2,1,5,0,1
61300,-74.0740740740741,4,2,1,80,0,1
61700,-54.054054054054,4,2,1,80,0,1
61999,-54.054054054054,4,2,1,5,0,1
62100,-54.054054054054,4,2,1,80,0,1
62399,-54.054054054054,4,2,1,5,0,1
62500,-74.0740740740741,4,2,1,80,0,1
63500,-64.5161290322581,4,2,1,80,0,1
64000,-64.5161290322581,4,2,1,5,0,1
64100,-64.5161290322581,4,2,1,80,0,1
64300,-44.4444444444445,4,2,1,80,0,0
64900,-64.5161290322581,4,2,1,80,0,1
65200,-64.5161290322581,4,2,1,5,0,1
65300,-74.0740740740741,4,2,1,80,0,1
65700,-95.2380952380952,4,2,1,80,0,1
66100,-66.6666666666667,4,2,1,80,0,1
66400,-66.6666666666667,4,2,1,5,0,1
66500,-66.6666666666667,4,2,1,80,0,1
66900,-86.9565217391304,4,2,1,80,0,1
67200,-86.9565217391304,4,2,1,5,0,1
67300,-54.054054054054,4,2,1,80,0,1
67599,-54.054054054054,4,2,1,5,0,1
67700,-64.5161290322581,4,2,1,80,0,1
68100,-57.1428571428571,4,2,1,80,0,1
68400,-57.1428571428571,4,2,1,5,0,1
68500,-95.2380952380952,4,2,1,80,0,1
69300,-64.5161290322581,4,2,1,80,0,1
69600,-64.5161290322581,4,2,1,5,0,1
69700,-64.5161290322581,4,2,1,80,0,1
70400,-64.5161290322581,4,2,1,5,0,1
70500,-60.6060606060606,4,2,1,80,0,1
70800,-60.6060606060606,4,2,1,5,0,1
70900,-181.818181818182,4,2,1,80,0,1
71200,-181.818181818182,4,2,1,5,0,1
71300,-54.054054054054,4,2,1,80,0,1
71599,-54.054054054054,4,2,1,5,0,1
71700,-54.054054054054,4,2,1,80,0,1
71999,-54.054054054054,4,2,1,5,0,1
72100,-74.0740740740741,4,2,1,80,0,1
73300,-95.2380952380952,4,2,1,80,0,1
73599,-95.2380952380952,4,2,1,5,0,1
73700,-57.1428571428571,4,2,1,80,0,1
74000,-57.1428571428571,4,2,1,5,0,1
74100,-68.9655172413793,4,2,1,80,0,1
74500,-54.054054054054,4,2,1,80,0,1
74799,-54.054054054054,4,2,1,5,0,1
74900,-54.054054054054,4,2,1,80,0,1
75199,-54.054054054054,4,2,1,5,0,1
75300,-74.0740740740741,4,2,1,80,0,1
76100,-95.2380952380952,4,2,1,60,0,0
76399,-95.2380952380952,4,2,1,5,0,0
76500,-95.2380952380952,4,2,1,60,0,0
77300,-64.5161290322581,4,2,1,50,0,0
77600,-64.5161290322581,4,2,1,5,0,0
77700,-125,4,2,1,50,0,0
79200,-125,4,2,1,5,0,0
79300,-125,4,2,1,50,0,0
80500,-54.327958008272,4,2,1,50,0,0
80800,-54.327958008272,4,2,1,5,0,0
80900,-125,4,2,1,50,0,0
82000,-125,4,2,1,5,0,0
82100,-125,4,2,1,50,0,0
82400,-125,4,2,1,5,0,0
82500,-125,4,2,1,50,0,0
83700,-55.1278670323837,4,2,1,50,0,0
83999,-55.1278670323837,4,2,1,5,0,0
84100,-55.1278670323837,4,2,1,50,0,0
84900,-100,4,2,1,50,0,0
85200,-100,4,2,1,5,0,0
85300,-100,4,2,1,50,0,0
86100,-80,4,2,1,50,0,0
86500,-95.2380952380952,4,2,1,50,0,0
86799,-95.2380952380952,4,2,1,5,0,0
86900,-95.2380952380952,4,2,1,50,0,0
88100,-80,4,2,1,50,0,0
88400,-80,4,2,1,5,0,0
88500,-80,4,2,1,50,0,0
90000,-80,4,2,1,5,0,0
90100,-80,4,2,1,50,0,0
90500,-80,4,2,1,70,0,0
96900,-66.6666666666667,4,2,1,50,0,0
97200,-66.6666666666667,4,2,1,5,0,0
97300,-66.6666666666667,4,2,1,50,0,0
98000,-66.6666666666667,4,2,1,5,0,0
98100,-66.6666666666667,4,2,1,50,0,0
99600,-66.6666666666667,4,2,1,5,0,0
99700,-66.6666666666667,4,2,1,50,0,0
101200,-66.6666666666667,4,2,1,5,0,0
101300,-66.6666666666667,4,2,1,50,0,0
101600,-66.6666666666667,4,2,1,5,0,0
101700,-66.6666666666667,4,2,1,50,0,0
102900,-83.3333333333333,4,2,1,50,0,0
103199,-83.3333333333333,4,2,1,5,0,0
103300,-46.5116279069767,4,2,1,80,0,1
103600,-46.5116279069767,4,2,1,5,0,1
103700,-80,4,2,1,80,0,1
104100,-95.2380952380952,4,2,1,80,0,1
104500,-66.6666666666667,4,2,1,80,0,1
104800,-66.6666666666667,4,2,1,5,0,1
104900,-66.6666666666667,4,2,1,80,0,1
105300,-57.1428571428571,4,2,1,80,0,1
105600,-57.1428571428571,4,2,1,5,0,1
105700,-68.9655172413793,4,2,1,80,0,1
106000,-68.9655172413793,4,2,1,5,0,1
106100,-57.1428571428571,4,2,1,80,0,1
106800,-57.1428571428571,4,2,1,5,0,1
106900,-64.5161290322581,4,2,1,80,0,1
107300,-95.2380952380952,4,2,1,80,0,1
107700,-64.5161290322581,4,2,1,80,0,1
108000,-64.5161290322581,4,2,1,5,0,1
108100,-64.5161290322581,4,2,1,80,0,1
108500,-117.647058823529,4,2,1,80,0,1
108800,-117.647058823529,4,2,1,5,0,1
108900,-60.6060606060606,4,2,1,80,0,1
109200,-60.6060606060606,4,2,1,5,0,1
109300,-181.818181818182,4,2,1,80,0,1
109600,-181.818181818182,4,2,1,5,0,1
109700,-54.054054054054,4,2,1,80,0,1
109999,-54.054054054054,4,2,1,5,0,1
110100,-54.054054054054,4,2,1,80,0,1
110399,-54.054054054054,4,2,1,5,0,1
110500,-74.0740740740741,4,2,1,80,0,1
111700,-86.9565217391304,4,2,1,80,0,1
112000,-86.9565217391304,4,2,1,5,0,1
112100,-60.6060606060606,4,2,1,80,0,1
112400,-60.6060606060606,4,2,1,5,0,1
112500,-60.6060606060606,4,2,1,80,0,1
112900,-54.054054054054,4,2,1,80,0,1
113199,-54.054054054054,4,2,1,5,0,1
113300,-54.054054054054,4,2,1,80,0,1
113599,-54.054054054054,4,2,1,5,0,1
113700,-74.0740740740741,4,2,1,80,0,1
114700,-64.5161290322581,4,2,1,80,0,1
115200,-64.5161290322581,4,2,1,5,0,1
115300,-64.5161290322581,4,2,1,80,0,1
115500,-44.4444444444445,4,2,1,80,0,0
116100,-46.5116279069767,4,2,1,80,0,1
116400,-46.5116279069767,4,2,1,5,0,1
116500,-80,4,2,1,80,0,1
116900,-95.2380952380952,4,2,1,80,0,1
117300,-66.6666666666667,4,2,1,80,0,1
117600,-66.6666666666667,4,2,1,5,0,1
117700,-66.6666666666667,4,2,1,80,0,1
118100,-57.1428571428571,4,2,1,80,0,1
118400,-57.1428571428571,4,2,1,5,0,1
118500,-68.9655172413793,4,2,1,80,0,1
118800,-68.9655172413793,4,2,1,5,0,1
118900,-57.1428571428571,4,2,1,80,0,1
119600,-57.1428571428571,4,2,1,5,0,1
119700,-64.5161290322581,4,2,1,80,0,1
120100,-95.2380952380952,4,2,1,80,0,1
120500,-64.5161290322581,4,2,1,80,0,1
120800,-64.5161290322581,4,2,1,5,0,1
120900,-64.5161290322581,4,2,1,80,0,1
121300,-64.5161290322579,4,2,1,80,0,1
121600,-64.5161290322579,4,2,1,5,0,1
121700,-64.5161290322579,4,2,1,80,0,1
121900,-60.6060606060606,4,2,1,80,0,1
122100,-181.818181818182,4,2,1,80,0,1
122500,-54.054054054054,4,2,1,80,0,1
122799,-54.054054054054,4,2,1,5,0,1
122900,-54.054054054054,4,2,1,80,0,1
123199,-54.054054054054,4,2,1,5,0,1
123300,-74.0740740740741,4,2,1,80,0,1
124500,-80,4,2,1,80,0,1
124800,-80,4,2,1,5,0,1
124900,-80,4,2,1,80,0,1
125200,-80,4,2,1,5,0,1
125300,-80,4,2,1,80,0,1
125700,-54.054054054054,4,2,1,80,0,1
125999,-54.054054054054,4,2,1,5,0,1
126100,-54.054054054054,4,2,1,80,0,1
126399,-54.054054054054,4,2,1,5,0,1
126500,-74.0740740740741,4,2,1,80,0,1
127300,-74.0740740740741,4,2,1,80,0,0
127700,-117.647058823529,4,2,1,50,0,0
128100,-95.2380952380952,4,2,1,50,0,0
128900,-95.2380952380952,4,2,1,70,0,0
129100,-80,4,2,1,70,0,0
131300,-54.054054054054,4,2,1,70,0,0
131700,-153.846153846154,4,2,1,70,0,0
131999,-153.846153846154,4,2,1,5,0,0
132100,-95.2380952380952,4,2,1,70,0,0
132399,-95.2380952380952,4,2,1,5,0,0
132500,-117.647058823529,4,2,1,70,0,0
133100,-60.6060606060606,4,2,1,70,0,0
133700,-40.8163265306122,4,2,1,70,0,0
134500,-36.3636363636364,4,2,1,70,0,0
134700,-133.333333333333,4,2,1,70,0,0
135200,-133.333333333333,4,2,1,5,0,0
135300,-133.333333333333,4,2,1,70,0,0
135500,-95.2380952380951,4,2,1,70,0,0
136900,-68.9655172413793,4,2,1,70,0,0
137700,-86.9565217391304,4,2,1,70,0,0
138000,-86.9565217391304,4,2,1,5,0,0
138100,-117.647058823529,4,2,1,70,0,0
138500,-60.6060606060605,4,2,1,70,0,0
138900,-80,4,2,1,70,0,0
139200,-80,4,2,1,5,0,0
139300,-68.9655172413793,4,2,1,70,0,0
139600,-68.9655172413793,4,2,1,5,0,0
139700,-133.333333333333,4,2,1,70,0,0
140100,-117.647058823529,4,2,1,70,0,0
144900,-74.0740740740741,4,2,1,80,0,0
145400,-74.0740740740741,4,2,1,5,0,0
145500,-86.9565217391304,4,2,1,80,0,0
146100,-60.6060606060606,4,2,1,80,0,0
146433,-60.6060606060606,4,2,1,5,0,0
146500,-86.9565217391304,4,2,1,80,0,0
148033,-86.9565217391304,4,2,1,5,0,0
148100,-74.0740740740741,4,2,1,80,0,0
149633,-74.0740740740741,4,2,1,5,0,0
149700,-74.0740740740741,4,2,1,80,0,0
150900,-400,4,2,1,80,0,0
151233,-400,4,2,1,5,0,0
151300,-68.9655172413793,4,2,1,80,0,0
151833,-68.9655172413793,4,2,1,5,0,0
151900,-86.9565217391304,4,2,1,80,0,0
152433,-86.9565217391304,4,2,1,5,0,0
152500,-60.6060606060606,4,2,1,80,0,0
152833,-60.6060606060606,4,2,1,5,0,0
152900,-80,4,2,1,80,0,0
153700,-64.5161290322581,4,2,1,80,0,0
154033,-64.5161290322581,4,2,1,5,0,0
154100,-95.2380952380952,4,2,1,80,0,0
154433,-95.2380952380952,4,2,1,5,0,0
154500,-68.9655172413793,4,2,1,80,0,0
156100,-86.9565217391304,4,2,1,80,0,0
157300,-400,4,2,1,80,0,0
157700,-74.0740740740741,4,2,1,80,0,0
158200,-74.0740740740741,4,2,1,5,0,0
158300,-74.0740740740741,4,2,1,80,0,0
159833,-117.647058823529,4,2,1,80,0,0
160500,-95.238095238095,4,2,1,80,0,0
160900,-74.0740740740741,4,2,1,80,0,0
161400,-74.0740740740741,4,2,1,5,0,0
161500,-74.0740740740741,4,2,1,80,0,0
163033,-117.647058823529,4,2,1,80,0,0
163700,-95.2380952380952,4,2,1,80,0,0
164100,-64.5161290322581,4,2,1,80,0,0
164600,-64.5161290322581,4,2,1,5,0,0
164700,-74.0740740740741,4,2,1,80,0,0
166100,-117.647058823529,4,2,1,80,0,0
166900,-95.238095238095,4,2,1,80,0,0
167300,-74.0740740740741,4,2,1,80,0,0
167800,-74.0740740740741,4,2,1,5,0,0
167900,-74.0740740740741,4,2,1,80,0,0
169700,-86.9565217391304,4,2,1,80,0,0
171300,-68.9655172413793,4,2,1,80,0,0
171700,-57.1428571428571,4,2,1,80,0,0
172000,-57.1428571428571,4,2,1,5,0,0
172100,-51.2820512820513,4,2,1,80,0,1
172500,-64.5161290322581,4,2,1,80,0,1
172900,-86.9565217391304,4,2,1,80,0,1
173300,-64.5161290322581,4,2,1,80,0,1
173600,-64.5161290322581,4,2,1,5,0,1
173700,-64.5161290322581,4,2,1,80,0,1
173900,-44.4444444444445,4,2,1,80,0,1
174400,-44.4444444444445,4,2,1,5,0,1
174500,-68.9655172413793,4,2,1,80,0,1
174800,-68.9655172413793,4,2,1,5,0,1
174900,-64.5161290322581,4,2,1,80,0,1
175300,-44.4444444444445,4,2,1,80,0,1
175600,-44.4444444444445,4,2,1,5,0,1
175700,-68.9655172413793,4,2,1,80,0,1
176100,-74.0740740740741,4,2,1,80,0,1
176500,-64.5161290322581,4,2,1,80,0,1
176800,-64.5161290322581,4,2,1,5,0,1
176900,-64.5161290322581,4,2,1,80,0,1
177300,-44.4444444444445,4,2,1,80,0,1
177600,-44.4444444444445,4,2,1,5,0,1
177700,-44.4444444444445,4,2,1,80,0,1
177900,-54.054054054054,4,2,1,80,0,1
178100,-181.818181818182,4,2,1,80,0,1
178400,-181.818181818182,4,2,1,5,0,1
178500,-54.054054054054,4,2,1,80,0,1
178799,-54.054054054054,4,2,1,5,0,1
178900,-54.054054054054,4,2,1,80,0,1
179199,-54.054054054054,4,2,1,5,0,1
179300,-74.0740740740741,4,2,1,80,0,1
180500,-60.6060606060606,4,2,1,80,0,1
180800,-60.6060606060606,4,2,1,5,0,1
180900,-74.0740740740741,4,2,1,80,0,1
181200,-74.0740740740741,4,2,1,5,0,1
181300,-74.0740740740741,4,2,1,80,0,1
181700,-54.054054054054,4,2,1,80,0,1
181999,-54.054054054054,4,2,1,5,0,1
182100,-54.054054054054,4,2,1,80,0,1
182399,-54.054054054054,4,2,1,5,0,1
182500,-74.0740740740741,4,2,1,80,0,1
183500,-64.5161290322581,4,2,1,80,0,1
184000,-64.5161290322581,4,2,1,5,0,1
184100,-64.5161290322581,4,2,1,80,0,1
184300,-80,4,2,1,80,0,0
184900,-51.2820512820513,4,2,1,80,0,1
185200,-51.2820512820513,4,2,1,5,0,1
185300,-64.5161290322581,4,2,1,80,0,1
185700,-86.9565217391304,4,2,1,80,0,1
186100,-64.5161290322581,4,2,1,80,0,1
186400,-64.5161290322581,4,2,1,5,0,1
186500,-64.5161290322581,4,2,1,80,0,1
186700,-54.054054054054,4,2,1,80,0,1
186900,-95.2380952380952,4,2,1,80,0,1
187199,-95.2380952380952,4,2,1,5,0,1
187300,-57.1428571428571,4,2,1,80,0,1
187600,-57.1428571428571,4,2,1,5,0,1
187700,-64.5161290322581,4,2,1,80,0,1
188100,-40.8163265306122,4,2,1,80,0,1
188400,-40.8163265306122,4,2,1,5,0,1
188500,-68.9655172413793,4,2,1,80,0,1
188900,-74.0740740740741,4,2,1,80,0,1
189300,-54.054054054054,4,2,1,80,0,1
189599,-54.054054054054,4,2,1,5,0,1
189700,-54.054054054054,4,2,1,80,0,1
190100,-44.4444444444445,4,2,1,80,0,1
190400,-44.4444444444445,4,2,1,5,0,1
190500,-74.0740740740741,4,2,1,80,0,1
190700,-54.054054054054,4,2,1,80,0,1
190900,-181.818181818182,4,2,1,80,0,1
191200,-181.818181818182,4,2,1,5,0,1
191300,-54.054054054054,4,2,1,80,0,1
191599,-54.054054054054,4,2,1,5,0,1
191700,-54.054054054054,4,2,1,80,0,1
191999,-54.054054054054,4,2,1,5,0,1
192100,-74.0740740740741,4,2,1,80,0,1
193300,-95.2380952380952,4,2,1,80,0,1
193599,-95.2380952380952,4,2,1,5,0,1
193700,-57.1428571428571,4,2,1,80,0,1
194000,-57.1428571428571,4,2,1,5,0,1
194100,-57.1428571428571,4,2,1,80,0,1
194500,-54.054054054054,4,2,1,80,0,1
194799,-54.054054054054,4,2,1,5,0,1
194900,-54.054054054054,4,2,1,80,0,1
195199,-54.054054054054,4,2,1,5,0,1
195300,-74.0740740740741,4,2,1,80,0,1
196100,-95.2380952380952,4,2,1,50,0,0
196399,-95.2380952380952,4,2,1,5,0,0
196500,-95.2380952380952,4,2,1,50,0,0

[Colours]
Combo1 : 235,148,148
Combo2 : 162,106,223
Combo3 : 236,140,234
Combo4 : 177,114,141

[HitObjects]
109,78,699,5,2,2:0:0:0:
109,78,900,6,0,P|131:47|116:3,2,65.9999979858399,2|2|2,3:0|2:0|3:0,2:0:0:0:
78,170,1500,1,2,2:0:0:0:
78,170,1700,2,0,P|135:155|227:150,1,131.99999597168,2|0,3:0|2:0,2:0:0:0:
207,149,2300,1,2,2:0:0:0:
275,89,2500,6,0,P|267:55|288:19,1,65.9999979858399,2|2,3:0|2:0,2:0:0:0:
368,99,2900,2,0,P|380:68|371:37,1,65.9999979858399,2|2,3:0|2:0,2:0:0:0:
309,157,3300,2,0,P|301:210|286:304,1,131.99999597168,2|0,3:0|2:0,2:0:0:0:
288,287,3900,1,2,2:0:0:0:
353,343,4100,6,0,P|383:327|417:330,2,65.9999979858399,2|2|2,3:0|2:0|3:0,2:0:0:0:
257,371,4700,1,2,2:0:0:0:
257,371,4900,2,0,B|229:345|189:356|195:377|158:390|129:359,1,131.99999597168,2|0,3:0|2:0,2:0:0:0:
134,364,5500,1,2,2:0:0:0:
76,211,5700,6,0,P|55:241|64:276,1,65.9999979858399,2|2,3:0|2:0,2:0:0:0:
139,287,6100,2,0,P|160:257|151:222,1,65.9999979858399,2|2,3:0|2:0,2:0:0:0:
130,124,6500,2,0,B|65:107|65:107|65:110|65:110|-2:94,1,131.99999597168,2|0,3:0|2:0,2:0:0:0:
5,96,7100,1,2,2:0:0:0:
141,48,7300,6,0,P|135:16|94:-1,2,65.9999979858399,2|2|2,3:0|2:0|3:0,2:0:0:0:
199,106,7900,1,2,2:0:0:0:
199,106,8100,2,0,P|246:147|313:122,1,131.99999597168,2|0,3:0|2:0,2:0:0:0:
307,128,8700,1,2,2:0:0:0:
406,37,8900,6,0,P|368:29|329:20,1,65.9999979858399,2|2,3:0|2:0,2:0:0:0:
388,118,9300,2,0,P|426:126|465:135,1,65.9999979858399,2|2,3:0|2:0,2:0:0:0:
511,68,9700,2,0,P|497:136|483:210,1,131.99999597168,2|0,3:0|2:0,2:0:0:0:
485,197,10300,1,2,2:0:0:0:
438,300,10500,6,0,P|392:290|383:220,1,115.49999647522,2|0,2:0|2:0,2:0:0:0:
377,229,10900,2,0,L|326:224,1,38.4999988250733,2|0,2:0|2:0,2:0:0:0:
266,216,11100,1,0,2:0:0:0:
57,334,11300,6,0,P|103:337|131:272,1,115.49999647522,2|0,2:0|2:0,2:0:0:0:
134,282,11700,2,0,L|185:290,1,38.4999988250733,2|0,2:0|2:0,2:0:0:0:
245,300,11900,1,0,2:0:0:0:
196,195,12100,5,2,2:0:0:0:
189,175,12300,1,2,2:0:0:0:
114,118,12500,5,2,2:0:0:0:
121,98,12700,1,2,2:0:0:0:
336,48,12900,6,0,P|327:7|321:48,1,115.49999647522,2|0,2:0|2:0,2:0:0:0:
233,108,13300,6,0,B|285:100|311:168|311:168|349:106|403:141,1,214.49999018097,2|0,2:0|2:0,2:0:0:0:
322,49,13700,6,0,L|303:243,1,181.500005538941,6|0,3:0|2:0,2:0:0:0:
259,291,14100,6,0,L|307:312,1,38.4999988250733,2|0,2:0|2:0,2:0:0:0:
294,320,14300,2,0,L|245:298,1,38.4999988250733,2|0,2:0|2:0,2:0:0:0:
420,240,14500,6,0,B|412:219|412:219|456:202|474:151|474:151|471:205|502:240|502:240|482:257,1,230.99999295044,10|0,2:0|2:0,2:0:0:0:
444,328,14900,2,0,B|458:359|428:385|428:385|409:349|444:328,1,132,2|0,3:0|2:0,2:0:0:0:
445,315,15300,5,2,2:0:0:0:
48,330,15500,2,0,B|37:311|55:286|55:286|49:309|69:335,1,76.9999976501466,6|0,3:0|2:0,2:0:0:0:
58,316,15700,2,0,B|102:282|147:332|126:324|156:380|213:344,1,165,6|0,3:0|2:0,2:0:0:0:
0,384,16100,6,0,P|140:343|292:293,1,280.500005350113,8|0,2:0|2:0,2:0:0:0:
335,262,16500,2,0,P|315:240|315:210,1,60.5000018463135,4|0,3:0|2:0,2:0:0:0:
405,238,16700,2,0,P|404:208|384:186,1,60.5000018463135,8|0,3:0|2:0,2:0:0:0:
244,122,16900,6,0,B|282:93|326:135|326:135|339:74|403:66,1,181.500005538941,6|0,3:0|2:0,2:0:0:0:
297,37,17300,6,0,L|282:1,1,38.4999988250733,2|0,2:0|2:0,2:0:0:0:
268,0,17500,2,0,L|283:36,1,38.4999988250733,2|0,2:0|2:0,2:0:0:0:
179,167,17700,6,0,B|186:197|220:205|220:205|167:222|137:168|157:161|126:99|44:141,1,230.99999295044,8|0,2:0|2:0,2:0:0:0:
10,101,18100,2,0,B|-10:86|-10:86|-8:60|-8:60|12:77|12:77|10:101,1,82.5000031471254,2|0,3:0|2:0,2:0:0:0:
6,122,18300,1,2,2:0:0:0:
193,48,18500,5,2,2:0:0:0:
92,214,18700,2,0,B|75:249|75:249|99:283,1,71.4999967269899,6|0,3:0|2:0,2:0:0:0:
34,348,18900,2,0,B|-18:330|-18:330|189:305,1,247.500009441376,6|0,3:0|2:0,2:0:0:0:
266,199,19300,6,0,B|274:225|274:225|255:258,1,49.4999984893799,10|0,2:0|2:0,2:0:0:0:
187,234,19500,2,0,B|179:208|179:208|198:175,1,49.4999984893799,0|0,3:0|2:0,2:0:0:0:
282,90,19700,6,0,B|306:103|331:97|357:63|335:58|364:23|395:22|435:51,1,165,6|0,3:0|2:0,2:0:0:0:
487,96,20100,6,0,L|167:39,1,296.99999093628,6|0,3:0|2:0,2:0:0:0:
122,0,20500,6,0,L|107:43,1,38.4999988250733,2|0,2:0|2:0,2:0:0:0:
113,48,20700,2,0,L|128:5,1,38.4999988250733,2|0,2:0|2:0,2:0:0:0:
56,106,20900,6,0,B|41:108|41:108|58:143|63:207|63:207|99:156|134:142|134:142|119:122,1,230.99999295044,10|0,2:0|2:0,2:0:0:0:
35,278,21300,2,0,B|1:298|17:336|17:336|50:312|35:278,1,132,2|0,3:0|2:0,2:0:0:0:
32,264,21700,5,2,2:0:0:0:
267,345,21900,2,0,B|282:330|285:306|285:306|273:326|247:333,1,76.9999976501466,6|0,3:0|2:0,2:0:0:0:
261,327,22100,6,0,B|288:364|330:364|356:317|336:318|369:279|406:279|441:321,1,197.99999395752,6|0,3:0|2:0,2:0:0:0:
476,376,22500,2,0,L|195:262,1,264,8|0,2:0|2:0,2:0:0:0:
206,205,22900,6,0,B|235:183|235:183|235:148,1,65.9999979858399,4|0,3:0|2:0,2:0:0:0:
131,170,23100,2,0,B|131:140|131:140|160:118,1,65.9999979858399,8|0,3:0|2:0,2:0:0:0:
76,357,23300,6,0,B|39:336|46:289|85:262|134:282|148:322|148:322|148:316|148:316|167:357|199:377|255:361|272:304|252:271|208:271,1,363.000011077881,6|0,3:0|2:0,2:0:0:0:
46,214,23700,6,0,L|6:200,1,38.4999988250733,2|0,2:0|2:0,2:0:0:0:
1,213,23900,2,0,L|41:227,1,38.4999988250733,2|0,2:0|2:0,2:0:0:0:
99,75,24100,6,0,B|107:57|91:35|80:46|66:23|68:2|68:2|35:23|-4:65|15:134|105:143,1,247.500009441376,8|0,2:0|2:0,2:0:0:0:
148,161,24500,2,0,B|175:173|169:202|169:202|137:193|148:161,1,93.500001783371,2|0,3:0|2:0,2:0:0:0:
138,148,24700,1,2,2:0:0:0:
203,294,24900,5,2,2:0:0:0:
282,98,25100,2,0,P|250:100|227:76,1,65.9999979858399,6|0,3:0|2:0,2:0:0:0:
381,82,25300,2,0,B|367:52|382:31|389:40|407:14|398:-10|398:-10|423:0|476:57|432:107|432:107|364:138|375:202,1,363.000011077881,6|0,3:0|2:0,2:0:0:0:
323,253,25700,6,0,B|290:268|268:246|268:246|295:254|324:229,1,98.9999969787599,10|0,2:0|2:0,2:0:0:0:
450,215,25900,2,0,B|486:218|494:248|494:248|474:228|437:235,1,98.9999969787599,0|0,3:0|2:0,2:0:0:0:
343,339,26100,5,4,3:0:0:0:
443,327,26300,1,2,2:0:0:0:
275,159,26500,6,0,P|190:171|94:188,1,176,6|2,3:0|2:0,2:0:0:0:
101,186,27100,1,0,2:0:0:0:
27,253,27300,2,0,P|0:220|20:172,1,88,10|0,2:0|2:0,2:0:0:0:
107,83,27700,2,0,B|124:76|124:76|98:50|105:14|105:14|89:49|50:57|50:57|66:75,1,176,2|0,3:0|2:0,2:0:0:0:
146,289,28300,6,0,P|176:306|210:287,1,60.5000018463135,6|0,3:0|2:0,2:0:0:0:
308,264,28500,2,0,P|278:247|244:266,1,60.5000018463135,6|0,3:0|2:0,2:0:0:0:
141,298,28700,2,0,P|171:315|205:296,1,60.5000018463135,2|0,2:0|2:0,2:0:0:0:
305,281,28900,6,0,B|282:250|243:256|213:282|233:294|208:331|179:337|138:305,1,181.500005538941,10|0,2:0|2:0,2:0:0:0:
103,262,29300,2,0,L|359:337,1,247.500009441376,10|0,3:0|2:0,2:0:0:0:
348,343,29700,1,6,3:0:0:0:
454,108,30100,6,0,B|438:71|371:48|331:81|331:81|381:71|404:106,1,197.99999395752,2|0,2:0|2:0,2:0:0:0:
349,159,30500,2,0,B|312:188|354:229|354:229|384:187|349:159,1,148.49999546814,10|0,2:0|2:0,2:0:0:0:
272,312,30900,2,0,B|315:278|364:344|364:344|393:277|467:297,1,214.49999018097,2|0,3:0|2:0,2:0:0:0:
352,228,31300,1,2,2:0:0:0:
97,232,31500,6,0,P|130:244|144:288,1,65.9999979858399,6|0,3:0|2:0,2:0:0:0:
64,361,31700,2,0,P|57:325|89:292,1,65.9999979858399,6|0,3:0|2:0,2:0:0:0:
195,326,31900,2,0,P|167:349|122:338,1,65.9999979858399,2|0,2:0|2:0,2:0:0:0:
0,211,32100,5,10,2:0:0:0:
173,175,32300,1,2,3:0:0:0:
47,121,32500,2,0,B|29:108|29:108|58:73|60:34|60:34|78:71|117:88|117:88|109:108,1,197.99999395752,10|0,3:0|2:0,2:0:0:0:
61,37,32900,6,0,L|102:259,1,197.99999395752,6|0,3:0|2:0,2:0:0:0:
71,301,33300,2,0,P|120:308|155:272,1,88,2|0,2:0|2:0,2:0:0:0:
233,154,33700,6,0,B|232:122|210:100|210:100|294:135|294:135|264:166|283:208,1,230.99999295044,8|0,2:0|2:0,2:0:0:0:
332,268,34100,6,0,B|320:288|329:316|336:306|349:332|330:363|330:363|404:343|433:272|370:232|370:232,1,263.99999194336,2|0,3:0|2:0,2:0:0:0:
452,34,34700,6,0,B|425:46|425:46|420:86,1,55,6|0,3:0|2:0,2:0:0:0:
512,133,34900,2,0,B|515:104|515:104|483:80,1,49.4999984893799,6|0,3:0|2:0,2:0:0:0:
399,142,35100,2,0,B|418:156|418:156|448:143,1,44,0|0,2:0|2:0,2:0:0:0:
457,12,35300,6,0,L|451:273,1,230.99999295044,8|0,2:0|2:0,2:0:0:0:
426,312,35700,6,0,L|461:317,1,27.5,8|0,3:0|2:0,2:0:0:0:
451,324,35900,2,0,L|416:319,1,27.5,8|0,3:0|2:0,2:0:0:0:
324,251,36100,6,0,P|355:241|368:205,1,58.6666666666667,6|0,3:0|2:0,2:0:0:0:
364,145,36366,1,2,2:0:0:0:
151,206,36500,6,0,P|129:181|135:144,1,58.6666666666667,2|0,2:0|2:0,2:0:0:0:
169,94,36766,1,2,2:0:0:0:
329,75,36900,6,0,B|359:68|359:68|315:46|304:14|304:14|265:33|220:27|220:27|247:54,1,230.99999295044,10|0,2:0|2:0,2:0:0:0:
266,132,37300,2,0,B|215:152|244:208|244:208|292:180|266:132,1,181.500005538941,2|0,3:0|2:0,2:0:0:0:
270,123,37700,1,2,2:0:0:0:
256,305,37900,6,0,P|213:309|176:271,1,82.5000031471254,6|0,3:0|2:0,2:0:0:0:
83,213,38100,2,0,P|107:248|93:299,1,82.5000031471254,6|0,3:0|2:0,2:0:0:0:
118,384,38300,2,0,P|131:355|168:346,1,44,0|0,2:0|2:0,2:0:0:0:
329,233,38500,6,0,B|321:186|351:159|369:183|409:152|393:95,1,148.49999546814,10|0,2:0|2:0,2:0:0:0:
334,65,38900,2,0,P|352:172|377:328,1,230.99999295044,10|0,3:0|2:0,2:0:0:0:
376,317,39300,5,6,3:0:0:0:
76,109,39700,6,0,B|35:82|35:82|59:28,1,88,2|0,2:0|2:0,2:0:0:0:
123,24,40100,2,0,B|164:51|164:51|140:105,1,88,10|0,2:0|2:0,2:0:0:0:
138,172,40500,1,2,3:0:0:0:
135,163,40700,1,2,2:0:0:0:
193,254,40900,5,2,2:0:0:0:
193,254,41100,2,0,L|139:240,1,44,6|0,3:0|2:0,2:0:0:0:
96,285,41300,6,0,B|146:298|187:249|146:243|191:189|254:214,1,165,6|0,3:0|2:0,2:0:0:0:
195,326,41700,6,0,P|174:264|136:169,1,165,8|0,2:0|2:0,2:0:0:0:
107,109,42100,1,10,3:0:0:0:
106,100,42300,1,10,3:0:0:0:
332,45,42500,6,0,B|321:84|310:58|282:89|282:89|288:38|328:7|391:10|419:64,1,230.99999295044,6|0,3:0|2:0,2:0:0:0:
421,47,42900,1,2,2:0:0:0:
364,202,43100,5,2,2:0:0:0:
362,208,43300,2,0,P|396:249|455:239,1,110,8|0,2:0|2:0,2:0:0:0:
511,198,43700,5,2,3:0:0:0:
508,190,43900,1,2,2:0:0:0:
349,311,44100,5,2,2:0:0:0:
352,304,44300,2,0,P|317:317|274:338,1,55,6|0,3:0|2:0,2:0:0:0:
240,283,44500,6,0,B|290:269|331:318|290:324|339:375|398:353,1,165,6|0,3:0|2:0,2:0:0:0:
445,358,44900,1,8,2:0:0:0:
373,287,45100,5,2,3:0:0:0:
301,324,45300,5,10,3:0:0:0:
235,360,45500,5,2,2:0:0:0:
51,225,45700,6,0,B|37:244|30:279|30:279|112:187|239:176,1,247.500009441376,2|0,3:2|2:0,2:0:0:0:
194,103,46100,6,0,P|181:108|166:173,1,82.5000031471254,10|0,2:0|2:0,2:0:0:0:
234,243,46300,2,0,P|247:238|262:173,1,82.5000031471254,2|0,2:0|2:0,2:0:0:0:
98,76,46500,6,0,P|139:183|179:335,1,247.500009441376,10|0,2:0|2:0,2:0:0:0:
154,356,46900,2,0,B|123:306|167:276|172:277|175:278|209:245|176:197,1,165,2|0,3:2|2:0,2:0:0:0:
350,45,47300,6,0,B|306:115|369:159|376:158|380:157|430:203|382:273,1,247.500009441376,2|0,2:0|2:0,2:0:0:0:
331,337,47700,6,0,P|378:354|422:380,1,82.5000031471254,10|0,2:0|2:0,2:0:0:0:
416,362,47900,2,0,P|379:343|341:330,1,82.5000031471254,2|0,2:0|2:0,2:0:0:0:
232,302,48100,6,0,B|192:299|149:348|188:415|285:392|329:323|305:247,1,247.500009441376,10|0,2:0|2:0,2:0:0:0:
338,207,48500,5,2,3:2:0:0:
267,117,48700,5,10,2:0:0:0:
343,7,48900,6,0,P|362:42|379:108,1,82.5000031471254,2|0,3:2|2:0,2:0:0:0:
353,9,49100,2,0,P|372:44|389:110,1,82.5000031471254,2|0,2:0|2:0,2:0:0:0:
470,212,49300,6,0,P|489:177|506:111,1,82.5000031471254,10|0,2:0|2:0,2:0:0:0:
481,209,49500,2,0,P|500:174|517:108,1,82.5000031471254,2|0,2:0|2:0,2:0:0:0:
512,323,49700,6,0,B|502:326|485:336|485:336|403:273|320:253|320:253|320:231|305:210,1,247.500009441376,10|0,2:0|2:0,2:0:0:0:
377,176,50100,6,0,B|367:173|350:163|350:163|268:226|185:246|185:246|185:268|170:289,1,247.500009441376,2|0,3:2|2:0,2:0:0:0:
157,353,50500,5,2,2:0:0:0:
95,107,51700,6,0,B|87:115|83:131|83:131|104:101|139:98,1,90.7500027694703,2|0,2:0|2:0,2:0:0:0:
81,15,52100,6,0,P|117:98|158:268,1,255.750001951218,6|0,3:0|2:0,2:0:0:0:
77,316,52500,6,0,B|41:286|41:286|67:233,1,85.2500006504059,2|0,2:0|2:0,2:0:0:0:
225,341,52700,2,0,P|196:350|140:390,1,85.2500006504059,2|0,2:0|2:0,2:0:0:0:
429,181,52900,6,0,P|441:205|455:256,1,57.7499982376099,10|0,2:0|2:0,2:0:0:0:
434,172,53100,2,0,P|447:198|456:226,1,57.7499982376099,2|0,2:0|2:0,2:0:0:0:
417,317,53300,6,0,B|376:247|443:203|453:208|461:212|526:167|478:89,1,247.500009441376,2|0,3:0|2:0,2:0:0:0:
496,94,53700,5,2,2:0:0:0:
111,28,53900,2,0,B|96:34|95:67|95:67|104:43|133:27,1,82.5000031471254,6|0,3:0|2:0,2:0:0:0:
162,93,54100,2,0,B|196:116|196:85|234:108|234:108|196:62|132:71|102:117|145:122|107:178|41:172,1,288.750002753735,6|0,3:0|2:0,2:0:0:0:
46,84,54500,6,0,B|55:97|52:116|52:116|154:171|201:276|201:276|211:274|236:282,1,288.750002753735,10|0,2:0|2:0,2:0:0:0:
302,169,54900,6,0,P|273:174|249:221,1,63.250001206398,10|0,3:0|2:0,2:0:0:0:
238,354,55100,2,0,P|267:349|291:302,1,63.250001206398,6|0,3:0|2:0,2:0:0:0:
483,272,55300,6,0,B|491:304|520:321|520:321|429:288|429:288|426:289|426:289|364:266|364:266|362:262|362:262|301:241,1,288.750002753735,6|0,3:0|2:0,2:0:0:0:
446,135,55700,6,0,B|467:175|467:175|418:209,1,85.2500006504059,2|0,2:0|2:0,2:0:0:0:
331,81,55900,2,0,B|343:43|343:43|342:39|342:39|354:0,1,85.2500006504059,2|0,2:0|2:0,2:0:0:0:
83,167,56100,6,0,P|120:189|157:193,1,57.7499982376099,10|0,2:0|2:0,2:0:0:0:
83,159,56300,2,0,P|120:181|157:185,1,57.7499982376099,2|0,2:0|2:0,2:0:0:0:
90,303,56500,6,0,P|71:200|10:20,1,255.750001951218,2|0,3:0|2:0,2:0:0:0:
37,36,56900,1,2,2:0:0:0:
362,259,57100,6,0,B|375:272|375:272|377:296|377:296|360:280|360:280|360:248,1,85.2500006504059,6|0,3:0|2:0,2:0:0:0:
251,293,57300,2,0,B|324:322|353:248|346:241|339:236|369:147|459:191,1,255.750001951218,6|0,3:0|2:0,2:0:0:0:
455,179,57700,1,8,2:0:0:0:
485,356,57900,6,0,B|521:375|521:375|476:335,1,79.7500024337769,6|0,3:0|2:0,2:0:0:0:
402,383,58100,6,0,P|416:328|434:275,1,90.7500027694703,6|0,3:0|2:0,2:0:0:0:
352,269,58500,6,0,B|441:307|504:197|497:134|434:97|365:133|367:199|414:230,1,305.249998835564,10|0,3:0|2:0,2:0:0:0:
272,180,58900,6,0,B|358:136|314:17|262:-18|194:6|176:82|228:123|282:107,1,305.249998835564,10|0,3:0|2:0,2:0:0:0:
198,258,59300,6,0,B|213:162|91:127|32:148|11:219|63:278|126:260|148:201,1,297.000001132965,10|0,2:0|2:0,2:0:0:0:
114,234,59900,1,0,2:0:0:0:
47,68,60100,5,2,2:0:0:0:
47,68,60300,2,0,B|59:77|71:96|71:96|73:72|50:57,1,74.2500002832413,6|0,3:0|2:0,2:0:0:0:
125,5,60500,6,0,P|84:107|34:297,1,272.250002596378,6|0,3:0|2:0,2:0:0:0:
98,335,60900,6,0,B|117:270|56:238|47:246|42:253|-29:214|5:149,1,222.750000849724,10|0,2:0|2:0,2:0:0:0:
59,101,61300,5,10,3:0:0:0:
68,98,61500,1,6,3:0:0:0:
239,181,61700,6,0,B|291:263|191:342|129:346|82:289|106:215|172:206|210:248,1,305.249998835564,6|0,3:0|2:0,2:0:0:0:
342,144,62100,6,0,B|257:191|183:88|182:25|241:-17|314:10|319:76|275:111,1,305.249998835564,6|0,3:0|2:0,2:0:0:0:
370,263,62500,6,0,B|305:190|382:97|451:92|504:141|495:208|431:226|388:194,1,297.000001132965,10|0,2:0|2:0,2:0:0:0:
427,199,63100,1,0,2:0:0:0:
235,309,63300,5,2,2:0:0:0:
235,309,63500,6,0,B|254:315|272:332|272:332|261:306|237:296,1,85.2500006504059,6|0,3:0|2:0,2:0:0:0:
129,343,63700,6,0,P|236:292|428:260,1,255.750001951218,6|0,3:0|2:0,2:0:0:0:
393,273,64100,1,8,2:0:0:0:
501,46,64300,6,0,B|484:13|425:17|425:17|458:20|468:56,1,123.750004720688,10|0,3:0|2:0,2:0:0:0:
477,211,64500,2,0,B|514:212|540:159|540:159|521:186|484:177,1,123.750004720688,10|0,3:0|2:0,2:0:0:0:
343,95,64700,2,0,B|322:126|355:175|355:175|341:145|368:118,1,123.750004720688,6|0,3:0|2:0,2:0:0:0:
442,129,64900,6,0,P|294:91|155:53,1,255.750001951218,6|0,3:0|2:0,2:0:0:0:
91,80,65300,6,0,B|119:50|119:50|104:0,1,74.2500002832413,2|0,2:0|2:0,2:0:0:0:
17,61,65500,2,0,B|7:29|7:29|35:0,1,74.2500002832413,2|0,2:0|2:0,2:0:0:0:
108,200,65700,6,0,B|135:193|135:193|136:195|136:195|174:183,1,57.7499982376099,10|0,2:0|2:0,2:0:0:0:
99,194,65900,2,0,B|126:187|126:187|127:189|127:189|165:177,1,57.7499982376099,2|0,2:0|2:0,2:0:0:0:
4,218,66100,6,0,B|-16:210|-10:180|-3:183|8:163|1:137|1:137|61:149|103:214|53:272,1,247.500009441376,2|0,3:0|2:0,2:0:0:0:
48,289,66500,1,2,2:0:0:0:
316,307,66700,6,0,P|284:275|294:241,1,82.5000031471254,6|0,3:0|2:0,2:0:0:0:
391,350,66900,2,0,B|361:377|322:369|297:330|323:331|294:293|246:292|221:325,1,189.750003619194,6|0,3:0|2:0,2:0:0:0:
163,375,67300,2,0,P|306:330|474:273,1,305.249998835564,10|0,2:0|2:0,2:0:0:0:
394,210,67700,6,0,B|368:231|389:264|389:264|391:238|417:211,1,85.2500006504059,10|0,3:0|2:0,2:0:0:0:
505,164,67900,2,0,B|531:143|510:110|510:110|508:136|482:163,1,85.2500006504059,6|0,3:0|2:0,2:0:0:0:
261,124,68100,6,0,B|256:105|239:85|209:76|209:76|288:99|288:99|301:109|301:109|355:125|355:125|371:124|371:124|427:140,1,288.750002753735,6|0,3:0|2:0,2:0:0:0:
348,49,68500,6,0,L|360:-12,1,57.7499982376099,2|0,2:0|2:0,2:0:0:0:
311,195,68700,2,0,L|299:256,1,57.7499982376099,2|0,2:0|2:0,2:0:0:0:
137,55,68900,6,0,B|143:30|143:30|141:24|141:24|149:-9,1,57.7499982376099,10|0,2:0|2:0,2:0:0:0:
148,64,69100,2,0,B|154:39|154:39|152:33|152:33|160:0,1,57.7499982376099,2|0,2:0|2:0,2:0:0:0:
96,131,69300,6,0,B|70:145|70:145|95:179|102:237|102:237|136:191|176:166|176:166|155:133,1,255.750001951218,2|0,3:0|2:0,2:0:0:0:
148,64,69700,1,2,2:0:0:0:
181,297,69900,6,0,B|198:315|185:341|185:341|180:318|158:304,1,85.2500006504059,6|0,3:0|2:0,2:0:0:0:
105,374,70100,2,0,P|229:340|374:308,1,255.750001951218,6|0,3:0|2:0,2:0:0:0:
430,384,70500,2,0,B|365:347|360:297|384:250|425:231|425:231|397:250|386:286|415:324,1,272.250002596378,10|0,2:0|2:0,2:0:0:0:
488,288,70900,6,0,B|508:303|508:303|531:295|531:295|509:281|509:281|488:287,1,90.7500027694703,6|0,3:0|2:0,2:0:0:0:
407,151,71300,6,0,B|378:91|448:45|522:61|522:61|486:87|490:129|509:114|506:156|483:167,1,305.249998835564,6|0,3:0|2:0,2:0:0:0:
323,84,71700,6,0,B|286:138|211:100|187:28|187:28|227:47|262:22|239:13|277:-4|299:9,1,305.249998835564,6|0,3:0|2:0,2:0:0:0:
286,198,72100,6,0,B|349:202|354:286|303:343|303:343|299:298|260:281|264:305|229:281|231:256,1,297.000001132965,10|0,2:0|2:0,2:0:0:0:
231,252,72700,1,0,2:0:0:0:
133,135,72900,5,2,2:0:0:0:
133,135,73100,2,0,P|125:175|165:198,1,74.2500002832413,6|0,3:0|2:0,2:0:0:0:
215,94,73300,2,0,B|183:118|150:113|127:93|147:77|122:49|81:44|48:76,1,173.24999471283,6|0,3:0|2:0,2:0:0:0:
0,120,73700,6,0,P|141:81|307:38,1,288.750002753735,10|0,2:0|2:0,2:0:0:0:
358,33,74100,2,0,P|354:69|395:95,1,79.7500024337769,10|0,3:0|2:0,2:0:0:0:
428,8,74300,2,0,P|459:31|456:70,1,79.7500024337769,6|0,3:0|2:0,2:0:0:0:
388,289,74500,6,0,B|359:348|429:394|503:378|503:378|467:352|471:310|490:325|487:283|464:272,1,305.249998835564,6|0,3:0|2:0,2:0:0:0:
350,157,74900,6,0,B|313:102|238:140|214:212|214:212|254:193|289:218|266:227|304:245|326:231,1,305.249998835564,4|0,3:0|2:0,2:0:0:0:
489,187,75300,6,0,B|552:182|557:98|506:41|506:41|502:86|463:103|467:79|432:103|434:128,1,297.000001132965,10|0,2:0|2:0,2:0:0:0:
430,140,75900,1,0,2:0:0:0:
315,62,76100,6,0,B|294:58|289:26|304:30|300:10|287:-9|287:-9|345:-6|360:41|338:79,1,173.24999471283,2|0,2:0|2:0,2:0:0:0:
351,58,76500,1,2,2:0:0:0:
140,335,77300,6,0,B|107:381|37:376|-8:347|-18:284|31:249|69:257|91:290|81:316|48:319,1,255.750001951218,12|0,3:0|2:0,2:0:0:0:
219,270,77700,6,0,B|255:241|255:241|250:194,1,88,6|0,3:0|2:0,2:0:0:0:
178,171,78100,2,0,B|142:201|142:201|147:243,1,88,2|0,2:0|2:0,2:0:0:0:
221,349,78500,5,10,2:0:0:0:
227,355,78700,1,0,2:0:0:0:
319,299,78900,6,0,P|384:317|462:336,1,132,2|0,3:0|2:0,2:0:0:0:
461,349,79300,5,2,2:0:0:0:
388,237,79500,1,6,3:0:0:0:
507,152,79700,2,0,P|495:202|482:252,1,88,6|0,3:0|2:0,2:0:0:0:
421,88,80100,2,0,P|407:44|437:18,1,88,10|0,2:0|2:0,2:0:0:0:
361,155,80500,6,0,B|360:153|359:152|359:152|357:153|357:153|358:151|358:151|357:150|356:149|356:149|357:147|357:147|356:148|356:148|355:147|353:146|353:146|352:148|352:148|353:146|353:146|351:145|350:144|350:144|351:142|351:142|349:143|349:143|348:143|347:142|347:142|345:144|345:144|346:142|346:142|345:141|343:140|343:140|343:138|343:138|342:140|342:140|341:139|339:139|339:139|338:141|338:141|338:139|338:139|337:138|335:138|335:138|335:136|335:136|335:138|335:138|333:138|331:137|331:137|331:139|331:139|331:137|331:137|329:137|327:137|327:137|327:135|327:135|327:137|327:137|325:137|324:137|324:137|323:140|323:140|323:138|323:138|321:138|320:138|320:138|319:136|319:136|319:138|319:138|317:138|316:139|316:139|316:141|316:141|315:139|315:139|313:140|312:140|312:140|311:138|311:138|311:141|311:141|310:141|308:142|308:142|309:144|309:144|307:142|307:142|306:143|305:144|305:144|303:142|303:142|304:144|304:144|303:145|302:146|302:146|302:148|302:148|301:147|301:147|300:148|298:149|298:149|297:148|297:148|298:149|298:149|297:150|296:151|296:151|297:153|297:153|295:152|295:152|294:153|293:154|293:154|291:153|291:153|292:155|292:155|291:156|290:157|290:157|291:159|291:159|289:158|289:158|288:159|287:160|287:160|286:159|286:159|287:161|287:161|286:162|285:163|285:163|286:165|286:165|284:164|284:164|283:165|282:166|282:166|280:165|280:165|281:167|281:167|280:168|279:169|279:169|280:171|280:171|279:170|279:170|277:171|276:172|276:172|275:171|275:171|276:172|276:172|274:173|273:174|273:174|274:176|274:176|272:175|272:175|271:176|270:176|270:176|268:175|268:175|269:177|269:177|268:178|266:178|266:178|267:180|267:180|265:179|265:179|264:179|263:180|263:180|262:178|262:178|262:180|262:180|260:181|259:181|259:181|259:183|259:183|258:181|258:181|256:182|255:182|255:182|254:180|254:180|254:182|254:182|252:182|251:182|251:182|251:184|251:184|250:182|250:182|248:182|247:182|247:182|247:180|247:180|246:182|246:182|244:182|243:182|243:182|242:184|242:184|242:182|242:182|240:182|239:182|239:182|239:179|239:179|238:181|238:181|236:181|235:181|235:181|234:182|234:182|234:180|234:180|233:180|231:179|231:179|232:177|232:177|230:179|230:179|229:178|228:178|228:178|226:179|226:179|227:177|227:177|225:177|224:176|224:176|225:174|225:174|223:175|223:175|222:175|221:174|221:174|219:175|219:175|220:173|220:173|219:173,1,303.711028444833,6|0,3:0|2:0,2:0:0:0:
176,105,80900,6,0,P|207:74|196:31,1,88,6|0,3:0|2:0,2:0:0:0:
92,87,81300,2,0,P|84:45|114:16,1,88,2|0,2:0|2:0,2:0:0:0:
110,167,81700,2,0,P|91:232|75:294,1,132,10|0,2:0|2:0,2:0:0:0:
40,372,82100,2,0,P|77:325|147:348,1,132,2|0,3:0|2:0,2:0:0:0:
148,358,82500,5,2,2:0:0:0:
328,278,82700,1,6,3:0:0:0:
203,201,82900,2,0,P|215:251|226:297,1,88,6|0,3:0|2:0,2:0:0:0:
308,367,83300,1,10,2:0:0:0:
321,377,83500,1,6,3:0:0:0:
431,284,83700,6,0,B|433:281|433:281|432:279|432:279|434:280|434:280|435:278|435:277|435:277|437:278|437:278|436:276|436:276|437:274|437:274|435:272|435:272|437:273|437:273|438:270|438:270|440:270|440:270|439:269|439:269|439:267|439:266|439:266|438:265|438:265|440:265|440:265|440:263|440:262|440:262|443:262|443:262|441:261|441:261|441:259|441:258|441:258|439:258|439:258|441:257|441:257|442:255|442:254|442:254|444:254|444:254|442:253|442:253|442:251|442:250|442:250|440:250|440:250|442:249|442:249|442:247|442:246|442:246|444:246|444:246|442:245|442:245|442:243|442:242|442:242|440:242|440:242|442:241|442:241|441:239|441:238|441:238|443:238|443:238|441:237|441:237|441:235|441:235|439:235|439:235|440:234|440:234|440:231|440:231|441:230|441:230|439:230|439:230|439:227|438:227|438:227|436:227|436:227|438:226|438:226|437:224|437:223|437:223|439:222|439:222|437:222|437:222|435:220|435:220|433:220|433:220|435:219|435:219|434:216|433:216|433:216|435:215|435:215|433:215|433:215|432:213|431:213|431:213|429:213|429:213|431:212|431:212|429:210|429:209|429:209|430:208|430:208|428:209|428:209|427:207|426:206|426:206|425:207|425:207|426:206|426:206|424:204|424:203|424:203|425:202|425:202|423:203|423:203|421:201|421:201|419:202|419:202|420:200|420:200|418:198|418:198|418:196|418:196|417:198|417:198|415:196|414:196|414:196|413:197|413:197|414:195|414:195|412:194|411:194|411:194|412:192|412:192|410:193|410:193|408:192|408:192|406:193|406:193|407:191|407:191|404:190|404:190|404:188|404:188|403:190|403:190|401:189|400:189|400:189|399:190|399:190|399:188|399:188|397:187|397:187|397:185|397:185|396:187|396:187|393:186|393:186|392:188|392:188|392:186|392:186|389:186|389:186|386:182|386:182|387:185|387:185|384:185|384:185|383:187|383:187|383:185|383:185|380:185|380:185|379:183|379:183|379:185|379:185|376:185|376:185|375:187|375:187|375:185|375:185|372:185|372:185|371:183|371:183|371:185|371:185|368:186|368:186|368:188|368:188|367:186|367:186|365:186|364:186|364:186|363:185|363:185|363:187|363:187|361:187|360:187|360:187|360:190|360:190|359:188|359:188|357:189|356:189|356:189|355:187|355:187|355:189|355:189|351:192|353:190|353:190|353:192|353:192|352:191,1,299.304152388966,4|0,3:0|2:0,2:0:0:0:
285,224,84100,5,6,3:0:0:0:
272,217,84300,1,2,2:0:0:0:
132,351,84500,5,2,2:0:0:0:
145,344,84700,1,2,2:0:0:0:
188,176,84900,6,0,P|210:253|242:374,1,165,10|0,2:0|2:0,2:0:0:0:
224,353,85300,1,0,3:0:0:0:
449,333,85500,5,2,2:0:0:0:
512,371,85700,1,2,2:0:0:0:
426,164,85900,6,0,B|409:152|409:152|410:129|410:129|419:150,1,55,6|0,3:0|2:0,2:0:0:0:
503,177,86100,2,0,P|448:197|355:233,1,137.5,6|0,3:0|2:0,2:0:0:0:
224,43,86500,6,0,B|274:12|274:12|208:143,1,173.24999471283,10|0,2:0|2:0,2:0:0:0:
239,136,86900,1,4,3:0:0:0:
123,219,87100,1,10,3:0:0:0:
277,346,87300,5,6,3:0:0:0:
272,327,87500,1,2,2:0:0:0:
346,221,87700,5,2,2:0:0:0:
169,309,87900,1,2,2:0:0:0:
115,97,88100,6,0,B|94:82|42:112|42:112|131:117|184:207,1,206.25,10|0,2:0|2:0,2:0:0:0:
165,196,88500,1,2,3:0:0:0:
459,34,88700,5,2,2:0:0:0:
383,69,88900,1,2,2:0:0:0:
443,247,89100,6,0,B|462:239|459:212|459:212|449:236|422:237,1,68.75,6|0,3:0|2:0,2:0:0:0:
362,250,89300,2,0,P|439:280|515:331,1,137.5,6|0,3:0|2:0,2:0:0:0:
195,374,89700,6,0,B|162:315|208:278|215:280|220:284|298:248|227:165,1,206.25,10|0,2:0|2:0,2:0:0:0:
227,178,90100,1,6,3:0:0:0:
340,101,90300,1,2,2:0:0:0:
0,16,90500,6,0,P|37:31|73:63,1,68.75,0|0,3:0|2:0,2:0:0:0:
133,202,90700,5,10,2:0:0:0:
133,202,90800,1,2,2:0:0:0:
133,202,90900,2,0,P|96:217|60:249,1,68.75,10|0,2:0|2:0,2:0:0:0:
228,42,91100,5,2,2:0:0:0:
235,70,91200,1,2,2:0:0:0:
243,96,91300,1,10,2:0:0:0:
251,122,91400,1,2,2:0:0:0:
264,151,91500,1,2,2:0:0:0:
264,151,91600,1,2,2:0:0:0:
264,151,91700,2,0,P|250:194|236:250,1,68.75,6|0,3:0|2:0,2:0:0:0:
219,296,91900,1,10,2:0:0:0:
496,370,92100,5,10,2:0:0:0:
496,370,92200,1,2,2:0:0:0:
496,370,92300,2,0,P|469:363|435:309,1,68.75,6|0,3:0|2:0,2:0:0:0:
390,384,92500,6,0,P|410:318|443:216,1,137.5,2|0,3:0|2:0,2:0:0:0:
439,56,92900,5,10,2:0:0:0:
451,61,93000,1,2,2:0:0:0:
463,65,93100,1,2,2:0:0:0:
476,69,93200,1,2,2:0:0:0:
489,72,93300,2,0,P|443:84|386:117,1,68.75,2|0,3:0|2:0,2:0:0:0:
359,132,93500,1,10,2:0:0:0:
44,31,93700,6,0,P|76:41|91:92,1,68.75,2|0,3:0|2:0,2:0:0:0:
135,78,93900,2,0,P|142:110|105:149,1,68.75,10|0,2:0|2:0,2:0:0:0:
137,160,94100,2,0,P|112:182|60:170,1,68.75,10|0,2:0|2:0,2:0:0:0:
266,327,94500,5,10,2:0:0:0:
261,320,94600,2,0,P|338:342|424:372,1,137.5,2|0,2:0|2:0,2:0:0:0:
408,345,94900,5,2,3:0:0:0:
240,363,95100,1,10,2:0:0:0:
265,126,95300,6,0,L|287:207,1,68.75,10|0,2:0|2:0,2:0:0:0:
240,363,95500,1,2,3:0:0:0:
240,363,95600,1,2,2:0:0:0:
240,363,95700,2,0,L|258:296,1,68.75,10|0,2:0|2:0,2:0:0:0:
207,230,95900,1,2,2:0:0:0:
207,230,96000,1,2,2:0:0:0:
207,230,96100,6,0,P|290:208|398:187,1,137.5,10|0,2:0|2:0,2:0:0:0:
417,285,96400,1,2,2:0:0:0:
416,292,96500,2,0,P|381:296|340:249,1,68.75,2|0,3:0|2:0,2:0:0:0:
334,128,96700,2,0,P|369:124|410:171,1,68.75,10|0,2:0|2:0,2:0:0:0:
207,230,96900,6,0,B|219:250|234:296|234:296|161:207|39:208,1,247.500009441376,2|0,3:0|2:0,2:0:0:0:
15,237,97300,6,0,P|37:267|96:278,1,82.5000031471254,10|0,2:0|2:0,2:0:0:0:
134,139,97500,2,0,P|118:87|94:32,1,82.5000031471254,2|0,2:0|2:0,2:0:0:0:
160,5,97700,6,0,B|194:68|139:113|124:83|30:138|95:229,1,247.500009441376,10|0,2:0|2:0,2:0:0:0:
125,284,98100,5,4,3:0:0:0:
118,291,98300,1,10,2:0:0:0:
375,234,98500,6,0,P|467:276|530:354,1,165.000006294251,10|4,2:0|3:0,2:0:0:0:
368,159,98900,2,0,P|324:174|303:232,1,82.5000031471254,2|0,3:0|2:0,2:0:0:0:
436,317,99100,2,0,P|452:275|476:227,1,82.5000031471254,2|0,2:0|2:0,2:0:0:0:
443,143,99300,6,0,B|442:154|456:170|456:170|406:239|383:340|383:340|364:343|354:347,1,247.500009441376,10|0,2:0|2:0,2:0:0:0:
272,296,99700,5,2,3:0:0:0:
155,371,99900,5,10,2:0:0:0:
24,273,100100,6,0,B|43:237|43:237|95:243,1,82.5000031471254,2|0,3:0|2:0,2:0:0:0:
20,266,100300,2,0,B|39:230|39:230|91:236,1,82.5000031471254,10|0,2:0|2:0,2:0:0:0:
286,215,100500,6,0,B|244:219|244:219|225:183,1,82.5000031471254,10|0,2:0|2:0,2:0:0:0:
282,222,100700,2,0,B|240:226|240:226|221:190,1,82.5000031471254,2|0,2:0|2:0,2:0:0:0:
29,96,100900,6,0,B|-10:70|-82:127|-14:206|66:191|134:87,1,247.500009441376,10|0,2:0|2:0,2:0:0:0:
188,66,101300,6,0,B|230:45|216:-45|114:-26|87:50|143:161,1,247.500009441376,2|0,3:0|2:0,2:0:0:0:
146,200,101700,5,2,2:0:0:0:
418,278,102900,6,0,B|396:271|396:271|389:315|361:340|361:340|396:337|433:361|433:361|445:334,1,197.99999395752,2|0,2:0|2:0,2:0:0:0:
506,301,103300,6,0,B|424:316|424:316|431:303|431:303|310:357|310:357|326:362|326:362|263:364|263:364|262:357|262:357|225:369,1,354.750005413056,6|0,3:0|2:0,2:0:0:0:
58,309,103700,6,0,B|52:345|52:345|72:374,1,68.75,2|0,2:0|2:0,2:0:0:0:
147,353,103900,2,0,B|150:315|150:315|127:287,1,68.75,2|0,2:0|2:0,2:0:0:0:
239,137,104100,6,0,B|266:146|266:146|268:145|268:145|298:155,1,57.7499982376099,10|0,2:0|2:0,2:0:0:0:
233,123,104300,2,0,B|260:132|260:132|262:131|262:131|292:141,1,57.7499982376099,2|0,2:0|2:0,2:0:0:0:
134,31,104500,6,0,B|109:19|85:30|95:41|65:61|38:58|38:58|59:110|119:139|158:102,1,247.500009441376,2|0,3:0|2:0,2:0:0:0:
164,99,104900,1,2,2:0:0:0:
304,300,105100,6,0,B|325:326|347:320|347:320|324:318|313:301,1,82.5000031471254,6|0,3:0|2:0,2:0:0:0:
365,249,105300,2,0,B|393:233|382:179|382:179|397:235|453:252|487:238|513:200|498:150|447:145,1,288.750002753735,6|0,3:0|2:0,2:0:0:0:
401,101,105700,6,0,B|374:89|374:89|403:52|397:0|397:0|426:47|471:48|471:48|464:84,1,239.250007301331,10|0,2:0|2:0,2:0:0:0:
308,31,106100,6,0,B|288:1|251:22|251:22|272:22|283:30,1,96.2500009179115,10|0,3:0|2:0,2:0:0:0:
228,113,106300,2,0,B|247:142|284:121|284:121|263:121|252:113,1,96.2500009179115,6|0,3:0|2:0,2:0:0:0:
47,91,106500,6,0,B|78:93|86:34|86:34|111:102|195:103|216:30|136:-22|111:60,1,288.750002753735,6|0,3:0|2:0,2:0:0:0:
71,255,106900,6,0,B|34:228|34:228|35:174,1,85.2500006504059,2|0,2:0|2:0,2:0:0:0:
108,154,107100,2,0,B|144:180|144:180|143:234,1,85.2500006504059,2|0,2:0|2:0,2:0:0:0:
306,325,107300,6,0,B|279:334|279:334|277:333|277:333|247:343,1,57.7499982376099,10|0,2:0|2:0,2:0:0:0:
312,311,107500,2,0,B|285:320|285:320|283:319|283:319|253:329,1,57.7499982376099,2|0,2:0|2:0,2:0:0:0:
412,351,107700,6,0,P|275:332|135:315,1,255.750001951218,2|0,3:0|2:0,2:0:0:0:
141,328,108100,1,2,2:0:0:0:
339,159,108300,2,0,B|321:140|287:155|287:155|310:154|322:169,1,85.2500006504059,6|0,3:0|2:0,2:0:0:0:
315,161,108500,6,0,B|308:118|341:95|358:121|405:94|392:47,1,140.250002675057,6|0,3:0|2:0,2:0:0:0:
328,1,108900,2,0,P|346:124|364:295,1,272.250002596378,8|0,2:0|2:0,2:0:0:0:
412,351,109300,6,0,P|448:323|439:274,1,90.7500027694703,6|0,3:0|2:0,2:0:0:0:
361,271,109700,6,0,B|321:228|336:175|336:175|218:136|218:136|251:176|229:224,1,305.249998835564,10|0,3:0|2:0,2:0:0:0:
141,48,110100,6,0,B|123:103|70:116|70:116|95:238|95:238|113:190|166:184,1,305.249998835564,10|0,3:0|2:0,2:0:0:0:
65,342,110500,6,0,B|118:331|156:370|156:370|249:287|249:287|198:296|167:253,1,297.000001132965,10|0,2:0|2:0,2:0:0:0:
178,262,111100,1,0,2:0:0:0:
405,301,111300,5,2,2:0:0:0:
405,301,111500,2,0,P|379:268|400:232,1,74.2500002832413,6|0,3:0|2:0,2:0:0:0:
464,232,111700,2,0,B|434:244|403:232|386:194|408:182|393:152|350:134|313:165,1,189.750003619194,6|0,3:0|2:0,2:0:0:0:
246,204,112100,6,0,P|363:178|527:143,1,272.250002596378,10|0,2:0|2:0,2:0:0:0:
316,91,112500,6,0,B|286:55|286:55|302:12,1,90.7500008654595,10|0,3:0|2:0,2:0:0:0:
382,0,112700,2,0,B|412:36|412:36|396:79,1,90.7500008654595,6|0,3:0|2:0,2:0:0:0:
158,225,112900,6,0,B|118:267|133:320|133:320|15:359|15:359|48:319|26:271,1,305.249998835564,6|0,3:0|2:0,2:0:0:0:
246,204,113300,6,0,B|228:148|175:135|175:135|200:13|200:13|218:61|271:67,1,305.249998835564,6|0,3:0|2:0,2:0:0:0:
224,295,113700,6,0,B|277:305|315:266|315:266|408:349|408:349|357:340|326:383,1,297.000001132965,8|0,2:0|2:0,2:0:0:0:
337,381,114300,1,0,2:0:0:0:
492,220,114500,5,2,2:0:0:0:
492,220,114700,2,0,B|493:197|514:181|514:181|503:203|511:225,1,85.2500006504059,6|0,3:0|2:0,2:0:0:0:
476,314,114900,2,0,P|472:207|422:42,1,255.750001951218,6|0,3:0|2:0,2:0:0:0:
413,59,115300,1,8,2:0:0:0:
131,249,115500,6,0,B|97:248|77:224|74:198|74:198|92:219|118:220,1,123.750004720688,10|0,3:0|2:0,2:0:0:0:
307,214,115700,2,0,B|339:204|352:175|348:149|348:149|336:174|312:182,1,123.750004720688,10|0,3:0|2:0,2:0:0:0:
200,87,115900,2,0,B|168:63|195:27|195:27|227:50|200:88,1,123.750004720688,6|0,3:0|2:0,2:0:0:0:
118,115,116100,6,0,B|72:141|74:203|74:203|160:92|332:62,1,354.750005413056,6|0,3:0|2:0,2:0:0:0:
321,177,116500,6,0,P|284:175|253:127,1,68.75,2|0,2:0|2:0,2:0:0:0:
283,0,116700,2,0,P|320:2|351:50,1,68.75,2|0,2:0|2:0,2:0:0:0:
457,198,116900,6,0,P|474:155|494:122,1,57.7499982376099,10|0,2:0|2:0,2:0:0:0:
452,191,117100,2,0,P|469:148|489:115,1,57.7499982376099,2|0,2:0|2:0,2:0:0:0:
431,70,117300,6,0,B|390:140|457:184|467:179|475:175|540:220|492:298,1,247.500009441376,2|0,3:0|2:0,2:0:0:0:
488,300,117700,1,2,2:0:0:0:
138,188,117900,6,0,B|118:189|107:219|107:219|119:202|155:196,1,82.5000031471254,6|0,3:0|2:0,2:0:0:0:
86,333,118100,2,0,B|62:365|-1:358|-32:289|42:232|108:256|109:264|109:274|195:296|216:202,1,288.750002753735,6|0,3:0|2:0,2:0:0:0:
119,121,118500,6,0,P|171:241|210:401,1,239.250007301331,10|0,2:0|2:0,2:0:0:0:
279,368,118900,6,0,P|307:375|354:317,1,96.2500009179115,10|0,3:0|2:0,2:0:0:0:
438,226,119100,2,0,P|466:219|513:277,1,96.2500009179115,6|0,3:0|2:0,2:0:0:0:
442,381,119300,6,0,B|487:303|413:254|402:260|393:264|321:214|374:128,1,288.750002753735,6|0,3:0|2:0,2:0:0:0:
512,73,119700,6,0,P|487:107|420:94,1,85.2500006504059,2|0,2:0|2:0,2:0:0:0:
301,82,119900,2,0,P|314:26|327:-22,1,85.2500006504059,2|0,2:0|2:0,2:0:0:0:
104,130,120100,6,0,P|136:144|157:186,1,57.7499982376099,10|0,2:0|2:0,2:0:0:0:
108,122,120300,2,0,P|140:136|161:178,1,57.7499982376099,2|0,2:0|2:0,2:0:0:0:
275,137,120500,6,0,B|266:148|261:163|261:163|160:179|90:254|90:254|81:248|59:249,1,255.750001951218,2|0,3:0|2:0,2:0:0:0:
46,258,120900,1,2,2:0:0:0:
394,273,121100,6,0,B|426:271|440:304|440:304|428:288|395:282,1,85.2500006504059,6|0,3:0|2:0,2:0:0:0:
352,361,121300,2,0,P|379:256|460:93,1,255.750001951218,6|0,3:0|2:0,2:0:0:0:
461,127,121700,1,10,2:0:0:0:
334,30,121900,6,0,B|327:8|327:8|305:0|305:0|324:50,1,90.7500008654595,0|0,2:0|2:0,2:0:0:0:
254,64,122100,6,0,P|299:76|348:99,1,90.7500027694703,6|0,3:0|2:0,2:0:0:0:
470,68,122500,6,0,B|375:42|351:138|361:145|371:150|335:277|210:216,1,305.249998835564,6|0,3:0|2:0,2:0:0:0:
392,320,122900,6,0,B|367:224|271:251|270:264|271:275|143:307|133:168,1,305.249998835564,6|0,3:0|2:0,2:0:0:0:
128,384,123300,6,0,B|198:314|126:245|115:251|106:257|15:162|129:84,1,297.000001132965,10|0,2:0|2:0,2:0:0:0:
91,120,123900,1,0,2:0:0:0:
221,187,124100,5,2,2:0:0:0:
221,187,124300,2,0,B|210:204|185:200|185:200|198:175|224:171,1,74.2500002832413,6|0,3:0|2:0,2:0:0:0:
204,88,124500,6,0,P|235:168|263:318,1,206.25,6|0,3:0|2:0,2:0:0:0:
259,365,124900,6,0,B|223:303|288:263|298:270|304:276|372:228|300:151,1,206.25,10|0,2:0|2:0,2:0:0:0:
301,120,125300,5,10,3:0:0:0:
296,114,125500,1,6,3:0:0:0:
420,194,125700,6,0,B|485:228|536:140|464:76|384:111|424:136|332:194|277:86,1,305.249998835564,6|0,3:0|2:0,2:0:0:0:
186,241,126100,6,0,B|124:280|174:368|266:338|275:251|234:273|230:164|351:171,1,305.249998835564,6|0,3:0|2:0,2:0:0:0:
266,28,126500,6,0,B|262:-45|161:-45|141:48|212:100|213:53|309:104|245:204,1,297.000001132965,10|0,2:0|2:0,2:0:0:0:
261,167,127100,1,0,2:0:0:0:
134,308,127300,5,2,2:0:0:0:
30,149,127700,6,0,L|25:111,3,31.1666672611237,2|0|0|0,2:0|2:0|2:0|2:0,2:0:0:0:
128,19,128100,6,0,L|123:59,4,28.874999118805,2|0|0|0|0,2:0|2:0|2:0|2:0|2:0,2:0:0:0:
227,155,128500,6,0,L|222:125,6,19.2499994125366,14|0|0|0|0|0|0,3:0|2:0|2:0|2:0|2:0|2:0|2:0,2:0:0:0:
380,26,128900,5,6,3:0:0:0:
380,37,129000,1,2,2:0:0:0:
378,49,129100,2,0,P|388:115|402:211,1,137.5,0|0,2:0|2:0,2:0:0:0:
446,313,129500,2,0,P|458:276|494:270,1,68.75,0|0,3:0|2:0,2:0:0:0:
512,377,129700,5,8,2:0:0:0:
506,369,129800,1,0,2:0:0:0:
501,364,129900,2,0,B|467:329|425:348|436:369|400:397|348:354,1,137.5,0|6,2:0|3:0,2:0:0:0:
375,370,130300,1,0,2:0:0:0:
242,222,130500,5,2,2:0:0:0:
250,214,130600,1,0,2:0:0:0:
256,206,130700,2,0,P|178:208|174:269,1,137.5,4|0,3:0|2:0,2:0:0:0:
167,254,131100,1,2,2:0:0:0:
155,123,131300,6,0,B|128:93|93:102|93:102|118:101|133:129,1,101.749999611855,8|0,2:0|2:0,2:0:0:0:
28,221,131500,2,0,B|67:212|77:177|77:177|65:199|33:198,1,101.749999611855,0|0,2:0|2:0,2:0:0:0:
7,61,131700,2,0,B|-5:99|21:128|21:128|6:104|23:77,1,107.249995090485,0|0,3:0|2:0,2:0:0:0:
155,31,132100,6,0,B|177:5|213:10|232:39|239:49|225:45|231:56|235:77|265:100|313:79,1,173.24999471283,6|0,3:0|2:0,2:0:0:0:
430,69,132500,6,0,B|449:49|449:49|444:18,1,46.7500008916855,0|0,2:0|2:0,2:0:0:0:
377,0,132700,2,0,B|357:19|357:19|362:50,1,46.7500008916855,6|0,3:0|2:0,2:0:0:0:
357,117,132900,5,8,2:0:0:0:
434,350,133100,6,0,B|451:331|475:346|475:346|504:339|506:317,1,90.7500008654595,0|0,2:0|2:0,2:0:0:0:
375,219,133300,2,0,B|382:243|357:256|357:256|348:284|366:298,1,90.7500008654595,2|0,3:0|2:0,2:0:0:0:
512,239,133500,2,0,B|486:233|488:204|488:204|468:183|447:192,1,90.7500008654595,0|0,2:0|2:0,2:0:0:0:
76,253,133700,6,0,B|91:334|91:334|151:322,1,134.750001285076,2|0,2:0|2:0,2:0:0:0:
180,231,133900,2,0,B|198:175|198:175|225:226|225:226|206:210|184:226,1,134.750001285076,2|0,3:0|2:0,2:0:0:0:
439,99,134100,6,0,B|422:184|422:184|360:172,1,134.750001285076,2|0,3:0|2:0,2:0:0:0:
316,35,134300,2,0,L|288:180,1,134.750001285076,2|0,2:0|2:0,2:0:0:0:
286,371,134500,6,0,B|318:377|336:351|324:324|298:321|281:323|266:307|272:284|300:270|323:279,1,151.250001442432,10|0,2:0|2:0,2:0:0:0:
470,375,134700,6,0,B|470:332|482:281|482:281|412:338|412:338|439:329|455:349,1,206.250007867813,6|0,3:0|2:0,2:0:0:0:
500,211,135300,5,6,3:0:0:0:
492,201,135400,1,0,2:0:0:0:
478,190,135500,2,0,B|447:167|416:184|426:202|398:221|343:198,1,115.49999647522,0|0,2:0|2:0,2:0:0:0:
237,78,135900,2,0,P|207:60|202:33,1,57.7499982376099,0|0,3:0|2:0,2:0:0:0:
269,3,136100,5,8,2:0:0:0:
280,9,136200,1,0,2:0:0:0:
292,15,136300,2,0,P|281:79|269:135,1,115.49999647522,0|6,2:0|3:0,2:0:0:0:
271,128,136700,1,0,2:0:0:0:
93,270,136900,6,0,B|53:280|53:280|69:233,1,79.7500024337769,2|0,3:0|2:0,2:0:0:0:
129,132,137100,2,0,B|103:103|103:103|92:142,1,79.7500024337769,4|0,3:0|2:0,2:0:0:0:
197,242,137300,2,0,B|234:234|234:234|206:204,1,79.7500024337769,8|0,2:0|2:0,2:0:0:0:
128,207,137500,1,0,2:0:0:0:
292,370,137700,6,0,B|251:357|251:357|303:342|303:342|324:344|324:344|352:336|352:336|368:326|368:326|412:314,1,189.750003619194,8|0,2:0|2:0,2:0:0:0:
311,214,138100,2,0,L|321:267,1,46.7500008916855,0|0,3:0|2:0,2:0:0:0:
469,324,138300,2,0,L|459:271,1,46.7500008916855,8|0,2:0|2:0,2:0:0:0:
453,84,138500,6,0,B|465:56|446:34|446:34|455:57|437:86,1,90.7500008654595,6|0,3:0|2:0,2:0:0:0:
398,139,138700,2,0,B|386:167|405:189|405:189|396:166|414:137,1,90.7500008654595,8|0,2:0|2:0,2:0:0:0:
507,142,138900,2,0,P|392:108|286:76,1,206.25,10|0,2:0|2:0,2:0:0:0:
237,68,139300,2,0,B|261:48|252:16|232:-2|232:-2|283:16|295:89|271:136|219:142,1,239.250007301331,8|0,2:0|2:0,2:0:0:0:
115,177,139700,6,0,B|136:170|136:170|166:188,1,41.2500015735627,2|0,3:0|2:0,2:0:0:0:
141,252,139900,2,0,B|120:259|120:259|90:241,1,41.2500015735627,0|0,2:0|2:0,2:0:0:0:
240,229,140100,6,0,L|306:234,1,46.7500008916855,2|0,2:0|2:0,2:0:0:0:
297,223,140300,2,0,L|231:218,1,46.7500008916855,2|0,2:0|2:0,2:0:0:0:
304,332,140500,6,0,L|370:327,1,46.7500008916855,2|0,2:0|2:0,2:0:0:0:
361,338,140700,2,0,L|295:343,1,46.7500008916855,2|0,2:0|2:0,2:0:0:0:
396,147,140900,6,0,L|462:152,1,46.7500008916855,2|0,2:0|2:0,2:0:0:0:
452,138,141100,2,0,L|386:133,1,46.7500008916855,2|0,2:0|2:0,2:0:0:0:
256,192,141300,12,0,144500,2:0:0:0:
139,247,144900,6,0,B|109:262|103:297|127:290|112:339|112:339|177:301|175:221|131:168|112:212|51:129|117:62,1,371.250001416206,6|0,3:0|2:0,2:0:0:0:
144,50,145500,6,0,B|141:30|141:30|137:28|137:28|128:-14,2,42.166667470932,2|2|2,3:0|3:0|3:0,2:0:0:0:
41,212,145700,5,10,2:0:0:0:
78,141,145833,1,2,2:0:0:0:
162,126,145966,1,2,2:0:0:0:
321,252,146100,6,0,B|365:295|352:339|352:339|309:272|235:223|155:268,1,302.500002884865,6|0,3:0|2:0,2:0:0:0:
118,314,146500,2,0,P|138:336|205:329,1,84.3333349418641,0|0,2:0|2:0,2:0:0:0:
251,241,146700,2,0,P|236:186|220:144,1,84.3333349418641,0|0,3:0|2:0,2:0:0:0:
63,15,146900,5,2,2:0:0:0:
131,57,147033,1,2,2:0:0:0:
59,91,147166,1,2,2:0:0:0:
131,215,147300,5,10,2:0:0:0:
137,135,147433,1,2,2:0:0:0:
67,173,147566,1,2,2:0:0:0:
55,326,147700,6,0,B|70:325|87:332|87:332|145:280|225:279|225:279|228:262|240:251,1,210.83333735466,0|0,3:0|2:0,2:0:0:0:
155,110,148100,6,0,B|115:93|81:131|74:182|143:221|207:194|196:170|259:136|315:224,1,297.000001132965,6|0,3:0|2:0,2:0:0:0:
227,349,148700,6,0,B|232:391|282:402|329:382|329:303|273:261|258:283|190:241|245:152,1,297.000001132965,4|0,3:0|2:0,2:0:0:0:
358,150,149300,6,0,P|287:186|167:317,1,247.500000944138,4|0,3:0|2:0,2:0:0:0:
104,342,149700,5,2,2:0:0:0:
40,298,149833,1,2,2:0:0:0:
45,222,149966,1,2,2:0:0:0:
85,141,150100,5,2,2:0:0:0:
101,151,150233,1,2,2:0:0:0:
117,161,150366,1,2,2:0:0:0:
182,250,150500,5,10,2:0:0:0:
245,210,150633,1,2,2:0:0:0:
310,170,150766,1,2,2:0:0:0:
379,125,150900,6,0,P|398:145|407:162,1,45.8333333333333,0|0,3:0|2:0,2:0:0:0:
382,52,151300,6,0,B|423:-1|513:46|482:150|367:149|384:133|292:139|270:246|301:286|381:287|399:238,1,425.333346313477,6|0,3:0|2:0,2:0:0:0:
460,189,151900,6,0,B|464:204|464:204|466:205|466:205|472:228,2,42.166667470932,2|2|2,3:0|3:0|3:0,2:0:0:0:
457,331,152100,6,0,P|371:290|234:262,1,210.83333735466,8|0,2:0|2:0,2:0:0:0:
136,290,152500,6,0,B|120:251|54:251|48:342|117:374|200:367|252:281|216:208,1,302.500002884865,4|0,3:0|2:0,2:0:0:0:
256,147,152900,6,0,P|248:97|177:72,1,91.6666666666667,2|0,2:0|2:0,2:0:0:0:
140,54,153100,6,0,P|187:72|244:23,1,91.6666666666667,0|0,3:0|2:0,2:0:0:0:
282,0,153300,6,0,P|242:31|256:105,1,91.6666666666667,2|0,2:0|2:0,2:0:0:0:
267,168,153500,5,2,2:0:0:0:
167,278,153700,6,0,B|148:253|103:241|103:241|224:258|304:365,1,284.166668834686,10|0,2:0|2:0,2:0:0:0:
108,350,154100,6,0,P|170:330|283:236,1,192.499994125366,0|0,3:0|2:0,2:0:0:0:
389,120,154500,6,0,B|409:34|294:15|260:115|321:201|329:185|336:177|381:224|349:285|312:297,1,319.000009735108,6|0,3:0|2:0,2:0:0:0:
362,368,155100,6,0,B|426:428|500:338|430:258|325:268|335:283|339:293|275:309|239:250|247:212,1,319.000009735108,6|0,3:0|2:0,2:0:0:0:
111,131,155700,5,4,3:0:0:0:
168,197,155833,1,2,2:0:0:0:
251,181,155966,1,2,2:0:0:0:
341,32,156100,2,0,P|325:72|380:134,1,126.500002412796,2|0,2:0|2:0,2:0:0:0:
470,161,156433,1,2,2:0:0:0:
476,149,156500,2,0,P|449:115|368:131,1,126.500002412796,2|2,2:0|2:0,2:0:0:0:
274,246,156900,5,10,2:0:0:0:
280,259,157100,1,0,2:0:0:0:
314,348,157300,6,0,P|329:323|343:311,1,36.6666666666667,0|0,3:0|2:0,2:0:0:0:
456,150,157700,6,0,B|473:111|526:103|526:103|413:117|413:117|404:124|404:124|327:132|327:132|315:127|315:127|245:134,1,371.250001416206,6|0,3:0|2:0,2:0:0:0:
204,73,158300,6,0,P|190:54|197:27,2,49.5000001888275,2|2|2,3:0|3:0|3:0,2:0:0:0:
96,190,158500,5,10,2:0:0:0:
27,165,158633,1,2,2:0:0:0:
9,96,158766,1,2,2:0:0:0:
164,143,158900,5,2,3:2:0:0:
176,215,159033,1,2,2:0:0:0:
126,264,159166,1,2,2:0:0:0:
93,102,159300,5,2,3:2:0:0:
121,68,159433,1,2,2:0:0:0:
172,63,159566,1,2,2:0:0:0:
296,170,159700,5,2,3:2:0:0:
285,164,159833,2,0,P|274:128|296:99,1,62.3333345222473,2|2,2:0|2:0,2:0:0:0:
366,283,160100,6,0,L|334:295,3,31.1666672611237,10|2|2|2,3:0|3:0|3:0|3:0,2:0:0:0:
442,224,160500,6,0,B|466:247|466:247|464:305,1,57.7499982376099,0|0,3:0|2:0,2:0:0:0:
275,350,160700,2,0,B|251:327|251:327|252:303,1,57.7499982376099,10|0,2:0|2:0,2:0:0:0:
290,128,160900,6,0,B|307:110|342:126|331:127|358:153|395:133|395:133|349:187|293:192|255:161|255:161|236:138|194:115|137:139,1,371.250001416206,6|0,3:0|2:0,2:0:0:0:
101,176,161500,2,0,P|90:195|105:234,2,49.5000001888275,2|2|2,3:0|3:0|3:0,2:0:0:0:
121,306,161700,5,2,2:0:0:0:
47,284,161833,1,2,2:0:0:0:
59,364,161966,1,2,2:0:0:0:
263,242,162100,5,2,3:2:0:0:
189,220,162233,1,2,2:0:0:0:
201,300,162366,1,2,2:0:0:0:
175,103,162500,5,2,3:2:0:0:
139,88,162633,1,2,2:0:0:0:
109,77,162766,1,2,2:0:0:0:
228,14,162900,5,2,3:2:0:0:
220,3,163033,2,0,L|304:19,1,62.3333345222473,2|2,2:0|2:0,2:0:0:0:
397,56,163300,6,0,L|406:16,3,31.1666672611237,10|2|2|2,3:0|3:0|3:0|3:0,2:0:0:0:
456,192,163700,6,0,P|475:162|464:129,1,57.7499982376099,2|0,3:2|2:0,2:0:0:0:
279,97,163900,2,0,P|260:127|271:160,1,57.7499982376099,2|0,2:0|2:0,2:0:0:0:
451,319,164100,6,0,B|454:333|472:363|520:367|520:367|466:375|424:342|430:298|430:298|367:276|367:276|369:282|369:282|304:261|304:261|309:257|309:257|219:224,1,426.25000325203,6|0,3:0|2:0,2:0:0:0:
190,290,164700,2,0,L|240:309,2,49.5000001888275,2|2|2,3:0|3:0|3:0,2:0:0:0:
123,211,164900,5,10,2:0:0:0:
72,149,165033,1,2,2:0:0:0:
111,82,165166,1,2,2:0:0:0:
283,66,165300,5,2,3:2:0:0:
254,141,165433,1,2,2:0:0:0:
177,140,165566,1,2,2:0:0:0:
139,1,165700,5,2,3:2:0:0:
187,21,165833,1,2,2:0:0:0:
199,68,165966,1,2,2:0:0:0:
72,149,166100,6,0,P|35:147|11:108,1,62.3333345222473,2|0,2:0|2:0,2:0:0:0:
79,69,166366,1,0,0:0:0:0:
140,220,166500,6,0,P|135:241|130:267,3,31.1666672611237,10|2|2|2,3:0|3:0|3:0|3:0,2:0:0:0:
238,331,166900,6,0,B|257:307|257:307|248:265,1,57.7499982376099,2|0,3:2|2:0,2:0:0:0:
29,232,167100,2,0,B|10:256|10:256|19:298,1,57.7499982376099,2|0,2:0|2:0,2:0:0:0:
231,143,167300,6,0,B|252:104|193:73|136:127|177:200|254:158|254:158|295:129|351:135|367:174|367:174|340:148|307:161,1,371.250001416206,6|0,3:0|2:0,2:0:0:0:
320,233,167900,6,0,P|320:255|338:277,2,49.5000001888275,2|2|2,3:0|3:0|3:0,2:0:0:0:
501,326,168100,5,10,2:0:0:0:
487,251,168233,1,2,2:0:0:0:
412,234,168366,1,2,2:0:0:0:
353,349,168500,5,2,3:2:0:0:
421,384,168633,1,2,2:0:0:0:
420,307,168766,1,2,2:0:0:0:
281,272,168900,5,2,3:2:0:0:
247,260,169033,1,2,2:0:0:0:
218,249,169166,1,2,2:0:0:0:
131,288,169300,5,2,3:2:0:0:
109,291,169433,1,2,2:0:0:0:
88,295,169566,1,2,2:0:0:0:
1,247,169700,6,0,L|211:300,2,189.750003619194,2|2|2,2:0|2:0|2:0,2:0:0:0:
456,200,171300,6,0,B|488:207|509:188|509:188|492:194|468:184,1,79.7500024337769,2|0,2:0|2:0,2:0:0:0:
296,155,171500,2,0,B|264:145|255:118|255:118|267:131|292:135,1,79.7500024337769,2|0,2:0|2:0,2:0:0:0:
446,107,171700,6,0,B|473:91|473:91|419:46|429:-8|429:-8|406:46|341:52|341:52|358:88,1,288.750002753735,2|0,2:0|2:0,2:0:0:0:
478,309,172100,6,0,B|452:311|433:329|433:329|349:258|224:236|224:236|223:217|206:196,1,321.750001227379,6|0,3:0|2:0,2:0:0:0:
113,325,172500,6,0,P|73:341|18:376,1,85.2500006504059,2|0,2:0|2:0,2:0:0:0:
175,132,172700,2,0,P|222:121|271:155,1,85.2500006504059,2|0,2:0|2:0,2:0:0:0:
61,216,172900,6,0,P|50:189|24:147,1,63.250001206398,10|0,2:0|2:0,2:0:0:0:
54,219,173100,2,0,P|43:192|17:150,1,63.250001206398,2|0,2:0|2:0,2:0:0:0:
85,94,173300,6,0,B|126:164|59:208|49:203|41:199|-24:244|30:324,1,255.750001951218,2|0,3:0|2:0,2:0:0:0:
41,323,173700,1,2,2:0:0:0:
441,160,173900,6,0,B|413:170|406:208|406:208|427:182|454:175,1,123.750004720688,6|0,3:0|2:0,2:0:0:0:
463,258,174100,2,0,B|523:292|587:203|526:143|430:140|384:193|405:192|380:250|299:229|274:164,1,371.250014162064,6|0,3:0|2:0,2:0:0:0:
330,102,174500,6,0,P|370:195|409:371,1,239.250007301331,10|0,2:0|2:0,2:0:0:0:
317,360,174900,6,0,P|298:366|242:319,1,85.2500006504059,10|0,3:0|2:0,2:0:0:0:
105,203,175100,2,0,P|86:197|30:244,1,85.2500006504059,6|0,3:0|2:0,2:0:0:0:
179,262,175300,6,0,B|132:287|90:329|90:329|133:187|133:187|132:181|132:181|168:69,1,371.250014162064,6|0,3:0|2:0,2:0:0:0:
81,0,175700,6,2,B|58:30|58:30|96:75,1,79.7500024337769,0|0,2:0|2:0,2:0:0:0:
240,144,175900,2,0,P|292:123|336:111,1,79.7500024337769,2|0,2:0|2:0,2:0:0:0:
466,251,176100,6,0,P|433:245|400:200,1,74.2500002832413,10|0,2:0|2:0,2:0:0:0:
460,257,176300,2,0,P|427:251|394:206,1,74.2500002832413,2|0,2:0|2:0,2:0:0:0:
491,150,176500,6,0,B|418:121|389:195|396:202|403:207|373:296|276:251,1,255.750001951218,2|0,3:0|2:0,2:0:0:0:
292,245,176900,1,2,2:0:0:0:
131,89,177100,6,0,B|118:72|97:69|97:69|139:68|163:103,1,85.2500006504059,6|0,3:0|2:0,2:0:0:0:
83,139,177300,2,0,B|83:190|50:168|40:220|40:220|26:152|81:92|150:93|125:141|214:145|236:58,1,371.250014162064,6|0,3:0|2:0,2:0:0:0:
253,90,177700,1,10,2:0:0:0:
216,329,177900,6,0,P|188:333|146:268,1,101.749999611855,6|0,3:0|2:0,2:0:0:0:
301,255,178100,6,0,P|324:321|332:357,1,90.7500027694703,6|0,3:0|2:0,2:0:0:0:
471,270,178500,6,0,B|488:198|432:124|339:148|312:186|312:186|358:192|368:245,1,305.249998835564,10|0,3:0|2:0,2:0:0:0:
148,350,178900,6,0,B|201:400|293:389|319:296|300:254|300:254|269:294|221:273,1,305.249998835564,10|0,3:0|2:0,2:0:0:0:
224,32,179300,6,0,B|165:53|129:138|196:207|242:211|242:211|228:168|265:133,1,297.000001132965,10|0,2:0|2:0,2:0:0:0:
266,164,179900,1,0,2:0:0:0:
67,280,180100,5,2,2:0:0:0:
67,280,180300,6,0,B|61:269|37:265|37:265|61:279|73:302,1,74.2500002832413,6|0,3:0|2:0,2:0:0:0:
0,383,180500,2,0,P|74:334|260:295,1,272.250002596378,6|0,3:0|2:0,2:0:0:0:
321,262,180900,6,0,B|258:241|215:292|248:308|198:375|120:334,1,222.750000849724,10|0,2:0|2:0,2:0:0:0:
92,190,181300,6,0,P|111:145|136:98,1,74.2500002832413,10|0,3:0|2:0,2:0:0:0:
86,185,181500,2,0,P|105:140|130:93,1,74.2500002832413,6|0,3:0|2:0,2:0:0:0:
25,0,181700,6,0,B|-50:60|17:168|76:191|138:153|138:75|79:46|30:73,1,305.249998835564,6|0,3:0|2:0,2:0:0:0:
61,288,182100,6,0,B|131:353|228:271|243:210|197:155|120:164|99:227|133:272,1,305.249998835564,6|0,3:0|2:0,2:0:0:0:
345,384,182500,6,0,B|431:334|383:216|330:183|262:209|247:286|301:325|349:308,1,297.000001132965,10|0,2:0|2:0,2:0:0:0:
294,308,183100,1,0,2:0:0:0:
422,109,183300,5,2,2:0:0:0:
422,109,183500,6,0,B|435:68|435:68|410:101,1,85.2500006504059,6|0,3:0|2:0,2:0:0:0:
512,178,183700,2,0,B|487:183|469:188|469:188|415:135|309:116|309:116|304:92|281:71,1,255.750001951218,6|0,3:0|2:0,2:0:0:0:
279,82,184100,1,8,2:0:0:0:
36,205,184300,6,0,P|56:242|93:250,1,68.75,10|0,3:0|2:0,2:0:0:0:
92,280,184500,2,0,P|134:281|159:253,1,68.75,10|0,3:0|2:0,2:0:0:0:
193,279,184700,2,0,P|215:243|203:207,1,68.75,6|0,3:0|2:0,2:0:0:0:
113,58,184900,6,0,B|102:83|83:95|48:88|48:88|86:101|123:87|133:54|133:54|179:67|179:67|175:69|175:69|221:84|221:84|220:79|220:79|286:97,1,321.750001227379,6|0,3:0|2:0,2:0:0:0:
366,79,185300,6,0,B|352:37|352:37|386:-4,1,85.2500006504059,2|0,2:0|2:0,2:0:0:0:
447,96,185500,2,0,B|473:64|473:64|459:22,1,85.2500006504059,2|0,2:0|2:0,2:0:0:0:
447,262,185700,6,0,P|480:255|519:245,1,63.250001206398,10|0,2:0|2:0,2:0:0:0:
431,255,185900,2,0,P|464:248|503:238,1,63.250001206398,2|0,2:0|2:0,2:0:0:0:
392,332,186100,6,0,B|442:271|344:220|344:220|353:254|332:276|325:270|295:301|333:338,1,255.750001951218,2|0,3:0|2:0,2:0:0:0:
324,333,186500,1,2,2:0:0:0:
78,281,186700,6,0,B|83:253|55:225|55:225|73:250|64:276,1,101.749999611855,6|0,3:0|2:0,2:0:0:0:
68,263,186900,2,0,B|97:231|136:238|161:265|139:264|159:301|198:311|239:281,1,173.24999471283,6|0,3:0|2:0,2:0:0:0:
0,298,187300,6,0,P|140:268|328:223,1,288.750002753735,10|0,2:0|2:0,2:0:0:0:
336,177,187700,2,0,P|302:143|322:92,1,85.2500006504059,10|0,3:0|2:0,2:0:0:0:
409,154,187900,2,0,P|411:113|380:87,1,85.2500006504059,6|0,3:0|2:0,2:0:0:0:
1,124,188100,6,0,B|41:127|41:127|82:124|107:82|107:82|158:116|209:111|209:111|224:157|177:181|177:181|124:187|69:133,1,404.250003855229,6|0,3:0|2:0,2:0:0:0:
299,13,188500,6,0,B|254:15|254:15|228:51,1,79.7500024337769,2|0,2:0|2:0,2:0:0:0:
379,86,188700,2,0,P|384:43|388:4,1,79.7500024337769,2|0,2:0|2:0,2:0:0:0:
435,236,188900,6,0,B|473:242|473:242|471:245|471:245|517:252,1,74.2500002832413,10|0,2:0|2:0,2:0:0:0:
425,249,189100,2,0,B|463:255|463:255|461:258|461:258|507:265,1,74.2500002832413,2|0,2:0|2:0,2:0:0:0:
298,288,189300,6,0,B|298:313|338:341|338:341|258:317|258:317|247:308|247:308|196:291|196:291|181:293|181:293|98:265,1,305.249998835564,2|0,3:0|2:0,2:0:0:0:
96,282,189700,1,2,2:0:0:0:
237,64,189900,6,0,B|259:47|257:16|242:5|242:5|246:27|234:41,1,101.749999611855,6|0,3:0|2:0,2:0:0:0:
219,137,190100,2,0,B|220:156|203:166|200:159|189:168|186:202|186:202|148:136|203:76|282:76|331:143|331:143|310:122|280:128,1,371.250014162064,6|0,3:0|2:0,2:0:0:0:
392,79,190500,6,0,P|421:57|408:17,1,74.2500002832413,10|0,2:0|2:0,2:0:0:0:
285,208,190700,2,0,B|275:231|275:231|291:254|291:254|303:228|303:228|285:209,1,101.749999611855,4|0,3:0|2:0,2:0:0:0:
429,363,190900,6,0,P|476:374|506:336,1,90.7500027694703,6|0,3:0|2:0,2:0:0:0:
509,206,191300,6,0,B|556:189|539:139|516:147|517:107|539:78|539:78|537:69|537:69|409:86|461:179,1,305.249998835564,6|0,3:0|2:0,2:0:0:0:
401,231,191700,6,0,B|410:280|358:290|354:266|320:287|305:320|305:320|297:323|297:323|247:204|354:202,1,305.249998835564,6|0,3:0|2:0,2:0:0:0:
286,117,192100,6,0,B|295:67|243:57|239:81|205:60|190:27|190:27|182:24|182:24|132:143|239:145,1,297.000001132965,10|8,2:0|2:0,2:0:0:0:
221,147,192700,1,0,2:0:0:0:
149,307,192900,5,10,2:0:0:0:
149,307,193100,2,0,B|171:273|171:273|153:235,1,74.2500002832413,6|0,3:0|2:0,2:0:0:0:
70,331,193300,2,0,B|98:302|143:308|164:338|150:349|159:380|210:388|239:364,1,173.24999471283,6|0,3:0|2:0,2:0:0:0:
0,384,193700,6,0,P|160:346|294:310,1,288.750002753735,10|0,2:0|2:0,2:0:0:0:
234,298,194100,2,0,B|206:275|228:240|228:240|230:268|258:296,1,96.2500009179115,8|0,3:0|2:0,2:0:0:0:
357,327,194300,2,0,B|384:349|362:384|362:384|360:356|332:328,1,96.2500009179115,4|0,3:0|2:0,2:0:0:0:
250,76,194500,6,0,B|272:8|379:-6|414:65|414:65|396:36|352:25|322:52,1,305.249998835564,6|0,3:0|2:0,2:0:0:0:
441,257,194900,6,0,B|371:271|304:185|355:120|355:120|333:157|346:195|378:210,1,305.249998835564,6|0,3:0|2:0,2:0:0:0:
503,6,195300,6,0,B|550:59|509:159|427:148|427:148|470:148|495:114|489:74,1,297.000001132965,10|8,2:0|2:0,2:0:0:0:
410,63,195900,1,0,2:0:0:0:
238,193,196100,6,0,B|159:176|159:176|165:182|165:182|61:159,1,173.24999471283,10|0,2:0|2:0,2:0:0:0:
74,152,196500,1,2,2:0:0:0:
