osu file format v14

[General]
AudioFilename: audio.mp3
AudioLeadIn: 0
PreviewTime: 51793
Countdown: 0
SampleSet: Soft
StackLeniency: 0.7
Mode: 0
LetterboxInBreaks: 0
WidescreenStoryboard: 1

[Editor]
DistanceSpacing: 0.4
BeatDivisor: 4
GridSize: 32
TimelineZoom: 2.3

[Metadata]
Title:LALISA
TitleUnicode:LALISA
Artist:LISA
ArtistUnicode:LISA
Creator:Nymphe
Version:Normal
Source:
Tags:pop kpop english en korean kr blackpink rap hip hop female vocal reform kujinn kiyoshi guarden manoban 블랙핑크 리사 k-pop eli [_eli_] elinor -kemsyt solo album
BeatmapID:3216981
BeatmapSetID:1573933

[Difficulty]
HPDrainRate:4
CircleSize:3.6
OverallDifficulty:4
ApproachRate:5
SliderMultiplier:1
SliderTickRate:1

[Events]
//Background and Video events
0,0,"lisa.png",0,0
//Break Periods
//Storyboard Layer 0 (Background)
//Storyboard Layer 1 (Fail)
//Storyboard Layer 2 (Pass)
//Storyboard Layer 3 (Foreground)
//Storyboard Layer 4 (Overlay)
//Storyboard Sound Samples

[TimingPoints]
900,400.000000000001,4,2,1,40,1,0
900,-100,4,2,1,40,0,0
13300,-100,4,2,1,40,0,0
13700,-100,4,2,1,65,0,0
26500,-100,4,2,1,50,0,0
45700,-100,4,2,1,50,0,0
50000,-100,4,2,1,50,0,0
50100,-100,4,2,1,50,0,0
50400,-100,4,2,1,50,0,0
50500,-100,4,2,1,50,0,0
51700,-100,4,2,1,50,0,0
52100,-90.9090909090909,4,2,1,80,0,1
54800,-90.9090909090909,4,2,1,80,0,1
54900,-90.9090909090909,4,2,1,80,0,1
58000,-90.9090909090909,4,2,1,80,0,1
58100,-90.9090909090909,4,2,1,80,0,1
58800,-90.9090909090909,4,2,1,80,0,1
58900,-90.9090909090909,4,2,1,80,0,1
59200,-90.9090909090909,4,2,1,80,0,1
59300,-90.9090909090909,4,2,1,80,0,1
62000,-90.9090909090909,4,2,1,80,0,1
62100,-90.9090909090909,4,2,1,80,0,1
62400,-90.9090909090909,4,2,1,80,0,1
62500,-90.9090909090909,4,2,1,80,0,1
64000,-90.9090909090909,4,2,1,80,0,1
64100,-90.9090909090909,4,2,1,80,0,1
64400,-90.9090909090909,4,2,1,80,0,1
64500,-100,4,2,1,80,0,0
64900,-90.9090909090909,4,2,1,80,0,1
67600,-90.9090909090909,4,2,1,80,0,1
67700,-90.9090909090909,4,2,1,80,0,1
70800,-90.9090909090909,4,2,1,80,0,1
70900,-90.9090909090909,4,2,1,80,0,1
71600,-90.9090909090909,4,2,1,80,0,1
71700,-90.9090909090909,4,2,1,80,0,1
72000,-90.9090909090909,4,2,1,80,0,1
72100,-90.9090909090909,4,2,1,80,0,1
76100,-100,4,2,1,60,0,0
76400,-100,4,2,1,60,0,0
76500,-100,4,2,1,60,0,0
77300,-100,4,2,1,50,0,0
77600,-100,4,2,1,50,0,0
77700,-100,4,2,1,50,0,0
80800,-100,4,2,1,50,0,0
80900,-100,4,2,1,50,0,0
84000,-100,4,2,1,50,0,0
84100,-100,4,2,1,50,0,0
90500,-100,4,2,1,50,0,0
93800,-100,4,2,1,50,0,0
93900,-100,4,2,1,50,0,0
94000,-100,4,2,1,50,0,0
94100,-100,4,2,1,50,0,0
101200,-100,4,2,1,50,0,0
101300,-100,4,2,1,50,0,0
101600,-100,4,2,1,50,0,0
101700,-100,4,2,1,50,0,0
102900,-100,4,2,1,50,0,0
103300,-90.9090909090909,4,2,1,80,0,1
106000,-90.9090909090909,4,2,1,80,0,1
106100,-90.9090909090909,4,2,1,80,0,1
109200,-90.9090909090909,4,2,1,80,0,1
109300,-90.9090909090909,4,2,1,80,0,1
110000,-90.9090909090909,4,2,1,80,0,1
110100,-90.9090909090909,4,2,1,80,0,1
110400,-90.9090909090909,4,2,1,80,0,1
110500,-90.9090909090909,4,2,1,80,0,1
115200,-90.9090909090909,4,2,1,80,0,1
115300,-90.9090909090909,4,2,1,80,0,1
115600,-90.9090909090909,4,2,1,80,0,1
115700,-100,4,2,1,80,0,0
116100,-90.9090909090909,4,2,1,80,0,1
118800,-90.9090909090909,4,2,1,80,0,1
118900,-90.9090909090909,4,2,1,80,0,1
122000,-90.9090909090909,4,2,1,80,0,1
122100,-90.9090909090909,4,2,1,80,0,1
122800,-90.9090909090909,4,2,1,80,0,1
122900,-90.9090909090909,4,2,1,80,0,1
123200,-90.9090909090909,4,2,1,80,0,1
123300,-90.9090909090909,4,2,1,80,0,1
126000,-90.9090909090909,4,2,1,80,0,1
126100,-90.9090909090909,4,2,1,80,0,1
126400,-90.9090909090909,4,2,1,80,0,1
126500,-90.9090909090909,4,2,1,80,0,0
127600,-90.9090909090909,4,2,1,80,0,0
127700,-100,4,2,1,50,0,0
128900,-100,4,2,1,70,0,0
132400,-100,4,2,1,70,0,0
132500,-100,4,2,1,70,0,0
132800,-100,4,2,1,70,0,0
132900,-100,4,2,1,70,0,0
141200,-100,4,2,1,70,0,0
141700,-100,4,2,1,5,0,0
144500,-100,4,2,1,70,0,0
144900,-100,4,2,1,80,0,0
154800,-100,4,2,1,80,0,0
154900,-100,4,2,1,80,0,0
155200,-100,4,2,1,80,0,0
155300,-100,4,2,1,80,0,0
156600,-100,4,2,1,80,0,0
156700,-100,4,2,1,80,0,0
171500,-100,4,2,1,80,0,0
171700,-100,4,2,1,80,0,0
172100,-90.9090909090909,4,2,1,80,0,1
174400,-90.9090909090909,4,2,1,80,0,1
174500,-90.9090909090909,4,2,1,80,0,1
174800,-90.9090909090909,4,2,1,80,0,1
174900,-90.9090909090909,4,2,1,80,0,1
177600,-90.9090909090909,4,2,1,80,0,1
177700,-90.9090909090909,4,2,1,80,0,1
178800,-90.9090909090909,4,2,1,80,0,1
178900,-90.9090909090909,4,2,1,80,0,1
179200,-90.9090909090909,4,2,1,80,0,1
179300,-90.9090909090909,4,2,1,80,0,1
182000,-90.9090909090909,4,2,1,80,0,1
182100,-90.9090909090909,4,2,1,80,0,1
182400,-90.9090909090909,4,2,1,80,0,1
182500,-90.9090909090909,4,2,1,80,0,1
184000,-90.9090909090909,4,2,1,80,0,1
184100,-90.9090909090909,4,2,1,80,0,1
184400,-90.9090909090909,4,2,1,80,0,1
184500,-100,4,2,1,80,0,0
184900,-90.9090909090909,4,2,1,80,0,1
187200,-90.9090909090909,4,2,1,80,0,1
187300,-90.9090909090909,4,2,1,80,0,1
187600,-90.9090909090909,4,2,1,80,0,1
187700,-90.9090909090909,4,2,1,80,0,1
190400,-90.9090909090909,4,2,1,80,0,1
190500,-90.9090909090909,4,2,1,80,0,1
191600,-90.9090909090909,4,2,1,80,0,1
191700,-90.9090909090909,4,2,1,80,0,1
192000,-90.9090909090909,4,2,1,80,0,1
192100,-90.9090909090909,4,2,1,80,0,1
194800,-90.9090909090909,4,2,1,80,0,1
194900,-90.9090909090909,4,2,1,80,0,1
195200,-90.9090909090909,4,2,1,80,0,1
195300,-90.9090909090909,4,2,1,80,0,1
196100,-90.9090909090909,4,2,1,50,0,0
196400,-90.9090909090909,4,2,1,50,0,0
196500,-100,4,2,1,50,0,0

[Colours]
Combo1 : 235,148,148
Combo2 : 162,106,223
Combo3 : 236,140,234
Combo4 : 177,114,141

[HitObjects]
50,30,900,6,0,P|99:18|145:42,1,100,2|2,3:0|3:0,0:0:0:0:
178,86,1500,1,2,0:0:0:0:
178,86,1700,2,0,P|169:137|161:194,1,100,2|0,3:0|0:0,0:0:0:0:
177,293,2500,6,0,L|229:303,1,50,2|2,3:0|0:0,0:0:0:0:
268,337,2900,2,0,L|320:327,1,50,2|2,3:0|0:0,0:0:0:0:
365,301,3300,2,0,B|391:249|391:249|368:198,1,100,2|0,3:0|0:0,0:0:0:0:
280,153,4100,6,0,P|225:173|178:143,1,100,2|2,3:0|3:0,0:0:0:0:
165,113,4700,1,2,0:0:0:0:
165,113,4900,2,0,L|179:12,1,100,2|0,3:0|0:0,0:0:0:0:
288,12,5700,2,0,L|344:26,1,50,2|2,3:0|0:0,0:0:0:0:
379,57,6100,2,0,L|435:43,1,50,2|2,3:0|0:0,0:0:0:0:
481,32,6500,2,0,L|467:150,1,100,2|0,3:0|0:0,0:0:0:0:
427,232,7300,6,0,B|379:209|379:209|311:218,1,100,2|2,3:0|3:0,0:0:0:0:
283,235,7900,1,2,0:0:0:0:
283,235,8100,2,0,P|292:281|292:347,1,100,2|0,3:0|0:0,0:0:0:0:
187,365,8900,2,0,P|148:363|127:347,1,50,2|2,3:0|0:0,0:0:0:0:
115,308,9300,2,0,P|91:299|67:301,1,50,2|2,3:0|0:0,0:0:0:0:
19,327,9700,2,0,P|-8:283|6:233,1,100,2|0,3:0|0:0,0:0:0:0:
76,156,10500,6,0,P|71:98|68:44,2,100,2|2|2,0:0|0:0|0:0,0:0:0:0:
161,225,11700,1,2,0:0:0:0:
247,157,12100,2,0,P|275:154|309:171,1,50,2|2,0:0|0:0,0:0:0:0:
334,199,12500,2,0,P|361:198|391:185,1,50,2|2,0:0|0:0,0:0:0:0:
429,161,12900,1,2,0:0:0:0:
466,57,13300,1,2,0:0:0:0:
365,13,13700,6,0,L|252:25,1,100,6|2,3:0|0:0,0:0:0:0:
219,50,14300,1,2,0:0:0:0:
219,50,14500,2,0,L|158:44,1,50,10|0,0:0|0:0,0:0:0:0:
118,23,14900,1,2,3:0:0:0:
38,98,15300,2,0,L|47:153,1,50,2|6,0:0|3:0,0:0:0:0:
85,186,15700,2,0,L|77:307,1,100,6|8,3:0|0:0,0:0:0:0:
134,380,16500,1,4,3:0:0:0:
213,321,16900,6,0,B|238:330|271:313|259:301|288:287|327:304,1,100,6|2,3:0|0:0,0:0:0:0:
355,333,17500,1,2,0:0:0:0:
355,333,17700,2,0,L|410:341,1,50,8|0,0:0|0:0,0:0:0:0:
459,348,18100,1,2,3:0:0:0:
497,244,18500,2,0,P|518:194|498:149,1,100,2|6,0:0|3:0,0:0:0:0:
458,130,19100,1,0,0:0:0:0:
458,130,19300,1,10,0:0:0:0:
365,189,19700,1,6,3:0:0:0:
255,175,20100,6,0,P|260:121|270:63,1,100,6|2,3:0|0:0,0:0:0:0:
286,26,20700,1,2,0:0:0:0:
286,26,20900,2,0,P|252:18|227:24,1,50,10|0,0:0|0:0,0:0:0:0:
184,37,21300,1,2,3:0:0:0:
116,123,21700,2,0,L|121:181,1,50,2|6,0:0|3:0,0:0:0:0:
133,226,22100,2,0,P|184:245|231:211,1,100,6|8,3:0|0:0,0:0:0:0:
287,136,22900,1,4,3:0:0:0:
392,165,23300,6,0,P|384:215|379:270,1,100,6|2,3:0|0:0,0:0:0:0:
383,322,23900,1,2,0:0:0:0:
383,322,24100,2,0,P|349:330|316:316,1,50,8|0,0:0|0:0,0:0:0:0:
282,309,24500,1,2,3:0:0:0:
174,331,24900,2,0,B|149:318|119:327|124:338|103:354|66:339,1,100,2|6,0:0|3:0,0:0:0:0:
41,314,25500,1,0,0:0:0:0:
41,314,25700,2,0,P|21:267|54:224,1,100,10|4,0:0|3:0,0:0:0:0:
141,175,26500,6,0,L|155:61,1,100,6|2,3:0|0:0,0:0:0:0:
253,31,27300,2,0,L|239:145,1,100,10|2,0:0|3:0,0:0:0:0:
290,228,28100,2,0,P|338:251|388:228,1,100,2|6,0:0|3:0,0:0:0:0:
413,199,28700,1,2,0:0:0:0:
413,199,28900,1,10,0:0:0:0:
486,116,29300,1,10,3:0:0:0:
414,32,29700,6,0,B|361:14|361:14|302:41,1,100,6|2,3:0|0:0,0:0:0:0:
279,67,30300,1,0,0:0:0:0:
279,67,30500,2,0,B|238:86|238:86|185:68,1,100,10|2,0:0|3:0,0:0:0:0:
86,22,31300,2,0,L|68:140,1,100,2|6,0:0|3:0,0:0:0:0:
59,174,31900,1,2,0:0:0:0:
59,174,32100,1,10,0:0:0:0:
2,268,32500,1,10,3:0:0:0:
63,359,32900,6,0,L|121:345,1,50,6|0,3:0|0:0,0:0:0:0:
157,316,33300,2,0,L|263:334,1,100,2|8,0:0|0:0,0:0:0:0:
364,348,34100,2,0,P|415:370|463:344,1,100,2|0,3:0|0:0,0:0:0:0:
481,308,34700,1,6,3:0:0:0:
481,308,34900,2,0,L|470:205,1,100,6|8,3:0|0:0,0:0:0:0:
490,100,35700,1,8,3:0:0:0:
394,45,36100,6,0,P|334:36|287:31,1,100,6|2,3:0|0:0,0:0:0:0:
244,44,36700,1,0,0:0:0:0:
244,44,36900,1,10,0:0:0:0:
144,91,37300,1,2,3:0:0:0:
122,197,37700,2,0,L|62:189,1,50,2|6,0:0|3:0,0:0:0:0:
24,163,38100,2,0,P|10:112|43:69,1,100,6|10,3:0|0:0,0:0:0:0:
125,14,38900,1,10,3:0:0:0:
193,99,39300,6,0,B|247:113|247:113|300:95,1,100,6|2,3:0|0:0,0:0:0:0:
363,17,40100,2,0,B|415:3|415:3|470:21,1,100,10|2,0:0|3:0,0:0:0:0:
485,124,40900,2,0,L|473:173,1,50,2|6,0:0|3:0,0:0:0:0:
428,205,41300,2,0,L|444:316,1,100,6|8,3:0|0:0,0:0:0:0:
365,383,42100,1,10,3:0:0:0:
297,296,42500,6,0,P|225:285|184:281,1,100,6|2,3:0|0:0,0:0:0:0:
149,301,43100,1,2,0:0:0:0:
149,301,43300,2,0,L|84:312,1,50,8|0,0:0|0:0,0:0:0:0:
50,334,43700,1,2,3:0:0:0:
5,233,44100,2,0,L|16:183,1,50,2|6,0:0|3:0,0:0:0:0:
67,165,44500,2,0,L|61:58,1,100,6|8,3:0|0:0,0:0:0:0:
151,2,45300,1,10,3:0:0:0:
242,63,45700,6,0,P|272:104|251:151,1,100,2|10,3:2|0:0,0:0:0:0:
169,214,46500,2,0,P|153:259|183:297,1,100,10|2,0:0|3:2,0:0:0:0:
276,353,47300,2,0,P|328:341|391:331,1,100,2|10,0:0|0:0,0:0:0:0:
432,326,47900,1,2,0:0:0:0:
432,326,48100,2,0,P|446:276|416:226,1,100,10|2,0:0|3:2,0:0:0:0:
395,195,48700,1,10,0:0:0:0:
395,195,48900,6,0,P|385:152|398:129,1,50,2|2,3:2|0:2,0:0:0:0:
420,104,49300,2,0,P|380:65|320:79,1,100,10|10,0:2|0:0,0:0:0:0:
261,145,50100,1,2,3:2:0:0:
173,78,50500,1,2,0:0:0:0:
457,42,52100,6,0,P|440:90|459:164,1,110.000003356934,6|2,3:0|0:0,0:0:0:0:
488,193,52700,1,2,0:0:0:0:
488,193,52900,2,0,P|500:224|497:263,1,55.0000016784668,10|2,0:0|0:0,0:0:0:0:
478,295,53300,1,2,3:0:0:0:
379,343,53700,2,0,P|352:334|311:328,1,55.0000016784668,2|6,0:0|3:0,0:0:0:0:
289,347,54100,2,0,P|228:351|163:356,1,110.000003356934,6|10,3:0|0:0,0:0:0:0:
71,376,54900,1,10,3:0:0:0:
10,283,55300,6,0,P|-10:229|40:179,1,110.000003356934,6|2,3:0|0:0,0:0:0:0:
71,172,55900,1,2,0:0:0:0:
71,172,56100,2,0,L|129:186,1,55.0000016784668,10|2,0:0|0:0,0:0:0:0:
177,200,56500,1,2,3:0:0:0:
278,242,56900,2,0,P|296:210|288:178,1,55.0000016784668,2|6,0:0|3:0,0:0:0:0:
254,154,57300,2,0,P|252:100|249:43,1,110.000003356934,6|8,3:0|0:0,0:0:0:0:
144,8,58100,1,6,3:0:0:0:
103,110,58500,6,0,B|51:92|51:92|-5:110,2,110.000003356934,10|10|10,3:0|3:0|0:0,0:0:0:0:
195,246,59900,1,0,0:0:0:0:
195,246,60100,2,0,L|186:309,1,55.0000016784668,2|6,0:0|3:0,0:0:0:0:
180,355,60500,2,0,P|231:369|306:365,1,110.000003356934,6|10,3:0|0:0,0:0:0:0:
348,276,61300,1,10,3:0:0:0:
457,272,61700,6,0,B|473:326|473:326|447:378,2,110.000003356934,6|6|10,3:0|3:0|0:0,0:0:0:0:
507,117,63100,1,0,0:0:0:0:
507,117,63300,2,0,P|516:84|503:50,1,55.0000016784668,2|6,0:0|3:0,0:0:0:0:
476,22,63700,2,0,L|347:33,1,110.000003356934,6|8,3:0|0:0,0:0:0:0:
267,14,64500,1,10,3:0:0:0:
239,120,64900,6,0,P|184:130|141:92,1,110.000003356934,6|2,3:0|0:0,0:0:0:0:
132,49,65500,1,2,0:0:0:0:
132,49,65700,2,0,L|62:38,1,55.0000016784668,10|2,0:0|0:0,0:0:0:0:
22,33,66100,1,2,3:0:0:0:
14,142,66500,2,0,L|24:198,1,55.0000016784668,2|6,0:0|3:0,0:0:0:0:
69,226,66900,2,0,L|82:341,1,110.000003356934,6|10,3:0|0:0,0:0:0:0:
182,379,67700,1,10,3:0:0:0:
248,291,68100,6,0,B|303:285|303:285|361:318,1,110.000003356934,6|2,3:0|0:0,0:0:0:0:
391,356,68700,1,2,0:0:0:0:
391,356,68900,2,0,L|471:348,1,55.0000016784668,10|2,0:0|0:0,0:0:0:0:
500,344,69300,1,2,3:0:0:0:
486,234,69700,2,0,P|498:202|484:178,1,55.0000016784668,2|6,0:0|3:0,0:0:0:0:
444,153,70100,2,0,L|329:162,1,110.000003356934,6|10,3:0|0:0,0:0:0:0:
249,232,70900,1,6,3:0:0:0:
176,149,71300,6,0,B|152:99|152:99|182:41,2,110.000003356934,6|6|10,3:0|3:0|0:0,0:0:0:0:
313,55,72700,1,0,0:0:0:0:
313,55,72900,2,0,L|374:66,1,55.0000016784668,2|6,0:0|3:0,0:0:0:0:
420,77,73300,2,0,P|447:130|421:182,1,110.000003356934,6|10,3:0|0:0,0:0:0:0:
333,228,74100,1,10,3:0:0:0:
236,280,74500,6,0,P|206:316|232:370,2,110.000003356934,6|4|10,3:0|3:0|0:0,0:0:0:0:
389,352,75900,1,0,0:0:0:0:
389,352,76100,2,0,P|440:373|496:342,1,100,2|2,0:0|0:0,0:0:0:0:
492,133,77300,1,12,3:0:0:0:
408,61,77700,6,0,P|355:71|293:82,1,100,6|2,3:0|0:0,0:0:0:0:
264,87,78300,1,0,0:0:0:0:
264,87,78500,1,10,0:0:0:0:
195,173,78900,1,2,3:0:0:0:
131,83,79300,2,0,L|75:88,1,50,2|6,0:0|3:0,0:0:0:0:
33,103,79700,2,0,P|10:154|30:195,1,100,6|10,3:0|0:0,0:0:0:0:
71,292,80500,1,6,3:0:0:0:
168,240,80900,6,0,P|217:246|271:254,1,100,6|2,3:0|0:0,0:0:0:0:
322,276,81500,1,0,0:0:0:0:
322,276,81700,1,10,0:0:0:0:
382,367,82100,1,2,3:0:0:0:
474,306,82500,2,0,P|474:286|473:243,1,50,2|6,0:0|3:0,0:0:0:0:
456,203,82900,2,0,P|412:174|354:193,1,100,6|10,3:0|0:0,0:0:0:0:
260,233,83700,1,4,3:0:0:0:
168,171,84100,6,0,P|149:122|178:76,1,100,6|2,3:0|0:0,0:0:0:0:
223,61,84700,1,2,0:0:0:0:
223,61,84900,2,0,L|333:80,1,100,10|0,0:0|3:0,0:0:0:0:
430,62,85700,2,0,P|441:20|446:3,2,50,2|6|6,0:0|3:0|3:0,0:0:0:0:
408,113,86300,1,0,0:0:0:0:
408,113,86500,2,0,L|424:215,1,100,10|4,0:0|3:0,0:0:0:0:
457,316,87300,6,0,P|400:310|345:302,1,100,6|2,3:0|0:0,0:0:0:0:
315,276,87900,1,2,0:0:0:0:
315,276,88100,2,0,P|258:282|203:290,1,100,10|2,0:0|3:0,0:0:0:0:
107,309,88900,2,0,P|99:339|108:363,2,50,2|6|6,0:0|3:0|3:0,0:0:0:0:
127,260,89500,1,0,0:0:0:0:
127,260,89700,2,0,P|148:206|123:156,1,100,10|6,0:0|3:0,0:0:0:0:
49,98,90500,6,0,L|-7:105,2,50,0|10|10,3:0|0:0|0:0,0:0:0:0:
138,34,91300,2,0,L|199:25,1,50,10|2,0:0|0:0,0:0:0:0:
238,46,91700,2,0,L|287:53,1,50,6|10,3:0|0:0,0:0:0:0:
342,52,92100,2,0,P|367:94|353:143,1,100,10|2,0:0|3:0,0:0:0:0:
356,251,92900,2,0,P|402:271|458:242,1,100,10|2,0:0|3:0,0:0:0:0:
462,204,93500,1,10,0:0:0:0:
462,204,93700,6,0,L|457:148,2,50,2|10|10,3:0|0:0|0:0,0:0:0:0:
512,299,94500,2,0,P|531:347|502:388,1,100,10|2,0:0|3:0,0:0:0:0:
456,378,95100,1,10,0:0:0:0:
456,378,95300,2,0,L|391:375,1,50,10|2,0:0|3:0,0:0:0:0:
352,364,95700,1,10,0:0:0:0:
250,321,96100,2,0,P|189:326|128:329,1,100,10|2,0:0|3:0,0:0:0:0:
99,334,96700,1,10,0:0:0:0:
99,334,96900,6,0,B|77:288|77:288|94:236,1,100,2|10,3:0|0:0,0:0:0:0:
190,192,97700,2,0,B|205:145|205:145|183:99,1,100,10|4,0:0|3:0,0:0:0:0:
120,8,98500,2,0,P|70:-9|20:15,1,100,10|2,0:0|3:0,0:0:0:0:
5,60,99100,1,2,0:0:0:0:
5,60,99300,2,0,L|21:171,1,100,10|2,0:0|3:0,0:0:0:0:
53,208,99900,1,10,0:0:0:0:
53,208,100100,6,0,P|93:204|117:189,1,50,2|10,3:0|0:0,0:0:0:0:
143,164,100500,2,0,L|243:183,1,100,10|10,0:0|0:0,0:0:0:0:
344,145,101300,1,2,3:0:0:0:
428,214,101700,1,2,0:0:0:0:
18,376,103300,6,0,P|-2:325|32:268,1,110.000003356934,6|2,3:0|0:0,0:0:0:0:
71,253,103900,1,2,0:0:0:0:
71,253,104100,2,0,P|104:262|135:268,1,55.0000016784668,10|2,0:0|0:0,0:0:0:0:
176,282,104500,1,2,3:0:0:0:
263,348,104900,2,0,P|294:335|332:333,1,55.0000016784668,2|6,0:0|3:0,0:0:0:0:
364,356,105300,2,0,P|427:361|492:367,1,110.000003356934,6|10,3:0|0:0,0:0:0:0:
508,260,106100,1,10,3:0:0:0:
405,220,106500,6,0,P|391:168|429:115,1,110.000003356934,6|2,3:0|0:0,0:0:0:0:
468,89,107100,1,2,0:0:0:0:
468,89,107300,2,0,L|406:72,1,55.0000016784668,10|2,0:0|0:0,0:0:0:0:
362,58,107700,1,2,3:0:0:0:
263,8,108100,2,0,P|249:39|249:75,1,55.0000016784668,2|6,0:0|3:0,0:0:0:0:
215,104,108500,2,0,P|232:156|232:222,1,110.000003356934,6|8,3:0|0:0,0:0:0:0:
164,296,109300,1,6,3:0:0:0:
257,354,109700,6,0,B|311:387|371:345,2,110.000003356934,10|10|10,3:0|3:0|0:0,0:0:0:0:
95,354,111100,1,0,0:0:0:0:
95,354,111300,2,0,L|106:284,1,55.0000016784668,2|6,0:0|3:0,0:0:0:0:
146,265,111700,2,0,P|140:212|133:147,1,110.000003356934,6|10,3:0|0:0,0:0:0:0:
48,86,112500,1,10,3:0:0:0:
142,29,112900,6,0,B|194:15|194:15|253:42,2,110.000003356934,6|6|8,3:0|3:0|0:0,0:0:0:0:
216,182,114300,1,0,0:0:0:0:
216,182,114500,2,0,P|249:191|289:180,1,55.0000016784668,2|6,0:0|3:0,0:0:0:0:
315,157,114900,2,0,L|337:42,1,110.000003356934,6|8,3:0|0:0,0:0:0:0:
426,5,115700,1,10,3:0:0:0:
478,91,116100,6,0,P|502:150|474:207,1,110.000003356934,6|2,3:0|0:0,0:0:0:0:
448,229,116700,1,2,0:0:0:0:
448,229,116900,2,0,L|435:302,1,55.0000016784668,10|2,0:0|0:0,0:0:0:0:
428,337,117300,1,2,3:0:0:0:
318,328,117700,2,0,L|251:336,1,55.0000016784668,2|6,0:0|3:0,0:0:0:0:
209,349,118100,2,0,P|162:325|91:330,1,110.000003356934,6|10,3:0|0:0,0:0:0:0:
10,381,118900,1,10,3:0:0:0:
12,271,119300,6,0,B|-7:215|-7:215|19:167,1,110.000003356934,6|2,3:0|0:0,0:0:0:0:
62,145,119900,1,2,0:0:0:0:
62,145,120100,2,0,L|136:154,1,55.0000016784668,10|2,0:0|0:0,0:0:0:0:
169,168,120500,1,2,3:0:0:0:
275,193,120900,2,0,P|285:156|273:133,1,55.0000016784668,2|6,0:0|3:0,0:0:0:0:
245,98,121300,2,0,L|374:91,1,110.000003356934,6|10,3:0|0:0,0:0:0:0:
429,10,122100,1,6,3:0:0:0:
483,105,122500,6,0,B|514:64|514:64|512:2,2,110.000003356934,6|6|10,3:0|3:0|0:0,0:0:0:0:
392,244,123900,1,0,0:0:0:0:
392,244,124100,2,0,L|385:301,1,55.0000016784668,2|6,0:0|3:0,0:0:0:0:
386,341,124500,2,0,P|332:359|277:320,1,110.000003356934,6|10,3:0|0:0,0:0:0:0:
242,235,125300,1,10,3:0:0:0:
333,163,125700,6,0,P|354:112|324:60,2,110.000003356934,6|6|10,3:0|3:0|0:0,0:0:0:0:
235,36,127100,1,0,0:0:0:0:
235,36,127300,2,0,L|110:45,1,110.000003356934,2|2,0:0|0:0,0:0:0:0:
43,361,128900,6,0,B|13:368|13:368|-16:353,2,50,6|0|0,3:0|0:0|0:0,0:0:0:0:
90,331,129500,1,0,3:0:0:0:
90,331,129700,2,0,L|202:344,1,100,8|6,0:0|3:0,0:0:0:0:
297,319,130500,2,0,P|303:351|287:379,2,50,2|4|0,0:0|3:0|0:0,0:0:0:0:
224,236,131300,2,0,P|215:206|230:179,1,50,8|0,0:0|0:0,0:0:0:0:
255,145,131700,2,0,L|360:164,1,100,0|6,3:0|3:0,0:0:0:0:
370,271,132500,6,0,L|475:252,1,100,0|8,0:0|0:0,0:0:0:0:
498,147,133300,1,2,3:0:0:0:
420,69,133700,2,0,L|370:59,1,50,2|2,0:0|3:0,0:0:0:0:
325,28,134100,2,0,L|275:38,1,50,2|2,3:0|0:0,0:0:0:0:
236,76,134500,2,0,L|120:60,1,100,10|0,0:0|3:0,0:0:0:0:
26,56,135300,6,0,P|14:26|27:-3,2,50,6|0|0,3:0|0:0|0:0,0:0:0:0:
59,99,135900,1,0,3:0:0:0:
59,99,136100,2,0,L|47:205,1,100,8|6,0:0|3:0,0:0:0:0:
56,308,136900,2,0,P|27:306|11:289,2,50,2|4|8,3:0|3:0|0:0,0:0:0:0:
159,271,137700,2,0,L|258:289,1,100,8|0,0:0|3:0,0:0:0:0:
313,310,138300,1,8,0:0:0:0:
313,310,138500,6,0,P|341:266|325:216,1,100,6|10,3:0|0:0,0:0:0:0:
293,188,139100,1,0,0:0:0:0:
293,188,139300,1,8,0:0:0:0:
214,111,139700,1,2,3:0:0:0:
290,31,140100,2,0,L|344:44,1,50,2|2,0:0|0:0,0:0:0:0:
380,78,140500,2,0,L|428:66,1,50,2|2,0:0|0:0,0:0:0:0:
477,40,140900,2,0,L|464:148,1,100,2|0,0:0|0:0,0:0:0:0:
256,192,141700,12,0,144300,0:0:0:0:
34,59,144900,6,0,P|82:44|135:64,1,100,6|0,3:0|0:0,0:0:0:0:
195,145,145700,2,0,L|249:133,1,50,10|0,0:0|0:0,0:0:0:0:
290,104,146100,2,0,L|409:124,1,100,6|0,3:0|0:0,0:0:0:0:
445,139,146700,1,0,3:0:0:0:
445,139,146900,2,0,P|467:179|439:232,1,100,2|10,0:0|0:0,0:0:0:0:
373,308,147700,1,0,3:0:0:0:
277,253,148100,6,0,B|224:236|224:236|170:250,1,100,6|0,3:0|0:0,0:0:0:0:
139,282,148700,2,0,B|96:293|96:293|43:276,1,100,4|0,3:0|0:0,0:0:0:0:
12,230,149300,1,4,3:0:0:0:
158,151,149900,1,0,3:0:0:0:
158,151,150100,2,0,L|154:40,1,100,2|10,0:0|0:0,0:0:0:0:
149,6,150700,1,0,0:0:0:0:
149,6,150900,1,0,3:0:0:0:
245,58,151300,6,0,B|298:76|298:76|359:54,1,100,6|0,3:0|0:0,0:0:0:0:
438,11,152100,2,0,L|453:66,1,50,8|0,0:0|0:0,0:0:0:0:
491,96,152500,2,0,L|484:203,1,100,4|2,3:0|0:0,0:0:0:0:
483,254,153100,1,0,3:0:0:0:
483,254,153300,2,0,P|432:261|382:233,1,100,2|10,0:0|0:0,0:0:0:0:
301,174,154100,1,0,3:0:0:0:
200,218,154500,6,0,L|209:338,1,100,6|0,3:0|0:0,0:0:0:0:
208,376,155100,1,6,3:0:0:0:
208,376,155300,2,0,L|157:372,1,50,8|0,0:0|0:0,0:0:0:0:
104,360,155700,1,4,3:0:0:0:
35,273,156100,6,0,B|2:226|2:226|29:169,1,100,2|2,0:0|0:0,0:0:0:0:
53,144,156700,1,2,0:0:0:0:
53,144,156900,1,10,0:0:0:0:
87,39,157300,1,0,3:0:0:0:
195,21,157700,6,0,P|250:24|275:71,1,100,6|0,3:0|0:0,0:0:0:0:
275,168,158500,2,0,P|317:180|356:163,1,66.6666666666667,10|2,0:0|0:0,0:0:0:0:
363,148,158900,2,0,P|395:142|429:155,1,66.6666666666667,2|2,3:2|0:0,0:0:0:0:
452,179,159300,2,0,P|441:242|425:308,1,100,2|2,3:2|3:2,0:0:0:0:
415,332,159900,1,0,0:0:0:0:
415,332,160100,1,10,3:0:0:0:
314,377,160500,1,0,3:0:0:0:
232,303,160900,6,0,P|169:313|127:321,1,100,6|0,3:0|0:0,0:0:0:0:
28,354,161700,2,0,P|14:313|33:277,1,66.6666666666667,10|2,0:0|0:0,0:0:0:0:
48,267,162100,2,0,P|61:237|55:205,1,66.6666666666667,2|2,3:2|0:0,0:0:0:0:
32,175,162500,2,0,P|14:133|43:79,1,100,2|2,3:2|3:2,0:0:0:0:
82,56,163100,1,0,0:0:0:0:
82,56,163300,1,10,3:0:0:0:
178,3,163700,2,0,P|208:6|236:19,1,50,2|2,3:2|0:0,0:0:0:0:
267,50,164100,6,0,P|258:107|246:164,1,100,6|0,3:0|0:0,0:0:0:0:
234,257,164900,2,0,P|192:247|160:241,1,66.6666666666667,10|2,0:0|0:0,0:0:0:0:
148,211,165300,2,0,P|106:221|74:227,1,66.6666666666667,2|2,3:2|0:0,0:0:0:0:
48,238,165700,2,0,L|58:345,1,100,2|2,3:2|0:0,0:0:0:0:
94,384,166300,1,2,0:0:0:0:
94,384,166500,1,10,3:0:0:0:
193,336,166900,2,0,L|245:347,1,50,2|2,3:2|0:0,0:0:0:0:
291,371,167300,6,0,L|389:352,1,100,6|0,3:0|0:0,0:0:0:0:
480,290,168100,2,0,B|493:256|493:256|480:217,1,66.6666666666667,10|2,0:0|0:0,0:0:0:0:
450,211,168500,2,0,B|437:177|437:177|450:138,1,66.6666666666667,2|2,3:2|0:0,0:0:0:0:
466,117,168900,2,0,L|350:98,1,100,2|2,3:2|3:2,0:0:0:0:
317,93,169500,1,0,0:0:0:0:
317,93,169700,2,0,P|300:51|312:18,2,75,2|2|2,0:0|0:0|0:0,0:0:0:0:
26,13,172100,6,0,B|1:66|1:66|28:125,1,110.000003356934,6|2,3:0|0:0,0:0:0:0:
64,156,172700,1,2,0:0:0:0:
64,156,172900,2,0,P|77:193|72:227,1,55.0000016784668,10|2,0:0|0:0,0:0:0:0:
50,256,173300,1,2,3:0:0:0:
115,340,173700,2,0,P|143:345|185:353,1,55.0000016784668,2|6,0:0|3:0,0:0:0:0:
219,328,174100,2,0,P|275:328|349:320,1,110.000003356934,6|10,3:0|0:0,0:0:0:0:
422,380,174900,1,10,3:0:0:0:
493,296,175300,6,0,B|513:246|513:246|489:179,1,110.000003356934,6|0,3:0|0:0,0:0:0:0:
447,175,175900,1,2,0:0:0:0:
447,175,176100,2,0,L|459:113,1,55.0000016784668,10|2,0:0|0:0,0:0:0:0:
483,72,176500,1,2,3:0:0:0:
381,29,176900,2,0,P|350:15|310:16,1,55.0000016784668,2|6,0:0|3:0,0:0:0:0:
282,42,177300,2,0,P|288:94|296:157,1,110.000003356934,6|10,3:0|0:0,0:0:0:0:
348,247,178100,1,6,3:0:0:0:
253,303,178500,6,0,B|197:337|141:291,2,110.000003356934,10|10|10,3:0|3:0|0:0,0:0:0:0:
414,356,179900,1,0,0:0:0:0:
414,356,180100,2,0,L|423:293,1,55.0000016784668,2|6,0:0|3:0,0:0:0:0:
467,270,180500,2,0,P|461:217|454:148,1,110.000003356934,6|10,3:0|0:0,0:0:0:0:
362,101,181300,1,10,3:0:0:0:
404,18,181700,6,0,B|454:4|454:4|512:26,2,110.000003356934,6|6|10,3:0|3:0|0:0,0:0:0:0:
242,20,183100,1,0,0:0:0:0:
242,20,183300,2,0,P|209:11|173:21,1,55.0000016784668,2|6,0:0|3:0,0:0:0:0:
157,59,183700,2,0,L|34:47,1,110.000003356934,6|8,3:0|0:0,0:0:0:0:
8,140,184500,1,10,3:0:0:0:
117,154,184900,6,0,P|132:210|95:257,1,110.000003356934,6|2,3:0|0:0,0:0:0:0:
57,273,185500,1,2,0:0:0:0:
57,273,185700,2,0,L|65:345,1,55.0000016784668,10|2,0:0|0:0,0:0:0:0:
95,372,186100,1,2,3:0:0:0:
202,347,186500,2,0,L|278:341,1,55.0000016784668,2|6,0:0|3:0,0:0:0:0:
293,301,186900,2,0,P|346:309|414:322,1,110.000003356934,6|10,3:0|0:0,0:0:0:0:
480,242,187700,1,10,3:0:0:0:
383,188,188100,6,0,B|361:139|361:139|385:85,1,110.000003356934,6|2,3:0|0:0,0:0:0:0:
397,37,188700,1,2,0:0:0:0:
397,37,188900,2,0,L|469:47,1,55.0000016784668,10|2,0:0|0:0,0:0:0:0:
505,56,189300,1,2,3:0:0:0:
498,165,189700,2,0,P|508:202|499:228,1,55.0000016784668,2|6,0:0|3:0,0:0:0:0:
460,250,190100,2,0,L|469:368,1,110.000003356934,6|10,3:0|0:0,0:0:0:0:
360,382,190900,1,6,3:0:0:0:
285,300,191300,6,0,B|231:282|231:282|171:306,2,110.000003356934,6|6|10,3:0|3:0|0:0,0:0:0:0:
397,172,192700,1,0,0:0:0:0:
397,172,192900,2,0,L|388:113,1,55.0000016784668,10|6,0:0|3:0,0:0:0:0:
369,65,193300,2,0,P|317:50|259:70,1,110.000003356934,6|10,3:0|0:0,0:0:0:0:
197,154,194100,1,8,3:0:0:0:
88,174,194500,6,0,P|64:124|92:68,2,110.000003356934,6|6|10,3:0|3:0|0:0,0:0:0:0:
196,305,195900,1,0,0:0:0:0:
196,305,196100,2,0,L|322:294,1,110.000003356934,10|2,0:0|0:0,0:0:0:0:
