osu file format v14

[General]
AudioFilename: audio.mp3
AudioLeadIn: 0
PreviewTime: 51793
Countdown: 0
SampleSet: Soft
StackLeniency: 0.7
Mode: 0
LetterboxInBreaks: 0
WidescreenStoryboard: 1

[Editor]
Bookmarks: 16993,20193,23300,26500,29700,36100,42500,45700,48900,54500,55300,57700,61700,64900,67300,68100,70500,87300,90500,96900,100100,105700,106500,108900,112900,116100,118500,121700,135300,138500,144900,154500,157700,172100,173900,177100,181700,184900,188100,189900,194500
DistanceSpacing: 1.3
BeatDivisor: 4
GridSize: 32
TimelineZoom: 2.3

[Metadata]
Title:LALISA
TitleUnicode:LALISA
Artist:LISA
ArtistUnicode:LISA
Creator:Nymphe
Version:Eli's Hard
Source:
Tags:pop kpop english en korean kr blackpink rap hip hop female vocal reform kujinn kiyoshi guarden manoban 블랙핑크 리사 k-pop eli [_eli_] elinor -kemsyt solo album
BeatmapID:3214737
BeatmapSetID:1573933

[Difficulty]
HPDrainRate:4.5
CircleSize:4
OverallDifficulty:7
ApproachRate:7.5
SliderMultiplier:1.5
SliderTickRate:1

[Events]
//Background and Video events
0,0,"lisa.png",0,0
//Break Periods
//Storyboard Layer 0 (Background)
//Storyboard Layer 1 (Fail)
//Storyboard Layer 2 (Pass)
//Storyboard Layer 3 (Foreground)
//Storyboard Layer 4 (Overlay)
//Storyboard Sound Samples

[TimingPoints]
900,400.000000000001,4,2,1,40,1,0
13300,-166.666666666667,4,2,1,40,0,0
13600,-166.666666666667,4,2,1,5,0,0
13700,-100,4,2,1,65,0,0
26500,-125,4,2,1,50,0,0
45700,-111.111111111111,4,2,1,50,0,0
50000,-111.111111111111,4,2,1,5,0,0
50100,-111.111111111111,4,2,1,50,0,0
50400,-111.111111111111,4,2,1,5,0,0
50500,-111.111111111111,4,2,1,50,0,0
51700,-166.666666666666,4,2,1,50,0,0
52000,-166.666666666666,4,2,1,5,0,0
52100,-90.9090909090909,4,2,1,80,0,1
54800,-90.9090909090909,4,2,1,5,0,1
54900,-90.9090909090909,4,2,1,80,0,1
58000,-90.9090909090909,4,2,1,5,0,1
58100,-90.9090909090909,4,2,1,80,0,1
58800,-90.9090909090909,4,2,1,5,0,1
58900,-90.9090909090909,4,2,1,80,0,1
59200,-90.9090909090909,4,2,1,5,0,1
59300,-90.9090909090909,4,2,1,80,0,1
62000,-90.9090909090909,4,2,1,5,0,1
62100,-90.9090909090909,4,2,1,80,0,1
62400,-90.9090909090909,4,2,1,5,0,1
62500,-90.9090909090909,4,2,1,80,0,1
64000,-90.9090909090909,4,2,1,5,0,1
64100,-90.9090909090909,4,2,1,80,0,1
64400,-90.9090909090909,4,2,1,5,0,1
64500,-90.9090909090909,4,2,1,80,0,0
64900,-90.9090909090909,4,2,1,80,0,1
67600,-90.9090909090909,4,2,1,5,0,1
67700,-90.9090909090909,4,2,1,80,0,1
70800,-90.9090909090909,4,2,1,5,0,1
70900,-90.9090909090909,4,2,1,80,0,1
71600,-90.9090909090909,4,2,1,5,0,1
71700,-90.9090909090909,4,2,1,80,0,1
72000,-90.9090909090909,4,2,1,5,0,1
72100,-90.9090909090909,4,2,1,80,0,1
76100,-90.9090909090909,4,2,1,60,0,0
76400,-90.9090909090909,4,2,1,5,0,0
76500,-100,4,2,1,60,0,0
77300,-166.666666666667,4,2,1,50,0,0
77600,-166.666666666667,4,2,1,5,0,0
77700,-125,4,2,1,50,0,0
80800,-125,4,2,1,5,0,0
80900,-125,4,2,1,50,0,0
84000,-125,4,2,1,5,0,0
84100,-125,4,2,1,50,0,0
90500,-111.111111111111,4,2,1,50,0,0
93800,-111.111111111111,4,2,1,5,0,0
93900,-111.111111111111,4,2,1,50,0,0
94000,-111.111111111111,4,2,1,5,0,0
94100,-111.111111111111,4,2,1,50,0,0
101200,-111.111111111111,4,2,1,5,0,0
101300,-111.111111111111,4,2,1,50,0,0
101600,-111.111111111111,4,2,1,5,0,0
101700,-111.111111111111,4,2,1,50,0,0
102900,-166.666666666666,4,2,1,50,0,0
103200,-166.666666666666,4,2,1,5,0,0
103300,-90.9090909090909,4,2,1,80,0,1
106000,-90.9090909090909,4,2,1,5,0,1
106100,-90.9090909090909,4,2,1,80,0,1
109200,-90.9090909090909,4,2,1,5,0,1
109300,-90.9090909090909,4,2,1,80,0,1
110000,-90.9090909090909,4,2,1,5,0,1
110100,-90.9090909090909,4,2,1,80,0,1
110400,-90.9090909090909,4,2,1,5,0,1
110500,-90.9090909090909,4,2,1,80,0,1
115200,-90.9090909090909,4,2,1,5,0,1
115300,-90.9090909090909,4,2,1,80,0,1
115600,-90.9090909090909,4,2,1,5,0,1
115700,-90.9090909090909,4,2,1,80,0,0
116100,-90.9090909090909,4,2,1,80,0,1
118800,-90.9090909090909,4,2,1,5,0,1
118900,-90.9090909090909,4,2,1,80,0,1
122000,-90.9090909090909,4,2,1,5,0,1
122100,-90.9090909090909,4,2,1,80,0,1
122800,-90.9090909090909,4,2,1,5,0,1
122900,-90.9090909090909,4,2,1,80,0,1
123200,-90.9090909090909,4,2,1,5,0,1
123300,-90.9090909090909,4,2,1,80,0,1
126000,-90.9090909090909,4,2,1,5,0,1
126100,-90.9090909090909,4,2,1,80,0,1
126400,-90.9090909090909,4,2,1,5,0,1
126500,-90.9090909090909,4,2,1,80,0,0
127600,-90.9090909090909,4,2,1,5,0,0
127700,-100,4,2,1,50,0,0
128900,-125,4,2,1,70,0,0
132400,-125,4,2,1,5,0,0
132500,-125,4,2,1,70,0,0
141200,-125,4,2,1,5,0,0
144500,-125,4,2,1,70,0,0
144900,-111.111111111111,4,2,1,80,0,0
154800,-111.111111111111,4,2,1,5,0,0
154900,-111.111111111111,4,2,1,80,0,0
155200,-111.111111111111,4,2,1,5,0,0
155300,-111.111111111111,4,2,1,80,0,0
156600,-111.111111111111,4,2,1,5,0,0
156700,-111.111111111111,4,2,1,80,0,0
171700,-166.666666666666,4,2,1,80,0,0
172000,-166.666666666666,4,2,1,5,0,0
172100,-90.9090909090909,4,2,1,80,0,1
174400,-90.9090909090909,4,2,1,5,0,1
174500,-90.9090909090909,4,2,1,80,0,1
174800,-90.9090909090909,4,2,1,5,0,1
174900,-90.9090909090909,4,2,1,80,0,1
177600,-90.9090909090909,4,2,1,5,0,1
177700,-90.9090909090909,4,2,1,80,0,1
178800,-90.9090909090909,4,2,1,5,0,1
178900,-90.9090909090909,4,2,1,80,0,1
179200,-90.9090909090909,4,2,1,5,0,1
179300,-90.9090909090909,4,2,1,80,0,1
182000,-90.9090909090909,4,2,1,5,0,1
182100,-90.9090909090909,4,2,1,80,0,1
182400,-90.9090909090909,4,2,1,5,0,1
182500,-90.9090909090909,4,2,1,80,0,1
184000,-90.9090909090909,4,2,1,5,0,1
184100,-90.9090909090909,4,2,1,80,0,1
184400,-90.9090909090909,4,2,1,5,0,1
184500,-90.9090909090909,4,2,1,80,0,0
184900,-90.9090909090909,4,2,1,80,0,1
187200,-90.9090909090909,4,2,1,5,0,1
187300,-90.9090909090909,4,2,1,80,0,1
187600,-90.9090909090909,4,2,1,5,0,1
187700,-90.9090909090909,4,2,1,80,0,1
190400,-90.9090909090909,4,2,1,5,0,1
190500,-90.9090909090909,4,2,1,80,0,1
191600,-90.9090909090909,4,2,1,5,0,1
191700,-90.9090909090909,4,2,1,80,0,1
192000,-90.9090909090909,4,2,1,5,0,1
192100,-90.9090909090909,4,2,1,80,0,1
194800,-90.9090909090909,4,2,1,5,0,1
194900,-90.9090909090909,4,2,1,80,0,1
195200,-90.9090909090909,4,2,1,5,0,1
195300,-90.9090909090909,4,2,1,80,0,1
196100,-90.9090909090909,4,2,1,50,0,0
196400,-90.9090909090909,4,2,1,5,0,0
196500,-100,4,2,1,50,0,0

[Colours]
Combo1 : 235,148,148
Combo2 : 162,106,223
Combo3 : 236,140,234
Combo4 : 177,114,141

[HitObjects]
256,192,7300,12,2,12100,2:0:0:0:
40,144,13300,6,0,P|16:116|16:84,1,67.4999979400635,2|0,2:0|2:0,0:0:0:0:
40,40,13700,6,0,B|116:20|104:96|176:80,1,150,6|2,3:0|2:0,0:0:0:0:
260,40,14300,1,2,2:0:0:0:
352,12,14500,2,0,L|428:32,1,75,10|0,2:0|0:0,0:0:0:0:
496,100,14900,2,0,L|472:176,1,75,2|0,3:0|0:0,0:0:0:0:
400,232,15300,5,2,2:0:0:0:
472,300,15500,1,6,3:0:0:0:
472,300,15700,1,6,3:0:0:0:
284,360,16100,2,0,P|200:360|168:308,1,150,8|4,2:0|3:0,0:0:0:0:
164,212,16700,1,8,3:0:0:0:
288,144,16900,6,0,B|364:128|352:208|424:196,1,150,6|2,3:0|2:0,0:0:0:0:
504,148,17500,1,2,2:0:0:0:
508,52,17700,2,0,P|480:28|444:28,1,75,8|0,2:0|0:0,0:0:0:0:
356,72,18100,5,2,3:0:0:0:
356,72,18300,1,2,2:0:0:0:
404,156,18500,1,2,2:0:0:0:
308,324,18900,5,6,3:0:0:0:
308,324,19100,1,0,0:0:0:0:
260,240,19300,1,10,2:0:0:0:
96,348,19700,6,0,P|60:348|32:320,1,75,6|0,3:0|0:0,0:0:0:0:
12,184,20100,6,0,P|12:108|64:60,1,150,6|2,3:0|2:0,0:0:0:0:
160,40,20700,1,2,2:0:0:0:
256,40,20900,2,0,L|328:60,1,75,10|0,2:0|0:0,0:0:0:0:
376,144,21300,2,0,L|304:164,1,75,2|0,3:0|0:0,0:0:0:0:
240,236,21700,5,2,2:0:0:0:
272,328,21900,1,6,3:0:0:0:
272,328,22100,1,6,3:0:0:0:
464,352,22500,2,0,B|488:288|408:288|428:216,1,150,8|4,2:0|3:0,0:0:0:0:
488,140,23100,1,8,3:0:0:0:
428,12,23300,6,0,L|280:44,1,150,6|2,3:0|2:0,0:0:0:0:
184,64,23900,1,2,2:0:0:0:
144,152,24100,2,0,P|144:192|164:220,1,75,8|0,2:0|0:0,0:0:0:0:
240,280,24500,5,2,3:0:0:0:
240,280,24700,1,2,2:0:0:0:
336,260,24900,1,2,2:0:0:0:
448,100,25300,5,6,3:0:0:0:
448,100,25500,1,0,0:0:0:0:
352,120,25700,1,10,2:0:0:0:
176,36,26100,2,0,L|100:52,1,75,4|2,3:0|2:0,0:0:0:0:
32,152,26500,5,6,3:0:0:0:
112,284,26900,2,0,B|168:272|168:336|220:328,2,120,2|10|2,2:0|2:0|3:0,0:0:0:0:
240,196,28100,6,0,L|356:228,1,120,0|6,2:0|3:0,0:0:0:0:
432,252,28700,1,2,2:0:0:0:
432,252,28900,2,0,P|448:232|448:196,1,60,10|0,2:0|0:0,0:0:0:0:
408,132,29300,2,0,P|400:108|408:76,1,60,10|0,3:0|0:0,0:0:0:0:
512,8,29700,5,6,3:0:0:0:
356,8,30100,2,0,L|240:40,2,120,2|10|2,2:0|2:0|3:0,0:0:0:0:
292,152,31300,2,0,P|232:152|188:112,1,120,2|6,2:0|3:0,0:0:0:0:
144,48,31900,1,2,2:0:0:0:
144,48,32100,2,0,L|80:60,1,60,10|2,2:0|3:0,0:0:0:0:
44,124,32500,1,10,3:0:0:0:
44,280,32900,6,0,P|44:312|60:336,1,60,6|0,3:0|0:0,0:0:0:0:
132,364,33300,2,0,B|224:364|188:276|276:276,1,180,2|0,2:0|0:0,0:0:0:0:
320,212,34100,6,0,B|408:212|372:300|464:300,1,180,2|6,3:0|3:0,0:0:0:0:
512,236,34900,1,6,3:0:0:0:
388,140,35300,1,8,2:0:0:0:
492,24,35700,2,0,L|432:8,1,60,8|8,3:0|3:0,0:0:0:0:
312,8,36100,6,0,L|235:27,1,80,6|2,3:0|2:0,0:0:0:0:
204,69,36500,2,0,L|224:146,1,80,2|2,2:0|2:0,0:0:0:0:
265,178,36900,1,10,2:0:0:0:
236,336,37300,2,0,P|204:359|160:359,1,80,2|0,3:0|0:0,0:0:0:0:
121,331,37700,6,0,L|100:253,1,80,2|0,2:0|0:0,0:0:0:0:
118,204,38100,1,6,3:0:0:0:
192,52,38500,2,0,L|252:36,1,60,10|0,2:0|0:0,0:0:0:0:
328,52,38900,2,0,L|344:112,1,60,10|0,3:0|0:0,0:0:0:0:
368,184,39300,5,6,3:0:0:0:
304,328,39700,2,0,P|248:352|196:324,2,120,2|10|2,2:0|2:0|3:0,0:0:0:0:
352,268,40700,5,2,2:0:0:0:
352,268,40900,2,0,B|408:260|408:320|460:312,1,120,2|6,2:0|3:0,0:0:0:0:
508,252,41500,1,0,0:0:0:0:
396,144,41900,2,0,L|336:160,2,60,0|10|10,0:0|3:0|3:0,0:0:0:0:
492,68,42500,6,0,P|464:28|396:28,1,120,6|2,3:0|2:0,0:0:0:0:
332,72,43100,1,2,2:0:0:0:
360,224,43500,2,0,L|417:208,2,60,0|2|2,2:0|3:0|2:0,0:0:0:0:
300,272,44100,6,0,L|184:240,1,120,2|6,2:0|3:0,0:0:0:0:
128,292,44700,1,0,0:0:0:0:
44,160,45100,2,0,L|28:100,2,60,2|10|2,3:0|3:0|2:0,0:0:0:0:
168,168,45700,6,0,B|236:148|232:220|292:204,1,134.999995880127,2|10,3:2|2:0,0:0:0:0:
372,176,46300,1,2,2:0:0:0:
372,176,46500,2,0,L|360:108,1,67.4999979400635,10|0,2:0|0:0,0:0:0:0:
348,24,46900,2,0,L|276:36,1,67.4999979400635,2|0,3:2|2:0,0:0:0:0:
212,88,47300,6,0,L|148:68,1,67.4999979400635,2|0,2:0|0:0,0:0:0:0:
64,48,47700,1,10,2:0:0:0:
64,48,47900,1,2,2:0:0:0:
20,124,48100,2,0,P|-4:180|24:244,1,134.999995880127,10|2,2:0|3:2,0:0:0:0:
136,292,48700,5,10,2:0:0:0:
136,292,48900,2,0,L|204:276,1,67.4999979400635,2|2,3:2|2:0,0:0:0:0:
252,204,49300,2,0,L|317:219,1,67.4999979400635,10|2,2:0|2:0,0:0:0:0:
400,248,49700,2,0,P|428:272|428:336,1,101.249996910095,10|0,2:0|2:0,0:0:0:0:
392,352,50100,2,0,B|348:340|348:388|296:376,1,101.249996910095,2|0,3:2|2:0,0:0:0:0:
264,348,50500,5,2,2:0:0:0:
56,344,51700,2,0,L|40:276,1,67.4999979400635,2|0,2:0|2:0,0:0:0:0:
36,228,52100,6,0,P|68:200|108:200,1,82.5000025177002,6|0,3:0|0:0,0:0:0:0:
184,272,52500,2,0,P|216:300|256:300,1,82.5000025177002,2|2,2:0|2:0,0:0:0:0:
348,248,52900,1,10,2:0:0:0:
348,248,53100,1,2,2:0:0:0:
424,172,53300,2,0,L|412:88,1,82.5000025177002,2|0,3:0|0:0,0:0:0:0:
340,12,53700,6,0,L|256:24,1,82.5000025177002,2|6,2:0|3:0,0:0:0:0:
168,80,54100,1,6,3:0:0:0:
168,80,54300,1,0,0:0:0:0:
248,192,54500,2,0,B|232:252|296:252|272:308,1,123.75000377655,10|0,2:0|2:0,0:0:0:0:
240,352,54900,1,10,3:0:0:0:
240,352,55100,1,6,3:0:0:0:
100,360,55300,6,0,P|60:360|32:328,1,82.5000025177002,6|0,3:0|0:0,0:0:0:0:
32,224,55700,2,0,P|59:194|99:194,1,82.5000025177002,2|2,2:0|2:0,0:0:0:0:
196,240,56100,1,10,2:0:0:0:
196,240,56300,1,2,2:0:0:0:
272,316,56500,2,0,L|352:296,1,82.5000025177002,2|0,3:0|0:0,0:0:0:0:
432,224,56900,6,0,L|352:204,1,82.5000025177002,2|6,2:0|3:0,0:0:0:0:
248,176,57300,1,6,3:0:0:0:
248,176,57500,1,0,0:0:0:0:
240,36,57700,2,0,P|268:4|344:4,1,123.75000377655,8|0,2:0|2:0,0:0:0:0:
392,32,58100,1,6,3:0:0:0:
476,228,58500,6,0,B|492:288|428:288|452:344,1,123.75000377655,10|0,3:0|2:0,0:0:0:0:
404,368,58900,2,0,B|349:391|349:327|289:343,1,123.75000377655,10|0,3:0|2:0,0:0:0:0:
236,352,59300,2,0,L|152:368,1,82.5000025177002,10|0,2:0|0:0,0:0:0:0:
68,304,59700,1,0,2:0:0:0:
68,304,59900,1,0,2:0:0:0:
88,200,60100,6,0,P|116:172|160:172,1,82.5000025177002,2|6,2:0|3:0,0:0:0:0:
240,236,60500,1,6,3:0:0:0:
448,184,60900,2,0,L|464:100,1,82.5000025177002,10|0,2:0|0:0,0:0:0:0:
400,16,61300,1,10,3:0:0:0:
400,16,61500,1,6,3:0:0:0:
260,0,61700,6,0,B|200:-16|200:48|145:24,1,123.75000377655,6|0,3:0|2:0,0:0:0:0:
96,48,62100,2,0,B|80:108|144:108|120:162,1,123.75000377655,6|0,3:0|2:0,0:0:0:0:
84,204,62500,2,0,P|68:240|80:280,1,82.5000025177002,10|0,2:0|0:0,0:0:0:0:
152,360,62900,1,0,2:0:0:0:
152,360,63100,1,0,2:0:0:0:
260,360,63300,6,0,L|344:340,1,82.5000025177002,2|6,2:0|3:0,0:0:0:0:
444,316,63700,2,0,P|472:272|448:204,1,123.75000377655,6|0,3:0|2:0,0:0:0:0:
400,192,64100,2,0,P|372:148|396:80,1,123.75000377655,8|0,2:0|2:0,0:0:0:0:
428,52,64500,1,10,3:0:0:0:
428,52,64700,1,6,3:0:0:0:
296,0,64900,6,0,L|216:20,1,82.5000025177002,6|0,3:0|0:0,0:0:0:0:
140,96,65300,2,0,L|160:176,1,82.5000025177002,2|2,2:0|2:0,0:0:0:0:
252,232,65700,1,10,2:0:0:0:
252,232,65900,1,2,2:0:0:0:
232,336,66100,2,0,P|204:364|160:364,1,82.5000025177002,2|0,3:0|0:0,0:0:0:0:
60,340,66500,6,0,P|36:312|36:268,1,82.5000025177002,2|6,2:0|3:0,0:0:0:0:
84,172,66900,1,6,3:0:0:0:
84,172,67100,1,0,0:0:0:0:
228,168,67300,2,0,B|292:168|272:228|328:228,1,123.75000377655,10|0,2:0|2:0,0:0:0:0:
380,216,67700,1,10,3:0:0:0:
380,216,67900,1,6,3:0:0:0:
504,148,68100,6,0,L|488:68,1,82.5000025177002,6|0,3:0|0:0,0:0:0:0:
416,0,68500,2,0,L|336:16,1,82.5000025177002,2|2,2:0|2:0,0:0:0:0:
272,100,68900,1,10,2:0:0:0:
272,100,69100,1,2,2:0:0:0:
188,32,69300,2,0,P|144:32|116:60,1,82.5000025177002,2|0,3:0|0:0,0:0:0:0:
56,144,69700,6,0,P|56:188|80:216,1,82.5000025177002,2|6,2:0|3:0,0:0:0:0:
168,272,70100,1,6,3:0:0:0:
168,272,70300,1,0,0:0:0:0:
260,164,70500,2,0,L|384:188,1,123.75000377655,10|0,2:0|2:0,0:0:0:0:
436,200,70900,1,6,3:0:0:0:
256,316,71300,6,0,B|192:316|212:376|156:376,1,123.75000377655,6|0,3:0|2:0,0:0:0:0:
104,356,71700,2,0,B|104:300|44:320|44:256,1,123.75000377655,6|0,3:0|2:0,0:0:0:0:
56,204,72100,2,0,P|76:172|76:128,1,82.5000025177002,10|0,2:0|0:0,0:0:0:0:
20,36,72500,1,0,2:0:0:0:
20,36,72700,1,0,2:0:0:0:
124,8,72900,6,0,L|208:24,1,82.5000025177002,2|6,2:0|3:0,0:0:0:0:
276,104,73300,1,6,3:0:0:0:
476,24,73700,2,0,P|500:60|500:100,1,82.5000025177002,10|0,2:0|0:0,0:0:0:0:
456,196,74100,1,10,3:0:0:0:
456,196,74300,1,6,3:0:0:0:
380,272,74500,6,0,B|324:272|344:212|280:212,1,123.75000377655,6|0,3:0|2:0,0:0:0:0:
236,180,74900,2,0,B|172:180|192:240|136:240,1,123.75000377655,4|0,3:0|2:0,0:0:0:0:
84,256,75300,2,0,L|96:344,1,82.5000025177002,10|0,2:0|0:0,0:0:0:0:
196,376,75700,1,0,2:0:0:0:
196,376,75900,1,0,2:0:0:0:
304,368,76100,6,0,P|360:368|396:312,1,123.75000377655,2|0,2:0|2:0,0:0:0:0:
396,268,76500,1,2,2:0:0:0:
76,44,77300,2,0,P|68:76|80:112,1,67.4999979400635,12|0,3:0|2:0,0:0:0:0:
104,136,77700,6,0,L|168:124,1,60,6|0,3:0|2:0,0:0:0:0:
228,168,78100,2,0,L|239:226,1,60,2|0,2:0|2:0,0:0:0:0:
196,292,78500,2,0,L|137:303,2,60,10|0|2,2:0|2:0|3:0,0:0:0:0:
340,348,79300,6,0,P|376:348|396:336,1,60,2|6,2:0|3:0,0:0:0:0:
440,272,79700,1,6,3:0:0:0:
320,172,80100,1,10,2:0:0:0:
320,172,80300,2,0,B|300:100|384:100|352:32,1,150,0|0,2:0|2:0,0:0:0:0:
324,8,80900,6,0,L|264:24,1,60,6|0,3:0|2:0,0:0:0:0:
204,72,81300,2,0,L|144:56,1,60,2|0,2:0|2:0,0:0:0:0:
72,80,81700,2,0,P|44:132|68:188,1,120,10|2,2:0|3:0,0:0:0:0:
128,328,82500,6,0,L|188:312,1,60,2|6,2:0|3:0,0:0:0:0:
248,264,82900,1,6,3:0:0:0:
384,344,83300,1,10,2:0:0:0:
384,344,83500,2,0,P|444:344|476:268,1,150,6|0,3:0|2:0,0:0:0:0:
468,232,84100,6,0,L|408:220,2,60,6|2|2,3:0|2:0|2:0,0:0:0:0:
496,160,84700,1,2,2:0:0:0:
496,160,84900,2,0,L|376:136,1,120,10|0,2:0|3:0,0:0:0:0:
304,120,85500,2,0,L|292:188,2,60,2|2|6,2:0|2:0|3:0,0:0:0:0:
320,44,86100,1,6,3:0:0:0:
172,0,86500,2,0,B|116:0|132:56|72:56,1,120,10|4,2:0|3:0,0:0:0:0:
0,152,87100,5,10,3:0:0:0:
0,152,87300,2,0,L|12:212,1,60,6|2,3:0|2:0,0:0:0:0:
76,256,87700,2,0,L|64:320,1,60,2|2,2:0|2:0,0:0:0:0:
116,372,88100,2,0,B|172:372|156:316|216:316,1,120,10|2,2:0|3:0,0:0:0:0:
292,296,88700,6,0,L|352:316,1,60,2|2,2:0|2:0,0:0:0:0:
408,264,89100,2,0,L|472:248,2,60,6|6|0,3:0|3:0|2:0,0:0:0:0:
356,208,89700,2,0,P|356:152|404:116,1,120,10|6,2:0|3:0,0:0:0:0:
480,92,90300,1,2,2:0:0:0:
396,4,90500,6,0,L|328:20,1,67.4999979400635,0|10,3:0|2:0,0:0:0:0:
312,32,90800,1,2,2:0:0:0:
296,40,90900,2,0,L|230:24,1,67.4999979400635,10|2,2:0|2:0,0:0:0:0:
144,40,91300,2,0,L|128:106,1,67.4999979400635,10|2,2:0|2:0,0:0:0:0:
124,124,91600,1,2,2:0:0:0:
119,144,91700,1,6,3:0:0:0:
204,300,92100,6,0,L|220:234,1,67.4999979400635,10|6,2:0|3:0,0:0:0:0:
224,216,92400,1,0,2:0:0:0:
229,196,92500,1,2,3:0:0:0:
324,48,92900,2,0,L|390:64,1,67.4999979400635,10|2,2:0|2:0,0:0:0:0:
408,68,93200,1,2,2:0:0:0:
428,73,93300,1,2,3:0:0:0:
504,228,93700,6,0,L|496:260,1,33.7499989700318,2|0,3:0|2:0,0:0:0:0:
504,304,93900,2,0,L|496:336,1,33.7499989700318,10|0,2:0|2:0,0:0:0:0:
460,364,94100,1,10,2:0:0:0:
284,364,94500,1,10,2:0:0:0:
284,364,94600,2,0,L|220:344,1,67.4999979400635,2|0,2:0|2:0,0:0:0:0:
176,336,94900,2,0,L|108:356,1,67.4999979400635,2|10,3:0|2:0,0:0:0:0:
36,296,95300,6,0,P|16:272|16:236,1,67.4999979400635,10|2,2:0|3:0,0:0:0:0:
28,216,95600,1,2,2:0:0:0:
44,200,95700,2,0,L|110:188,1,67.4999979400635,10|2,2:0|2:0,0:0:0:0:
200,188,96100,2,0,L|212:254,1,67.4999979400635,10|0,2:0|2:0,0:0:0:0:
220,272,96400,1,2,2:0:0:0:
236,284,96500,2,0,L|302:272,1,67.4999979400635,2|10,3:0|2:0,0:0:0:0:
396,352,96900,6,0,P|468:352|496:296,1,134.999995880127,2|10,3:0|2:0,0:0:0:0:
484,216,97500,1,2,2:0:0:0:
484,216,97700,2,0,L|416:200,1,67.4999979400635,10|0,2:0|0:0,0:0:0:0:
360,136,98100,2,0,L|296:156,1,67.4999979400635,4|10,3:0|2:0,0:0:0:0:
212,188,98500,6,0,B|192:252|260:252|244:312,1,134.999995880127,10|2,2:0|3:0,0:0:0:0:
180,372,99100,1,2,2:0:0:0:
180,372,99300,2,0,L|112:356,1,67.4999979400635,10|0,2:0|0:0,0:0:0:0:
36,316,99700,2,0,L|48:248,1,67.4999979400635,2|10,3:0|2:0,0:0:0:0:
140,168,100100,6,0,P|176:168|200:188,1,67.4999979400635,2|10,3:0|2:0,0:0:0:0:
268,240,100500,2,0,P|304:240|328:220,1,67.4999979400635,10|2,2:0|2:0,0:0:0:0:
376,148,100900,2,0,B|384:100|336:100|344:56,1,101.249996910095,10|0,2:0|2:0,0:0:0:0:
376,28,101300,2,0,B|424:20|424:68|468:60,1,101.249996910095,2|0,3:0|2:0,0:0:0:0:
504,40,101700,5,2,2:0:0:0:
56,344,102900,2,0,P|40:318|40:280,1,67.4999979400635,2|0,2:0|2:0,0:0:0:0:
52,228,103300,6,0,L|136:212,1,82.5000025177003,6|0,3:0|0:0,0:0:0:0:
216,280,103700,2,0,L|300:304,1,82.5000025177003,2|2,2:0|2:0,0:0:0:0:
368,224,104100,1,10,2:0:0:0:
368,224,104300,1,2,2:0:0:0:
432,140,104500,2,0,P|432:100|404:68,1,82.5000025177003,2|0,3:0|0:0,0:0:0:0:
312,16,104900,6,0,P|272:16|236:36,1,82.5000025177003,2|6,2:0|3:0,0:0:0:0:
168,120,105300,1,6,3:0:0:0:
168,120,105500,1,0,0:0:0:0:
248,236,105700,2,0,B|308:216|308:288|360:272,1,123.75000377655,10|0,2:0|2:0,0:0:0:0:
404,248,106100,1,10,3:0:0:0:
404,248,106300,1,6,3:0:0:0:
508,152,106500,6,0,L|496:68,1,82.5000025177003,6|0,3:0|0:0,0:0:0:0:
408,12,106900,2,0,L|324:24,1,82.5000025177003,2|2,2:0|2:0,0:0:0:0:
260,108,107300,1,10,2:0:0:0:
260,108,107500,1,2,2:0:0:0:
268,216,107700,2,0,P|268:264|244:292,1,82.5000025177003,2|0,3:0|0:0,0:0:0:0:
156,348,108100,6,0,P|116:348|84:320,1,82.5000025177003,2|6,2:0|3:0,0:0:0:0:
60,216,108500,1,6,3:0:0:0:
60,216,108700,1,0,0:0:0:0:
164,120,108900,2,0,L|284:148,1,123.75000377655,8|0,2:0|2:0,0:0:0:0:
336,160,109300,1,6,3:0:0:0:
444,344,109700,6,0,P|480:316|480:236,1,123.75000377655,10|0,3:0|2:0,0:0:0:0:
460,196,110100,2,0,P|432:140|456:88,1,123.75000377655,10|0,3:0|2:0,0:0:0:0:
444,36,110500,2,0,L|360:52,1,82.5000025177002,10|0,2:0|0:0,0:0:0:0:
256,60,110900,1,0,2:0:0:0:
256,60,111100,1,0,2:0:0:0:
184,136,111300,6,0,P|184:180|204:212,1,82.5000025177003,2|6,2:0|3:0,0:0:0:0:
292,276,111700,1,6,3:0:0:0:
500,332,112100,2,0,L|416:352,1,82.5000025177003,10|0,2:0|0:0,0:0:0:0:
312,368,112500,1,10,3:0:0:0:
312,368,112700,1,6,3:0:0:0:
172,352,112900,6,0,P|104:352|80:304,1,123.75000377655,6|0,3:0|2:0,0:0:0:0:
76,256,113300,2,0,P|108:208|172:208,1,123.75000377655,6|0,3:0|2:0,0:0:0:0:
220,220,113700,2,0,L|300:248,1,82.5000025177003,8|0,2:0|0:0,0:0:0:0:
400,280,114100,1,0,2:0:0:0:
400,280,114300,1,0,2:0:0:0:
476,204,114500,6,0,L|495:123,1,82.5000025177002,2|6,2:0|3:0,0:0:0:0:
448,28,114900,2,0,B|388:8|396:72|332:52,1,123.75000377655,6|0,3:0|2:0,0:0:0:0:
300,92,115300,2,0,B|240:92|260:32|192:32,1,123.75000377655,8|0,2:0|2:0,0:0:0:0:
152,60,115700,1,10,3:0:0:0:
152,60,115900,1,6,3:0:0:0:
40,140,116100,6,0,P|28:176|44:216,1,82.5000025177003,6|0,3:0|0:0,0:0:0:0:
108,300,116500,2,0,P|152:300|180:276,1,82.5000025177003,2|2,2:0|2:0,0:0:0:0:
240,188,116900,1,10,2:0:0:0:
240,188,117100,1,2,2:0:0:0:
332,136,117300,2,0,L|412:156,1,82.5000025177003,2|0,3:0|0:0,0:0:0:0:
496,224,117700,6,0,L|476:304,1,82.5000025177003,2|6,2:0|3:0,0:0:0:0:
384,364,118100,1,6,3:0:0:0:
384,364,118300,1,0,0:0:0:0:
244,364,118500,2,0,B|180:364|200:304|144:304,1,123.75000377655,10|0,2:0|2:0,0:0:0:0:
92,316,118900,1,10,3:0:0:0:
92,316,119100,1,6,3:0:0:0:
20,236,119300,6,0,L|4:156,1,82.5000025177002,6|0,3:0|0:0,0:0:0:0:
52,60,119700,2,0,L|132:44,1,82.5000025177002,2|2,2:0|2:0,0:0:0:0:
208,120,120100,1,10,2:0:0:0:
208,120,120300,1,2,2:0:0:0:
264,212,120500,2,0,P|308:212|336:184,1,82.5000025177002,2|0,3:0|0:0,0:0:0:0:
400,100,120900,6,0,P|400:56|376:28,1,82.5000025177002,2|6,2:0|3:0,0:0:0:0:
268,12,121300,1,6,3:0:0:0:
268,12,121500,1,0,0:0:0:0:
128,12,121700,2,0,B|60:12|88:72|24:72,1,123.75000377655,10|0,2:0|2:0,0:0:0:0:
8,120,122100,1,6,3:0:0:0:
52,332,122500,6,0,P|124:332|156:288,1,123.75000377655,6|0,3:0|2:0,0:0:0:0:
188,252,122900,2,0,P|260:252|292:296,1,123.75000377655,6|0,3:0|2:0,0:0:0:0:
320,332,123300,2,0,L|404:316,1,82.5000025177003,10|0,2:0|0:0,0:0:0:0:
464,232,123700,1,0,2:0:0:0:
464,232,123900,1,0,2:0:0:0:
412,140,124100,6,0,L|328:156,1,82.5000025177003,2|6,2:0|3:0,0:0:0:0:
224,176,124500,1,6,3:0:0:0:
84,336,124900,2,0,P|60:300|60:260,1,82.5000025177002,10|0,2:0|0:0,0:0:0:0:
104,164,125300,1,10,3:0:0:0:
104,164,125500,1,6,3:0:0:0:
196,108,125700,6,0,P|268:108|292:148,1,123.75000377655,6|0,3:0|2:0,0:0:0:0:
332,184,126100,2,0,P|404:184|428:144,1,123.75000377655,6|0,3:0|2:0,0:0:0:0:
456,100,126500,2,0,L|436:20,1,82.5000025177003,10|0,2:0|0:0,0:0:0:0:
328,0,126900,1,0,2:0:0:0:
328,0,127100,1,0,2:0:0:0:
220,12,127300,6,0,B|160:20|184:76|128:84,1,123.75000377655,2|0,2:0|0:0,0:0:0:0:
80,64,127700,1,2,2:0:0:0:
437,328,128900,6,0,L|444:298,2,30,6|2|0,3:0|2:0|2:0,0:0:0:0:
356,192,129500,1,0,3:0:0:0:
291,147,129700,2,0,L|261:154,2,30,8|0|0,2:0|2:0|2:0,0:0:0:0:
138,180,130300,5,0,2:0:0:0:
81,233,130500,2,0,L|88:263,2,30,2|0|4,2:0|2:0|3:0,0:0:0:0:
180,356,131100,1,2,2:0:0:0:
180,356,131300,2,0,L|244:340,1,60,8|0,2:0|2:0,0:0:0:0:
312,324,131700,1,0,3:0:0:0:
436,228,132100,6,0,P|452:192|436:144,1,90,6|0,3:0|2:0,0:0:0:0:
412,116,132500,2,0,P|353:117|312:160,1,120,0|8,2:0|2:0,0:0:0:0:
268,224,133100,1,0,2:0:0:0:
268,224,133300,2,0,L|208:208,1,60,2|0,3:0|2:0,0:0:0:0:
130,213,133700,6,0,P|100:203|85:173,1,60,2|2,2:0|3:0,0:0:0:0:
63,105,134100,2,0,P|72:75|102:60,1,60,2|2,3:0|2:0,0:0:0:0:
176,52,134500,1,10,2:0:0:0:
176,52,134700,2,0,B|236:32|236:96|288:80,1,120,6|0,3:0|0:0,0:0:0:0:
392,140,135300,6,0,L|385:170,2,30,6|0|0,3:0|2:0|2:0,0:0:0:0:
357,292,135900,1,0,3:0:0:0:
291,334,136100,2,0,L|261:327,2,30,8|0|0,2:0|2:0|2:0,0:0:0:0:
174,230,136700,5,0,2:0:0:0:
245,197,136900,2,0,L|275:204,2,30,2|0|4,3:0|2:0|3:0,0:0:0:0:
376,124,137500,1,0,2:0:0:0:
376,124,137700,2,0,P|392:96|392:64,1,60,8|0,2:0|0:0,0:0:0:0:
344,8,138100,2,0,P|316:0|284:8,1,60,0|8,3:0|2:0,0:0:0:0:
180,68,138500,6,0,L|120:56,1,60,6|8,3:0|2:0,0:0:0:0:
48,76,138900,2,0,L|28:196,1,120,10|8,2:0|2:0,0:0:0:0:
64,264,139500,1,0,0:0:0:0:
64,264,139700,2,0,P|88:284|120:284,1,60,2|0,3:0|2:0,0:0:0:0:
188,260,140100,6,0,L|204:200,1,60,2|2,2:0|2:0,0:0:0:0:
188,124,140500,2,0,L|124:108,1,60,2|2,2:0|2:0,0:0:0:0:
80,168,140900,1,2,2:0:0:0:
80,168,141100,1,2,2:0:0:0:
256,192,141200,12,0,144500,2:0:0:0:
416,36,144900,6,0,B|384:120|508:120|472:216,1,202.499993820191,6|2,3:0|3:0,0:0:0:0:
416,284,145700,2,0,L|372:296,1,44.999998626709,10|2,2:0|2:0,0:0:0:0:
352,308,145966,1,2,2:0:0:0:
336,324,146100,2,0,L|292:336,1,44.999998626709,6|0,3:0|0:0,0:0:0:0:
200,264,146500,6,0,P|196:240|200:220,1,44.999998626709,2|0,2:0|2:0,0:0:0:0:
212,200,146766,1,2,0:0:0:0:
224,180,146900,2,0,P|228:156|224:136,1,44.999998626709,2|2,2:0|2:0,0:0:0:0:
160,36,147300,2,0,L|116:48,1,44.999998626709,10|2,2:0|2:0,0:0:0:0:
96,56,147566,1,2,2:0:0:0:
72,64,147700,1,0,3:0:0:0:
16,228,148100,6,0,P|16:300|132:340,1,202.499993820191,6|4,3:0|3:0,0:0:0:0:
196,292,148900,2,0,L|240:304,1,44.999998626709,2|0,2:0|0:0,0:0:0:0:
260,316,149166,1,2,0:0:0:0:
276,332,149300,2,0,L|320:344,1,44.999998626709,6|0,3:0|0:0,0:0:0:0:
404,264,149700,6,0,P|408:240|404:220,1,44.999998626709,2|2,2:0|2:0,0:0:0:0:
392,200,149966,1,2,2:0:0:0:
380,180,150100,2,0,P|374:161|379:136,1,44.999998626709,2|2,2:0|2:0,0:0:0:0:
320,36,150500,2,0,L|276:48,1,44.999998626709,10|2,2:0|2:0,0:0:0:0:
256,56,150766,1,2,2:0:0:0:
232,64,150900,1,2,3:0:0:0:
124,200,151300,6,0,B|176:176|228:230|193:244|244:298|292:278,1,202.499993820191,6|2,3:0|3:0,0:0:0:0:
368,240,152100,2,0,P|392:224|432:224,1,67.4999979400635,10|0,2:0|0:0,0:0:0:0:
456,232,152400,1,0,0:0:0:0:
456,232,152500,2,0,P|472:260|472:296,1,67.4999979400635,6|0,3:0|0:0,0:0:0:0:
456,336,152800,5,0,0:0:0:0:
456,336,152900,2,0,L|324:364,1,134.999995880127,2|2,2:0|2:0,0:0:0:0:
236,364,153500,1,2,2:0:0:0:
148,352,153700,2,0,P|104:324|104:248,1,134.999995880127,10|0,2:0|3:0,0:0:0:0:
160,180,154300,1,2,0:0:0:0:
296,240,154500,6,0,P|328:204|328:152,1,101.249996910095,6|0,3:0|0:0,0:0:0:0:
292,124,154900,2,0,P|272:80|288:32,1,101.249996910095,2|0,2:0|0:0,0:0:0:0:
328,16,155300,2,0,L|372:24,1,44.999998626709,2|0,0:0|0:0,0:0:0:0:
393,34,155566,1,2,0:0:0:0:
411,48,155700,2,0,L|455:56,1,44.999998626709,6|2,3:0|2:0,0:0:0:0:
500,164,156100,6,0,P|512:204|504:228,1,67.4999979400635,2|0,2:0|2:0,0:0:0:0:
472,256,156400,2,0,P|460:296|468:320,1,67.4999979400635,2|0,0:0|0:0,0:0:0:0:
488,356,156700,1,0,2:0:0:0:
404,376,156900,2,0,L|336:360,1,67.4999979400635,10|0,2:0|2:0,0:0:0:0:
256,332,157300,1,2,3:0:0:0:
256,332,157500,1,2,0:0:0:0:
116,360,157700,6,0,B|64:280|180:252|140:172,1,202.499993820191,6|2,3:0|3:0,0:0:0:0:
140,84,158500,6,0,L|184:72,2,44.999998626709,10|2|2,2:0|2:0|2:0,0:0:0:0:
212,92,158900,2,0,L|256:80,2,44.999998626709,2|2|2,3:2|2:0|2:0,0:0:0:0:
284,100,159300,2,0,L|328:88,2,44.999998626709,2|2|2,3:2|2:0|2:0,0:0:0:0:
356,116,159700,6,0,L|400:104,1,44.999998626709,2|2,3:2|2:0,0:0:0:0:
420,100,159966,1,2,2:0:0:0:
440,96,160100,1,10,3:0:0:0:
488,284,160400,1,2,0:0:0:0:
300,320,160700,1,10,2:0:0:0:
276,200,160900,6,0,B|220:174|172:223|209:245|160:290|108:271,1,202.499993820191,6|2,3:0|3:0,0:0:0:0:
36,224,161700,6,0,P|28:204|32:180,2,44.999998626709,10|2|2,2:0|2:0|2:0,0:0:0:0:
56,152,162100,2,0,P|64:132|60:108,2,44.999998626709,2|2|2,3:2|2:0|2:0,0:0:0:0:
24,80,162500,2,0,P|16:60|20:36,2,44.999998626709,2|2|2,3:2|2:0|2:0,0:0:0:0:
64,20,162900,6,0,L|108:8,1,44.999998626709,2|2,3:2|2:0,0:0:0:0:
128,4,163166,1,2,2:0:0:0:
148,0,163300,1,10,3:0:0:0:
200,192,163600,1,2,0:0:0:0:
388,152,163900,1,2,2:0:0:0:
352,32,164100,6,0,B|296:6|248:55|285:77|236:122|184:103,1,202.499993820191,6|2,3:0|3:0,0:0:0:0:
112,156,164900,6,0,L|124:200,2,44.999998626709,10|2|2,2:0|2:0|2:0,0:0:0:0:
104,228,165300,2,0,L|116:272,2,44.999998626709,2|2|2,3:2|2:0|2:0,0:0:0:0:
96,300,165700,2,0,L|108:344,2,44.999998626709,2|2|2,3:2|2:0|2:0,0:0:0:0:
136,364,166100,6,0,L|180:352,1,44.999998626709,2|0,2:0|0:0,0:0:0:0:
200,348,166366,1,0,0:0:0:0:
220,344,166500,1,10,3:0:0:0:
408,300,166800,1,2,0:0:0:0:
356,116,167100,1,2,2:0:0:0:
264,200,167300,6,0,B|211:219|162:174|199:152|151:102|96:128,1,202.499993820191,6|2,3:0|3:0,0:0:0:0:
40,60,168100,6,0,P|60:44|88:44,2,44.999998626709,10|2|2,2:0|2:0|2:0,0:0:0:0:
100,20,168500,2,0,P|125:16|149:30,2,44.999998626709,2|2|2,3:2|2:0|2:0,0:0:0:0:
184,8,168900,2,0,P|207:17|221:41,2,44.999998626709,2|2|2,3:2|2:0|2:0,0:0:0:0:
248,40,169300,2,0,P|264:59|264:88,2,44.999998626709,2|2|2,3:2|2:0|2:0,0:0:0:0:
260,112,169700,5,2,2:0:0:0:
120,192,170000,1,2,2:0:0:0:
252,288,170300,2,0,B|313:250|365:318|365:318|426:401|525:401|543:267|459:254,1,404.999987640381,2|2,2:0|2:0,0:0:0:0:
396,196,171700,2,0,P|384:164|395:131,1,67.4999979400635,2|0,2:0|2:0,0:0:0:0:
416,84,172100,6,0,L|336:60,1,82.5000025177003,6|0,3:0|0:0,0:0:0:0:
244,8,172500,2,0,L|164:31,1,82.5000025177003,2|2,2:0|2:0,0:0:0:0:
120,128,172900,1,10,2:0:0:0:
120,128,173100,1,2,2:0:0:0:
196,204,173300,6,0,L|212:288,1,82.5000025177003,2|0,3:0|0:0,0:0:0:0:
136,360,173700,1,2,2:0:0:0:
32,272,173900,1,6,3:0:0:0:
32,272,174100,2,0,B|55:217|-8:217|7:157,1,123.75000377655,6|0,3:0|2:0,0:0:0:0:
28,108,174500,2,0,B|82:131|82:67|142:83,1,123.75000377655,10|0,2:0|2:0,0:0:0:0:
188,112,174900,1,10,3:0:0:0:
188,112,175100,1,6,3:0:0:0:
260,192,175300,6,0,P|300:192|328:160,1,82.5000025177002,6|0,3:0|0:0,0:0:0:0:
412,96,175700,2,0,P|452:96|478:126,1,82.5000025177002,0|2,2:0|2:0,0:0:0:0:
496,232,176100,1,10,2:0:0:0:
496,232,176300,1,2,2:0:0:0:
456,332,176500,2,0,L|376:352,1,82.5000025177002,2|0,3:0|0:0,0:0:0:0:
268,368,176900,5,2,2:0:0:0:
200,244,177100,1,6,3:0:0:0:
200,244,177300,2,0,B|176:189|240:189|224:129,1,123.75000377655,6|0,3:0|2:0,0:0:0:0:
216,76,177700,2,0,P|184:48|144:48,1,82.5000025177003,10|6,2:0|3:0,0:0:0:0:
60,112,178100,1,6,3:0:0:0:
152,304,178500,6,0,L|272:276,1,123.75000377655,10|0,3:0|2:0,0:0:0:0:
308,316,178900,2,0,L|428:288,1,123.75000377655,10|0,3:0|2:0,0:0:0:0:
460,244,179300,2,0,P|472:204|456:168,1,82.5000025177003,10|0,2:0|0:0,0:0:0:0:
364,112,179700,1,0,2:0:0:0:
364,112,179900,1,0,2:0:0:0:
276,172,180100,6,0,P|235:171|206:142,1,82.5000025177002,2|6,2:0|3:0,0:0:0:0:
132,64,180500,1,6,3:0:0:0:
16,244,180900,2,0,L|31:325,1,82.5000025177002,10|0,2:0|0:0,0:0:0:0:
128,372,181300,1,10,3:0:0:0:
128,372,181500,1,6,3:0:0:0:
268,364,181700,6,0,L|388:336,1,123.75000377655,6|0,3:0|2:0,0:0:0:0:
408,288,182100,2,0,L|380:168,1,123.75000377655,6|0,3:0|2:0,0:0:0:0:
340,132,182500,2,0,P|300:132|264:160,1,82.5000025177003,10|0,2:0|0:0,0:0:0:0:
208,248,182900,1,0,2:0:0:0:
208,248,183100,1,0,2:0:0:0:
108,204,183300,6,0,L|88:123,1,82.5000025177002,2|6,2:0|3:0,0:0:0:0:
140,28,183700,2,0,P|192:4|252:24,1,123.75000377655,6|0,3:0|2:0,0:0:0:0:
272,76,184100,2,0,P|328:97|380:68,1,123.75000377655,8|0,2:0|2:0,0:0:0:0:
424,36,184500,1,10,3:0:0:0:
424,36,184700,1,6,3:0:0:0:
508,148,184900,6,0,L|488:228,1,82.5000025177002,6|0,3:0|0:0,0:0:0:0:
412,304,185300,2,0,L|332:284,1,82.5000025177002,2|2,2:0|2:0,0:0:0:0:
228,252,185700,1,10,2:0:0:0:
228,252,185900,1,2,2:0:0:0:
196,148,186100,2,0,P|196:108|224:72,1,82.5000025177003,2|0,3:0|0:0,0:0:0:0:
320,36,186500,5,2,2:0:0:0:
444,96,186700,1,6,3:0:0:0:
444,96,186900,2,0,B|460:156|396:156|419:210,1,123.75000377655,6|0,3:0|2:0,0:0:0:0:
452,252,187300,2,0,B|388:252|408:312|352:312,1,123.75000377655,10|0,2:0|2:0,0:0:0:0:
308,280,187700,1,10,3:0:0:0:
308,280,187900,1,6,3:0:0:0:
188,356,188100,6,0,L|108:340,1,82.5000025177002,6|0,3:0|0:0,0:0:0:0:
56,244,188500,2,0,L|72:164,1,82.5000025177002,2|2,2:0|2:0,0:0:0:0:
172,124,188900,1,10,2:0:0:0:
172,124,189100,1,2,2:0:0:0:
232,212,189300,2,0,P|262:238|302:237,1,82.5000025177002,2|0,3:0|0:0,0:0:0:0:
388,172,189700,5,2,2:0:0:0:
384,32,189900,1,6,3:0:0:0:
384,32,190100,2,0,B|328:8|328:76|269:56,1,123.75000377655,6|0,3:0|2:0,0:0:0:0:
228,24,190500,2,0,P|188:24|156:52,1,82.5000025177003,10|4,2:0|3:0,0:0:0:0:
136,156,190900,1,6,3:0:0:0:
252,336,191300,6,0,L|132:364,1,123.75000377655,6|0,3:0|2:0,0:0:0:0:
80,360,191700,2,0,L|52:240,1,123.75000377655,6|0,3:0|2:0,0:0:0:0:
71,191,192100,2,0,P|95:159|143:159,1,82.5000025177003,10|0,2:0|0:0,0:0:0:0:
228,208,192500,1,8,2:0:0:0:
228,208,192700,1,0,2:0:0:0:
312,276,192900,6,0,L|392:256,1,82.5000025177003,10|6,2:0|3:0,0:0:0:0:
472,184,193300,1,6,3:0:0:0:
356,4,193700,6,0,L|276:24,1,82.5000025177003,10|0,2:0|0:0,0:0:0:0:
204,104,194100,1,8,3:0:0:0:
204,104,194300,1,4,3:0:0:0:
104,204,194500,6,0,B|168:204|148:264|204:264,1,123.75000377655,6|0,3:0|2:0,0:0:0:0:
252,288,194900,2,0,B|308:288|288:228|352:228,1,123.75000377655,6|0,3:0|2:0,0:0:0:0:
404,240,195300,2,0,L|416:328,1,82.5000025177002,10|0,2:0|0:0,0:0:0:0:
320,368,195700,1,8,2:0:0:0:
320,368,195900,1,0,2:0:0:0:
212,364,196100,6,0,L|92:328,1,123.75000377655,10|0,2:0|2:0,0:0:0:0:
64,288,196500,1,2,2:0:0:0:
