osu file format v14

[General]
AudioFilename: audio.mp3
AudioLeadIn: 0
PreviewTime: 64336
Countdown: 0
SampleSet: Soft
StackLeniency: 0.3
Mode: 0
LetterboxInBreaks: 0
WidescreenStoryboard: 1

[Editor]
Bookmarks: 2500,10000,20000,30000,40000,50000,57540,65000,75000,85000,92500,102500,112500
DistanceSpacing: 1.3
BeatDivisor: 4
GridSize: 4
TimelineZoom: 2.6

[Metadata]
Title:NANAIRO
TitleUnicode:NANAIRO
Artist:LIQU@.
ArtistUnicode:LIQU@。
Creator:lcfc
Version:Hard
Source:beatmania IIDX 23 copula
Tags:bemani yuta metal pops lowcombofc kalibe trynna lasse realazy
BeatmapID:1692693
BeatmapSetID:802930

[Difficulty]
HPDrainRate:5
CircleSize:3.9
OverallDifficulty:6
ApproachRate:7.5
SliderMultiplier:1.4
SliderTickRate:1

[Events]
//Background and Video events
0,0,"BG.png",0,0
//Break Periods
2,92739,97965
//Storyboard Layer 0 (Background)
//Storyboard Layer 1 (Fail)
//Storyboard Layer 2 (Pass)
//Storyboard Layer 3 (Foreground)
//Storyboard Sound Samples

[TimingPoints]
2540,312.5,4,2,0,40,1,0
2540,-125,4,2,0,60,0,0
8790,-100,4,2,1,60,0,0
10040,-100,4,2,1,70,0,0
19727,-100,4,2,1,80,0,0
20040,-100,4,2,1,80,0,0
30040,-125,4,2,1,50,0,0
37540,-125,4,2,1,55,0,0
39571,-100,4,2,1,60,0,0
40040,-100,4,2,2,70,0,0
44415,-100,4,2,2,80,0,0
45040,-100,4,2,2,70,0,0
47540,-100,4,2,2,50,0,0
48165,-100,4,2,2,55,0,0
48790,-100,4,2,2,60,0,0
49415,-100,4,2,2,65,0,0
50040,-100,4,2,1,70,0,0
57540,-100,4,2,3,70,0,0
60040,-100,4,2,1,75,0,0
64336,-125,4,2,1,30,0,0
64649,-100,4,2,1,5,0,0
64727,-100,4,2,1,40,0,0
64961,-100,4,2,1,5,0,0
65040,-100,4,2,1,90,0,1
72540,-100,4,2,1,80,0,0
74727,-100,4,2,1,60,0,0
75040,-100,4,2,1,90,0,1
81290,-100,4,2,1,90,0,0
82540,-100,4,2,1,80,0,0
92227,-100,4,2,1,60,0,0
92540,-125,4,2,1,60,0,0
98790,-125,4,2,1,60,0,0
99102,-125,4,2,1,60,0,0
99415,-125,4,2,1,60,0,0
99727,-100,4,2,1,60,0,0
100040,-100,4,2,1,80,0,0
102227,-100,4,2,1,60,0,0
102540,-100,4,2,1,90,0,1
108790,-100,4,2,1,90,0,0
110040,-100,4,2,1,80,0,0
111915,-100,4,2,1,85,0,0
112071,-100,4,2,1,90,0,0
112227,-100,4,2,1,95,0,0
112383,-100,4,2,1,100,0,0

[Colours]
Combo1 : 190,56,241
Combo2 : 120,108,71
Combo3 : 95,95,95
Combo4 : 228,135,90
Combo5 : 234,204,85
Combo6 : 242,77,77
Combo7 : 197,132,122
Combo8 : 97,69,228

[HitObjects]
76,55,2540,6,0,P|117:89|177:73,1,112,2|0,0:0|0:0,0:0:0:0:
234,134,3008,2,0,P|211:182|242:236,1,112,2|0,0:0|0:0,0:0:0:0:
343,341,3633,2,0,L|464:328,1,112,2|2,0:0|0:0,0:0:0:0:
502,264,4102,1,2,0:0:0:0:
430,111,4415,2,0,L|318:122,1,112,2|0,0:0|0:0,0:0:0:0:
234,134,4883,1,0,0:0:0:0:
234,134,5040,6,0,P|229:178|233:258,1,112,2|0,0:0|0:0,0:0:0:0:
310,271,5508,2,0,P|312:326|307:382,1,112,2|0,0:0|0:0,0:0:0:0:
232,344,5977,1,0,0:0:0:0:
153,372,6133,2,0,P|104:362|83:287,1,112,2|2,0:0|0:0,0:0:0:0:
126,240,6602,1,2,0:0:0:0:
207,257,6758,2,0,P|254:191|243:110,1,168,2|2,0:0|0:0,0:0:0:0:
85,50,7540,102,0,L|107:159,1,112,2|0,0:0|0:0,0:0:0:0:
46,217,8008,1,0,0:0:0:0:
126,240,8165,2,0,L|148:349,1,112,2|2,0:0|0:3,0:0:0:0:
287,192,8790,37,8,1:2:0:0:
287,192,8946,1,8,1:2:0:0:
287,192,10040,102,0,L|271:123,2,70,14|0|2,1:2|1:0|1:2,0:0:0:0:
348,258,10508,2,0,L|414:278,2,70,14|2|2,0:0|1:2|1:2,0:0:0:0:
258,278,10977,1,14,0:0:0:0:
258,278,11133,6,0,B|186:272|207:312|122:303,1,140,2|14,1:2|0:0,0:0:0:0:
21,152,11758,1,0,1:0:0:0:
99,106,11915,2,0,P|106:141|106:176,1,70,14|0,0:0|0:0,0:0:0:0:
36,234,12227,2,0,P|35:268|42:303,1,70,14|0,0:0|1:0,0:0:0:0:
125,340,12540,102,0,L|219:357,2,70,14|0|2,1:2|1:0|1:2,0:0:0:0:
183,270,13008,2,0,L|277:253,2,70,14|2|2,0:0|1:2|1:2,0:0:0:0:
122,201,13477,1,14,0:0:0:0:
122,201,13633,6,0,P|108:144|113:40,1,140,2|14,1:2|0:0,0:0:0:0:
283,11,14258,1,0,1:0:0:0:
352,70,14415,2,0,L|336:144,1,70,14|0,0:0|0:0,0:0:0:0:
246,141,14727,2,0,L|262:215,1,70,14|0,0:0|1:0,0:0:0:0:
288,296,15040,102,0,L|362:312,2,70,14|0|2,1:2|1:0|1:2,0:0:0:0:
199,274,15508,2,0,L|148:330,2,70,14|2|2,0:0|1:2|1:2,0:0:0:0:
175,185,15977,1,14,0:0:0:0:
175,185,16133,6,0,B|169:113|209:134|200:49,1,140,2|14,1:2|0:0,0:0:0:0:
21,14,16758,1,0,1:0:0:0:
71,90,16915,2,0,P|66:131|66:169,1,70,14|0,0:0|0:0,0:0:0:0:
96,244,17227,2,0,P|61:239|26:238,1,70,14|0,0:0|1:0,0:0:0:0:
52,326,17540,102,0,L|125:347,2,70,14|0|2,1:2|1:0|1:2,0:0:0:0:
96,244,18008,2,0,L|169:223,2,70,14|2|2,0:0|1:2|1:2,0:0:0:0:
65,159,18477,1,14,0:0:0:0:
65,159,18633,6,0,P|72:106|90:17,1,140,2|14,1:2|0:0,0:0:0:0:
270,5,19258,1,0,1:0:0:0:
235,89,19415,1,14,0:0:0:0:
279,168,19571,2,0,L|266:212,2,35,0|0|14,0:0|0:0|0:0,0:0:0:0:
279,168,20040,102,0,L|347:184,1,70,6|0,0:0|0:0,0:0:0:0:
399,258,20352,2,0,L|467:241,1,70,10|2,0:0|0:0,0:0:0:0:
505,158,20665,1,2,1:2:0:0:
505,158,20821,2,0,P|494:108|494:15,1,140,2|2,1:2|1:2,0:0:0:0:
311,34,21446,5,2,1:2:0:0:
384,87,21602,2,0,P|383:118|374:156,1,70,8|0,0:0|0:0,0:0:0:0:
298,207,21915,2,0,P|267:206|229:197,1,70,2|2,1:2|1:2,0:0:0:0:
172,126,22227,1,8,0:0:0:0:
172,126,22383,1,0,1:0:0:0:
84,150,22540,102,0,L|97:222,1,70,2|0,1:2|0:0,0:0:0:0:
165,278,22852,2,0,L|152:350,1,70,10|2,0:0|0:0,0:0:0:0:
67,379,23165,1,2,1:2:0:0:
67,379,23321,2,0,P|39:326|23:242,1,140,2|2,1:2|1:2,0:0:0:0:
45,67,23946,5,2,0:0:0:0:
117,122,24102,1,8,0:0:0:0:
203,93,24258,2,0,L|214:56,2,35,0|0|2,1:0|1:0|1:2,0:0:0:0:
266,158,24571,2,0,L|277:195,2,35,2|0|14,1:2|1:0|0:0,0:0:0:0:
300,74,24883,1,0,1:0:0:0:
391,82,25040,102,0,P|381:113|377:154,1,70,6|0,0:0|0:0,0:0:0:0:
456,195,25352,2,0,P|451:229|442:263,1,70,10|2,0:0|0:0,0:0:0:0:
410,349,25665,1,2,1:2:0:0:
410,349,25821,2,0,P|368:341|258:341,1,140,2|2,1:2|1:2,0:0:0:0:
93,292,26446,5,2,1:2:0:0:
20,237,26602,2,0,P|14:193|19:163,1,70,8|0,0:0|0:0,0:0:0:0:
91,113,26915,2,0,P|97:157|92:187,1,70,2|2,1:2|1:2,0:0:0:0:
167,234,27227,1,8,0:0:0:0:
167,234,27383,1,0,1:0:0:0:
228,167,27540,102,0,L|245:100,1,70,2|0,1:2|0:0,0:0:0:0:
316,42,27852,2,0,L|383:59,1,70,10|2,0:0|0:0,0:0:0:0:
429,138,28165,1,2,1:2:0:0:
429,138,28321,2,0,P|412:191|401:298,1,140,2|2,1:2|1:2,0:0:0:0:
228,334,28946,5,2,0:0:0:0:
183,254,29102,1,8,0:0:0:0:
258,203,29258,2,0,L|300:212,2,35,2|2|2,0:0|0:0|1:2,0:0:0:0:
248,112,29571,1,2,1:2:0:0:
325,64,29727,2,0,L|367:73,3,35,8|8|8|8,0:0|0:0|0:0|0:0,0:0:0:0:
393,83,30040,38,0,P|398:138|395:194,1,112,6|2,0:0|1:2,0:0:0:0:
307,338,30665,2,0,P|302:283|305:227,1,112,2|2,1:2|1:2,0:0:0:0:
273,148,31133,1,2,1:2:0:0:
273,148,31290,6,0,L|210:159,1,56,2|0,1:2|0:0,0:0:0:0:
169,225,31602,2,0,L|106:214,1,56,2|0,1:2|1:2,0:0:0:0:
53,155,31915,1,2,1:2:0:0:
53,155,32071,2,0,P|32:111|63:37,1,112,2|2,0:0|0:3,0:0:0:0:
125,18,32540,102,0,L|242:37,1,112,2|2,1:2|1:2,0:0:0:0:
328,175,33165,2,0,L|217:157,1,112,2|2,1:2|0:0,0:0:0:0:
105,282,33790,6,0,L|222:301,1,112,2|0,1:2|1:0,0:0:0:0:
275,358,34258,1,2,1:2:0:0:
275,358,34415,2,0,B|300:309|300:309|283:243,1,112,0|0,1:0|1:0,0:0:0:0:
212,212,34883,1,2,0:3:0:0:
142,163,35040,102,0,P|129:116|169:49,1,112,6|2,1:2|1:2,0:0:0:0:
316,11,35665,2,0,P|328:57|288:124,1,112,2|2,1:2|1:2,0:0:0:0:
219,123,36133,1,0,1:0:0:0:
219,123,36290,6,0,P|226:149|229:177,1,56,2|2,1:2|0:0,0:0:0:0:
152,217,36602,2,0,P|144:190|141:162,1,56,2|2,1:2|1:2,0:0:0:0:
80,103,36915,1,2,1:2:0:0:
80,103,37071,2,0,P|61:153|55:228,1,112,2|2,0:0|0:3,0:0:0:0:
85,289,37540,102,0,L|203:309,1,112,2|2,1:2|1:2,0:0:0:0:
304,179,38165,2,0,L|186:199,1,112,2|2,1:2|1:2,0:0:0:0:
160,120,38633,1,0,1:0:0:0:
208,50,38790,6,0,L|318:31,2,112,2|2|2,0:3|0:3|0:3,0:0:0:0:
116,41,39571,2,0,L|125:-1,2,35,8|8|8,0:0|0:0|0:3,0:0:0:0:
45,97,39883,2,0,L|37:62,2,35,4|4|6,0:3|0:3|1:2,0:0:0:0:
45,97,40352,70,0,P|37:138|28:171,1,70,2|0,0:0|0:0,0:0:0:0:
108,212,40665,1,10,0:0:0:0:
108,212,40821,2,0,P|115:170|125:138,1,70,2|0,1:2|0:0,0:0:0:0:
192,84,41133,6,0,B|223:116|223:116|337:135,1,140,2|8,1:2|0:0,0:0:0:0:
396,86,41602,2,0,L|410:182,1,70,2|0,1:2|0:0,0:0:0:0:
337,217,41915,1,8,0:0:0:0:
337,217,42071,2,0,P|291:266|301:333,1,140,2|10,0:0|0:0,0:0:0:0:
383,374,42540,102,0,L|452:365,1,70,2|0,1:2|0:0,0:0:0:0:
470,276,42852,2,0,L|401:285,1,70,2|0,0:0|1:0,0:0:0:0:
337,217,43165,1,10,0:0:0:0:
337,217,43321,2,0,B|280:225|280:225|260:244|260:244|206:252,1,140,2|2,0:0|0:0,0:0:0:0:
137,192,43790,6,0,P|146:151|146:116,1,70,2|0,1:2|1:0,0:0:0:0:
72,70,44102,2,0,P|63:111|63:146,1,70,0|0,1:0|1:0,0:0:0:0:
5,210,44415,1,10,0:0:0:0:
5,210,44571,1,10,0:0:0:0:
81,258,44727,1,10,0:0:0:0:
81,258,44883,1,10,0:0:0:0:
50,344,45040,101,6,0:0:0:0:
50,344,45352,2,0,L|125:361,1,70,2|0,0:0|0:0,0:0:0:0:
183,294,45665,1,10,0:0:0:0:
183,294,45821,2,0,B|163:254|163:254|189:138,1,140,2|2,1:2|1:2,0:0:0:0:
260,110,46290,6,0,L|277:189,1,70,0|8,0:0|0:0,0:0:0:0:
343,238,46602,2,0,L|357:169,1,70,2|0,1:2|0:0,0:0:0:0:
432,116,46915,1,8,0:0:0:0:
432,116,47071,2,0,P|463:153|461:249,1,140,2|10,0:0|0:0,0:0:0:0:
410,315,47540,102,0,L|375:320,3,35,2|0|0|0,1:2|0:0|0:0|0:0,0:0:0:0:
347,355,47852,2,0,L|312:350,3,35,2|0|0|0,1:2|0:0|0:0|0:0,0:0:0:0:
284,313,48165,2,0,L|249:318,3,35,2|0|0|0,1:2|0:0|0:2|0:0,0:0:0:0:
221,353,48477,2,0,L|186:348,3,35,2|0|0|0,1:2|0:0|0:2|0:0,0:0:0:0:
154,314,48790,6,0,P|148:271|149:235,1,70,2|2,1:2|1:2,0:0:0:0:
213,181,49102,2,0,P|212:146|207:111,1,70,2|2,1:2|1:2,0:0:0:0:
145,43,49415,1,2,1:2:0:0:
145,43,49571,1,0,1:0:0:0:
76,103,49727,2,0,L|81:138,3,35,10|8|8|8,0:0|0:0|0:0|0:0,0:0:0:0:
53,174,50040,102,0,B|36:212|36:212|56:308,1,140,6|8,0:0|0:0,0:0:0:0:
138,347,50508,2,0,B|234:328|234:328|272:345,1,140,6|0,1:2|1:0,0:0:0:0:
335,279,50977,1,8,0:0:0:0:
366,364,51133,6,0,B|404:381|404:381|500:362,1,140,6|0,1:2|1:0,0:0:0:0:
451,284,51602,2,0,L|466:205,1,70,8|0,0:0|0:0,0:0:0:0:
423,133,51915,1,0,1:0:0:0:
423,133,52071,1,0,1:0:0:0:
332,129,52227,2,0,L|318:197,1,70,14|2,0:0|0:0,0:0:0:0:
241,247,52540,102,0,P|200:252|130:191,1,140,6|8,0:0|0:0,0:0:0:0:
53,142,53008,2,0,P|69:103|156:73,1,140,6|0,1:2|1:0,0:0:0:0:
244,100,53477,1,8,0:0:0:0:
314,43,53633,6,0,P|381:53|417:111,1,140,6|0,1:2|1:0,0:0:0:0:
359,181,54102,1,8,0:0:0:0:
359,181,54258,1,0,1:0:0:0:
378,270,54415,2,0,P|409:280|454:285,1,70,12|2,0:0|0:0,0:0:0:0:
511,222,54727,2,0,P|480:212|435:207,1,70,12|0,0:0|1:0,0:0:0:0:
359,181,55040,101,6,1:2:0:0:
275,216,55196,2,0,L|288:266,2,35,0|0|8,1:0|1:0|0:0,0:0:0:0:
198,167,55508,2,0,L|224:68,1,70,6|0,1:2|0:0,0:0:0:0:
291,47,55821,2,0,L|304:97,2,35,8|8|4,0:3|0:3|0:3,0:0:0:0:
378,22,56133,6,0,P|387:78|384:163,1,140,6|8,1:2|0:0,0:0:0:0:
430,239,56602,1,8,0:0:0:0:
353,288,56758,2,0,L|303:275,2,35,0|0|8,1:0|1:0|0:0,0:0:0:0:
401,365,57071,2,0,L|451:352,2,35,0|0|14,1:0|1:0|0:0,0:0:0:0:
310,368,57383,1,0,0:0:0:0:
310,368,57540,6,0,P|242:348|173:338,1,140,4|8,1:2|0:0,0:0:0:0:
34,221,58165,2,0,P|101:240|170:250,1,140,0|8,1:0|0:0,0:0:0:0:
257,222,58633,6,0,B|229:163|229:163|240:89,1,140,2|2,0:0|0:0,0:0:0:0:
405,11,59258,1,2,0:0:0:0:
481,61,59415,2,0,B|509:120|509:120|497:193,1,140,0|8,1:0|0:0,0:0:0:0:
334,276,60040,37,14,0:0:0:0:
334,276,60196,2,0,L|349:204,1,70,0|0,1:0|1:0,0:0:0:0:
318,121,60508,1,14,0:0:0:0:
318,121,60664,2,0,L|333:49,1,70,0|0,1:0|1:0,0:0:0:0:
256,1,60977,1,14,0:0:0:0:
256,1,61133,6,0,P|220:47|131:49,1,140,0|14,1:0|0:0,0:0:0:0:
55,28,61602,1,0,1:0:0:0:
55,28,61758,1,0,1:0:0:0:
10,107,61915,2,0,P|8:144|19:204,1,70,14|0,0:0|1:0,0:0:0:0:
91,219,62227,2,0,P|94:253|92:288,1,70,14|0,0:0|1:0,0:0:0:0:
28,353,62540,101,14,0:0:0:0:
116,374,62696,2,0,L|162:362,2,35,0|0|0,1:0|1:0|1:0,0:0:0:0:
92,288,63008,1,14,0:0:0:0:
182,284,63164,2,0,L|228:272,2,35,0|0|0,1:0|1:0|1:0,0:0:0:0:
179,192,63477,5,14,0:0:0:0:
269,202,63633,1,10,0:0:0:0:
331,134,63790,1,10,0:0:0:0:
331,134,64415,86,0,P|336:74|347:23,1,112,0|0,0:0|0:0,0:0:0:0:
453,171,65040,38,0,P|433:236|371:264,1,140,6|8,1:2|0:0,0:0:0:0:
289,226,65508,2,0,P|254:220|219:216,1,70,2|0,0:0|1:0,0:0:0:0:
140,262,65821,1,0,1:0:0:0:
140,262,65977,1,8,0:0:0:0:
67,207,66133,6,0,B|46:173|46:173|73:44,1,140,2|0,1:2|1:0,0:0:0:0:
141,22,66602,2,0,L|159:104,1,70,8|0,0:0|0:0,0:0:0:0:
238,129,66915,2,0,P|282:138|371:82,1,140,0|8,1:0|0:0,0:0:0:0:
390,8,67383,1,0,1:0:0:0:
469,53,67540,102,0,P|468:122|455:191,1,140,6|8,1:2|0:0,0:0:0:0:
389,254,68008,2,0,P|348:250|316:251,1,70,2|0,0:0|1:0,0:0:0:0:
233,282,68321,1,0,1:0:0:0:
233,282,68477,1,8,0:0:0:0:
162,225,68633,6,0,L|180:80,1,140,2|0,1:2|1:0,0:0:0:0:
255,35,69102,1,8,0:0:0:0:
255,35,69258,1,2,0:0:0:0:
266,125,69415,2,0,L|270:159,2,35,0|0|0,1:0|1:0|1:0,0:0:0:0:
344,78,69727,2,0,L|418:98,1,70,14|0,0:2|0:0,0:0:0:0:
473,163,70040,102,0,B|407:156|425:206|341:197,1,140,6|8,1:2|0:0,0:0:0:0:
253,177,70508,1,2,0:0:0:0:
204,254,70665,2,0,P|212:299|212:338,1,70,2|0,1:2|1:0,0:0:0:0:
123,304,70977,2,0,P|115:259|115:220,1,70,10|0,0:0|0:0,0:0:0:0:
165,159,71290,6,0,P|184:93|159:28,1,140,2|8,1:2|0:0,0:0:0:0:
15,140,71915,2,0,P|-4:205|20:270,1,140,0|8,1:0|0:0,0:0:0:0:
96,318,72383,1,0,1:0:0:0:
179,280,72540,69,6,1:2:0:0:
179,280,72696,2,0,L|256:300,1,70,0|0,1:0|1:0,0:0:0:0:
328,258,73008,1,6,1:2:0:0:
328,258,73164,2,0,L|405:278,1,70,0|0,1:0|1:0,0:0:0:0:
455,344,73477,1,6,1:2:0:0:
500,265,73633,6,0,B|517:200|517:200|482:135,1,140,2|0,1:2|1:0,0:0:0:0:
405,87,74102,2,0,L|382:182,1,70,8|0,0:0|1:0,0:0:0:0:
298,172,74415,1,8,0:0:0:0:
219,126,74571,1,0,1:0:0:0:
219,126,74727,70,0,L|235:57,1,70,10|0,0:0|0:0,0:0:0:0:
155,14,75040,54,0,P|108:62|123:128,1,140,6|8,1:2|0:0,0:0:0:0:
170,205,75508,2,0,L|153:273,1,70,2|0,0:0|1:0,0:0:0:0:
130,361,75821,1,0,1:0:0:0:
130,361,75977,1,8,0:0:0:0:
215,330,76133,6,0,P|259:324|357:325,1,140,2|0,1:2|1:0,0:0:0:0:
434,368,76602,2,0,P|442:321|441:299,1,70,8|0,0:0|0:0,0:0:0:0:
371,239,76915,2,0,P|365:195|366:97,1,140,0|8,1:0|0:0,0:0:0:0:
425,31,77383,1,0,1:0:0:0:
333,17,77540,102,0,P|284:63|283:131,1,140,6|8,1:2|0:0,0:0:0:0:
277,222,78008,2,0,L|203:233,1,70,2|0,0:0|1:0,0:0:0:0:
121,201,78321,1,0,1:0:0:0:
121,201,78477,1,8,0:0:0:0:
62,131,78633,6,0,B|29:171|29:171|42:258,1,140,2|0,1:2|1:0,0:0:0:0:
55,348,79102,1,8,0:0:0:0:
55,348,79258,1,0,1:0:0:0:
138,310,79415,2,0,L|129:251,2,35,0|0|0,1:0|1:0|1:0,0:0:0:0:
207,368,79727,2,0,L|228:291,1,70,14|0,0:2|0:0,0:0:0:0:
248,212,80040,102,0,P|308:166|379:186,1,140,6|8,1:2|0:0,0:0:0:0:
429,242,80508,1,0,1:0:0:0:
429,242,80665,1,8,0:0:0:0:
506,194,80821,2,0,L|500:154,2,35,0|0|8,1:0|1:0|0:0,0:0:0:0:
506,284,81133,2,0,L|511:318,2,35,0|0|8,1:0|1:0|0:0,0:0:0:0:
426,329,81446,5,8,0:0:0:0:
285,78,82540,70,0,B|257:117|257:117|167:137,1,140,6|8,1:2|0:0,0:0:0:0:
88,92,83008,1,2,0:0:0:0:
42,171,83165,2,0,B|62:260|62:260|101:288,1,140,2|8,1:2|0:0,0:0:0:0:
95,379,83633,6,0,P|125:322|209:304,1,140,2|0,1:2|1:0,0:0:0:0:
274,343,84102,1,8,0:0:0:0:
274,343,84258,1,0,1:0:0:0:
343,284,84415,2,0,L|362:209,1,70,0|0,1:0|1:0,0:0:0:0:
280,172,84727,2,0,L|262:239,1,70,8|0,0:0|1:0,0:0:0:0:
187,187,85040,102,0,P|174:118|172:48,1,140,6|8,1:2|0:0,0:0:0:0:
257,16,85508,1,2,1:2:0:0:
341,49,85665,2,0,P|353:117|355:187,1,140,2|10,1:2|0:0,0:0:0:0:
432,235,86133,6,0,P|362:236|293:249,1,140,2|2,0:0|0:0,0:0:0:0:
223,307,86602,1,10,0:0:0:0:
223,307,86758,1,2,1:2:0:0:
147,254,86915,2,0,L|157:200,3,35,2|0|2|2,1:2|1:0|1:2|1:2,0:0:0:0:
133,178,87227,2,0,L|43:194,1,70,14|0,0:0|0:0,0:0:0:0:
20,109,87540,102,0,L|158:90,1,140,2|10,1:2|0:0,0:0:0:0:
223,26,88008,1,0,1:0:0:0:
244,114,88165,2,0,L|382:95,1,140,2|8,1:2|0:0,0:0:0:0:
368,184,88633,6,0,L|230:203,1,140,2|2,1:2|1:2,0:0:0:0:
185,283,89102,1,8,0:0:0:0:
185,283,89258,1,2,1:2:0:0:
257,338,89415,2,0,P|306:334|332:326,1,70,0|2,1:0|1:2,0:0:0:0:
377,252,89727,2,0,P|368:218|367:183,1,70,10|0,0:0|1:0,0:0:0:0:
406,100,90040,102,0,P|365:46|298:46,1,140,6|8,1:2|0:0,0:0:0:0:
232,109,90508,1,2,1:2:0:0:
193,192,90665,2,0,P|125:192|85:138,1,140,6|8,1:2|0:0,0:0:0:0:
16,78,91133,6,0,P|37:149|42:228,1,140,6|0,1:2|1:0,0:0:0:0:
10,300,91602,2,0,L|21:345,2,46.6666666666667,2|2|2,0:3|0:3|0:3,0:0:0:0:
65,325,91915,2,0,L|76:370,2,46.6666666666667,8|8|8,0:3|0:3|0:3,0:0:0:0:
121,347,92227,2,0,L|258:322,1,140,8|2,0:3|1:2,0:0:0:0:
85,260,98790,70,2,P|76:205|80:150,1,112,2|2,1:0|1:0,0:0:0:0:
117,75,99258,1,0,0:0:0:0:
201,73,99415,2,0,P|210:128|206:183,1,112,2|0,1:0|1:0,0:0:0:0:
114,341,100040,21,6,1:2:0:0:
114,341,100196,2,0,L|186:326,1,70,0|0,1:0|1:0,0:0:0:0:
249,265,100508,1,6,1:2:0:0:
249,265,100664,2,0,L|321:280,1,70,0|0,1:0|1:0,0:0:0:0:
370,354,100977,1,6,1:2:0:0:
448,308,101133,6,0,P|482:261|471:164,1,140,2|0,1:2|1:0,0:0:0:0:
414,117,101602,2,0,L|327:133,1,70,8|0,0:0|1:0,0:0:0:0:
255,146,101915,1,8,0:0:0:0:
182,89,102071,1,0,1:0:0:0:
182,89,102227,86,0,P|189:55|189:20,1,70,2|0,0:0|0:0,0:0:0:0:
101,47,102540,38,0,P|86:115|83:185,1,140,6|8,1:2|0:0,0:0:0:0:
154,242,103008,2,0,P|192:230|234:230,1,70,2|0,0:0|1:0,0:0:0:0:
295,283,103321,1,0,1:0:0:0:
295,283,103477,1,8,0:0:0:0:
247,359,103633,6,0,P|178:361|128:315,1,140,2|0,1:2|1:0,0:0:0:0:
51,265,104102,2,0,L|63:181,1,70,8|0,0:0|0:0,0:0:0:0:
38,107,104415,2,0,P|106:108|156:62,1,140,0|8,1:0|0:0,0:0:0:0:
241,28,104883,1,0,1:0:0:0:
299,98,105040,102,0,B|317:138|317:138|291:255,1,140,6|8,1:2|0:0,0:0:0:0:
278,320,105508,2,0,L|363:306,1,70,2|0,0:0|1:0,0:0:0:0:
434,335,105821,1,0,1:0:0:0:
434,335,105977,1,8,0:0:0:0:
409,247,106133,6,0,B|391:207|391:207|417:90,1,140,2|0,1:2|1:0,0:0:0:0:
433,24,106602,1,8,0:0:0:0:
433,24,106758,1,2,0:0:0:0:
347,56,106915,2,0,L|308:47,2,35,0|0|0,1:0|1:0|1:0,0:0:0:0:
319,142,107227,2,0,L|241:158,1,70,14|0,0:2|0:0,0:0:0:0:
177,100,107540,102,0,B|170:166|220:148|211:232,1,140,6|8,1:2|0:0,0:0:0:0:
157,304,108008,1,0,1:0:0:0:
157,304,108165,1,8,0:0:0:0:
89,243,108321,2,0,L|96:195,2,35,0|0|8,1:0|1:0|0:0,0:0:0:0:
18,300,108633,2,0,L|12:334,2,35,0|0|8,1:0|1:0|0:0,0:0:0:0:
89,357,108946,5,8,0:0:0:0:
319,142,110040,70,0,B|341:75|341:75|321:9,1,140,6|0,1:2|1:0,0:0:0:0:
256,72,110508,1,6,1:2:0:0:
191,9,110665,2,0,B|171:75|171:75|193:142,1,140,6|0,1:2|1:0,0:0:0:0:
256,208,111133,6,0,L|256:352,1,140,6|2,1:2|1:2,0:0:0:0:
172,312,111602,2,0,P|140:304|84:304,1,70,2|2,1:2|1:2,0:0:0:0:
21,342,111915,5,14,0:0:0:0:
21,342,112071,1,14,0:0:0:0:
35,252,112227,1,14,0:0:0:0:
35,252,112383,1,14,0:0:0:0:
