osu file format v14

[General]
AudioFilename: audio.mp3
AudioLeadIn: 0
PreviewTime: -1
Countdown: 1
SampleSet: None
StackLeniency: 0.7
Mode: 0
LetterboxInBreaks: 0
WidescreenStoryboard: 0

[Editor]
Bookmarks: 15241
DistanceSpacing: 0.5
BeatDivisor: 4
GridSize: 4
TimelineZoom: 1

[Metadata]
Title:Charles
TitleUnicode:Charles
Artist:LIQU@
ArtistUnicode:LIQU@
Creator:Ameyy
Version:
Source:
Tags:
BeatmapID:1556665
BeatmapSetID:737570

[Difficulty]
HPDrainRate:7
CircleSize:4
OverallDifficulty:6
ApproachRate:9.3
SliderMultiplier:2
SliderTickRate:1

[Events]
//Background and Video events
//Break Periods
//Storyboard Layer 0 (Background)
//Storyboard Layer 1 (Fail)
//Storyboard Layer 2 (Pass)
//Storyboard Layer 3 (Foreground)
//Storyboard Sound Samples

[TimingPoints]
2000,413.793103448276,4,2,0,60,1,0
2000,-142.857142857143,4,2,0,60,0,0
15241,-100,4,2,0,60,0,0

[HitObjects]
60,188,2000,6,0,P|128:208|152:208,1,69.9999978637696
144,200,2310,1,0,0:0:0:0:
160,192,2413,1,0,0:0:0:0:
40,100,2620,1,0,0:0:0:0:
80,296,2827,2,0,L|160:296,1,69.9999978637696
312,288,3241,2,0,P|268:268|248:232,1,69.9999978637696
371,233,3655,6,0,P|396:290|346:360,1,139.999995727539
257,251,4275,1,0,0:0:0:0:
243,239,4379,1,0,0:0:0:0:
230,227,4482,1,0,0:0:0:0:
253,124,4689,1,0,0:0:0:0:
372,230,4896,2,0,B|408:235|408:235|464:228,1,69.9999978637696
343,139,5310,5,0,0:0:0:0:
258,254,5517,2,0,L|177:251,1,69.9999978637696
251,125,5931,1,0,0:0:0:0:
328,314,6137,2,0,P|323:368|309:396,1,69.9999978637696
300,375,6448,1,0,0:0:0:0:
284,367,6551,1,0,0:0:0:0:
188,251,6758,1,0,0:0:0:0:
395,198,6965,6,0,P|338:205|277:160,1,104.999996795654
291,167,7379,1,0,0:0:0:0:
489,205,7586,1,0,0:0:0:0:
482,235,7793,1,0,0:0:0:0:
376,82,8000,1,0,0:0:0:0:
393,78,8103,1,0,0:0:0:0:
410,75,8206,5,0,0:0:0:0:
291,167,8413,1,0,0:0:0:0:
216,41,8620,2,0,L|292:47,1,69.9999978637696
118,131,9034,2,0,L|42:137,1,69.9999978637696
83,92,9344,5,0,0:0:0:0:
137,79,9448,1,0,0:0:0:0:
174,120,9551,1,0,0:0:0:0:
153,172,9655,2,0,L|143:252,1,69.9999978637696
53,219,10068,5,0,0:0:0:0:
138,317,10275,2,0,P|187:307|209:278,1,69.9999978637696
153,172,10689,1,0,0:0:0:0:
15,324,10896,1,0,0:0:0:0:
36,324,11000,1,0,0:0:0:0:
56,324,11103,1,0,0:0:0:0:
250,222,11310,5,0,0:0:0:0:
143,242,11517,1,0,0:0:0:0:
285,295,11724,2,0,P|321:260|231:153,1,209.999993591309
285,295,12551,1,0,0:0:0:0:
416,336,12758,2,0,B|435:304|432:239,1,69.9999978637696
264,83,13172,2,0,B|245:115|248:180,1,69.9999978637696
348,218,13586,5,0,0:0:0:0:
368,214,14000,1,0,0:0:0:0:
410,111,14413,6,0,P|415:92|411:80,1,17.4999994659424
288,117,14517,2,0,P|281:126|278:147,1,17.4999994659424
363,230,14620,2,0,P|368:211|364:199,1,17.4999994659424
241,236,14724,2,0,P|234:245|231:266,1,17.4999994659424
310,342,14827,1,0,0:0:0:0:
288,117,15241,5,0,0:0:0:0:
306,133,15344,2,0,L|400:136,1,50
146,208,15552,1,0,0:0:0:0:
136,184,15655,2,0,B|120:146|135:110,1,50
320,319,15862,1,0,0:0:0:0:
310,342,15965,2,0,L|229:343,1,50
