osu file format v14

[General]
AudioFilename: audio.mp3
AudioLeadIn: 0
PreviewTime: 57893
Countdown: 0
SampleSet: Soft
StackLeniency: 0.3
Mode: 0
LetterboxInBreaks: 0
WidescreenStoryboard: 0

[Editor]
Bookmarks: 975,11353,26920,37299,47677,58056,78812,81407
DistanceSpacing: 0.7
BeatDivisor: 4
GridSize: 4
TimelineZoom: 1.5

[Metadata]
Title:Hitsuyou Fukaketsu
TitleUnicode:必要不可欠
Artist:LIP x LIP
ArtistUnicode:LIP×LIP
Creator:Serizawa Haruki
Version:Ky's Insane
Source:いつだって僕らの恋は10センチだった。
Tags:ハニワ HoneyWorks 勇次郎 Yuujirou 愛蔵 Aizou 内山昂輝 Uchiyama Kouki 島﨑信長 Shimazaki Nobunaga ハルヨシ halyosy Itsudatte Bokura no Koi wa 10 cm Datta. ノンファンタジー Nonfantasy どっちのkissか、選べよ。 Docchi no kiss ka, Erabe yo. 告白実行委員会〜恋愛シリーズ〜 Kokuhaku Jikkou Iinkai Renai Series Confession Executive Committee Love TV Size アニメ anime 挿入歌 insert song 初音ミク Hatsune Miku メグッポイド グミ Megpoid GUMI ボーカロイド ボカロ Vocaloid シト shito チョリスP Chorisu-P ケイキ cake 中西 Nakanishi 樋口幸佑 Higuchi Kousuke Jack J_a_c_k niruko Shunao ShogunMoon M2Usonek Minorsonek Kyle Y Kyle_Y HabiHolic Elcheer
BeatmapID:1545193
BeatmapSetID:730369

[Difficulty]
HPDrainRate:6
CircleSize:4.2
OverallDifficulty:8
ApproachRate:9
SliderMultiplier:1.8
SliderTickRate:1

[Events]
//Background and Video events
0,0,"bg.jpg",0,0
//Break Periods
//Storyboard Layer 0 (Background)
//Storyboard Layer 1 (Fail)
//Storyboard Layer 2 (Pass)
//Storyboard Layer 3 (Foreground)
//Storyboard Sound Samples

[TimingPoints]
975,324.324324324324,4,2,2,40,1,0
975,-133.333333333333,4,2,2,40,0,0
2353,-133.333333333333,4,2,2,5,0,0
2434,-133.333333333333,4,2,2,40,0,0
4947,-133.333333333333,4,2,2,5,0,0
5029,-133.333333333333,4,2,2,40,0,0
7542,-133.333333333333,4,2,2,5,0,0
7623,-133.333333333333,4,2,2,40,0,0
11353,-100,4,2,1,70,0,0
26920,-100,4,2,1,60,0,0
29434,-100,4,2,1,5,0,0
29515,-100,4,2,1,60,0,0
32029,-100,4,2,1,5,0,0
32110,-100,4,2,1,60,0,0
34623,-100,4,2,1,5,0,0
34704,-100,4,2,1,60,0,0
38515,-100,4,2,1,5,0,0
38596,-100,4,2,1,60,0,0
39812,-100,4,2,1,5,0,0
39893,-100,4,2,1,60,0,0
43704,-100,4,2,1,5,0,0
43785,-100,4,2,1,60,0,0
45002,-100,4,2,1,5,0,0
45083,-100,4,2,1,60,0,0
47677,-133.333333333333,4,2,1,60,0,0
47839,-133.333333333333,4,2,2,40,0,0
51569,-166.666666666667,4,2,2,40,0,0
52866,-133.333333333333,4,2,1,60,0,0
53029,-133.333333333333,4,2,2,40,0,0
56677,-133.333333333333,4,2,2,5,0,0
56758,-100,4,2,1,70,0,0
57488,-100,4,2,1,5,0,0
57569,-100,4,2,1,70,0,0
57650,-100,4,2,1,5,0,0
57731,-100,4,2,1,70,0,0
57974,-100,4,2,1,5,0,0
58056,-100,4,2,1,80,0,1
59434,-100,4,2,1,5,0,1
59515,-100,4,2,1,80,0,1
60569,-100,4,2,1,5,0,1
60650,-100,4,2,1,80,0,1
62029,-100,4,2,1,5,0,1
62110,-100,4,2,1,80,0,1
64623,-100,4,2,1,5,0,1
64704,-100,4,2,1,80,0,1
65758,-100,4,2,1,5,0,1
65839,-100,4,2,1,80,0,1
67218,-100,4,2,1,5,0,1
67299,-100,4,2,1,80,0,1
69812,-100,4,2,1,5,0,1
69893,-100,4,2,1,80,0,1
70947,-100,4,2,1,5,0,1
71029,-100,4,2,1,80,0,1
72407,-100,4,2,1,5,0,1
72488,-100,4,2,1,80,0,1
75002,-100,4,2,1,5,0,1
75083,-100,4,2,1,80,0,1
76137,-100,4,2,1,5,0,1
76218,-100,4,2,1,80,0,1
77596,-100,4,2,1,5,0,1
77677,-100,4,2,1,80,0,1
78812,-100,4,2,1,50,0,0

[Colours]
Combo1 : 157,95,226
Combo2 : 0,57,255
Combo3 : 123,160,247
Combo4 : 163,58,80

[HitObjects]
410,225,975,5,2,0:0:0:0:
324,161,1137,1,2,0:0:0:0:
423,118,1299,1,2,0:0:0:0:
327,243,1461,2,0,P|278:229|242:156,1,135.000005149842,2|2,0:0|0:0,0:0:0:0:
266,23,1947,1,2,0:0:0:0:
129,118,2110,6,0,P|109:177|120:227,1,101.250003862381,2|0,0:0|0:0,0:0:0:0:
117,239,2434,2,0,L|134:322,1,67.5000025749208,2|2,0:0|0:0,0:0:0:0:
1,197,2758,2,0,L|30:337,1,135.000005149842,2|2,0:0|0:0,0:0:0:0:
216,372,3245,1,2,0:0:0:0:
216,372,3569,5,2,0:0:0:0:
231,266,3731,1,2,0:0:0:0:
131,306,3893,1,2,0:0:0:0:
287,327,4056,2,0,P|311:282|285:205,1,135.000005149842,2|2,0:0|0:0,0:0:0:0:
422,301,4542,1,2,0:0:0:0:
363,131,4704,6,0,P|303:111|253:122,1,101.250003862381,2|0,0:0|0:0,0:0:0:0:
243,127,5029,2,0,L|159:144,1,67.5000025749208,2|2,0:0|0:0,0:0:0:0:
285,11,5353,2,0,L|144:40,1,135.000005149842,2|2,0:0|0:0,0:0:0:0:
109,218,5839,1,2,0:0:0:0:
109,218,6164,5,2,0:0:0:0:
179,297,6326,1,2,0:0:0:0:
213,194,6488,1,2,0:0:0:0:
97,301,6650,2,0,P|115:348|191:378,1,135.000005149842,2|2,0:0|0:0,0:0:0:0:
290,279,7137,1,2,0:0:0:0:
383,377,7299,6,0,P|402:317|391:267,1,101.250003862381,2|0,0:0|0:0,0:0:0:0:
390,256,7623,2,0,L|372:172,1,67.5000025749208,2|2,0:0|0:0,0:0:0:0:
506,298,7947,2,0,L|476:157,1,135.000005149842,2|2,0:0|0:0,0:0:0:0:
296,123,8434,1,2,0:0:0:0:
296,123,8758,5,2,0:0:0:0:
210,59,8920,1,2,0:0:0:0:
309,16,9083,1,2,0:0:0:0:
213,141,9245,2,0,P|164:127|132:34,1,135.000005149842,2|2,0:0|0:0,0:0:0:0:
210,59,9731,1,2,0:0:0:0:
42,246,9893,5,2,0:0:0:0:
167,113,11353,6,0,P|107:102|62:127,1,90,12|2,0:0|0:0,0:0:0:0:
123,196,11677,1,2,0:0:0:0:
260,110,11839,2,0,P|239:52|195:26,1,91.5,12|0,0:0|0:0,0:0:0:0:
110,200,12164,1,2,0:0:0:0:
310,189,12326,6,0,P|349:142|350:91,1,90,12|2,0:0|0:0,0:0:0:0:
97,205,12650,1,2,0:0:0:0:
267,271,12812,2,0,P|327:282|372:257,1,90,12|2,0:0|0:0,0:0:0:0:
85,210,13137,1,2,0:0:0:0:
417,207,13299,5,12,0:0:0:0:
396,189,13623,2,0,P|336:178|291:203,1,90,12|2,0:0|0:0,0:0:0:0:
177,301,13947,2,0,L|170:256,1,45,12|0,0:0|0:0,0:0:0:0:
85,210,14110,5,2,0:0:0:0:
95,195,14191,1,2,0:0:0:0:
108,183,14272,2,0,P|136:167|166:165,2,45,2|2|12,0:0|0:0|0:0,0:0:0:0:
154,65,14596,5,2,0:0:0:0:
171,66,14677,1,2,0:0:0:0:
188,71,14758,2,0,P|215:87|232:112,2,45,2|2|12,0:0|0:0|0:0,0:0:0:0:
316,54,15083,5,2,0:0:0:0:
323,70,15164,1,2,0:0:0:0:
327,87,15245,2,0,P|326:119|313:146,2,45,2|2|12,0:0|0:0|0:0,0:0:0:0:
405,194,15569,5,2,0:0:0:0:
395,209,15650,1,2,0:0:0:0:
382,221,15731,2,0,P|354:237|324:239,1,45,2|2,0:0|0:0,0:0:0:0:
330,272,15893,2,0,P|311:232|350:203,1,90,12|2,0:0|0:0,0:0:0:0:
467,137,16218,2,0,P|486:177|480:221,1,90,12|2,0:0|0:0,0:0:0:0:
256,313,16542,6,0,P|200:308|164:279,1,90,6|2,0:0|0:0,0:0:0:0:
233,128,16866,1,12,0:0:0:0:
113,349,17029,2,0,P|89:298|96:253,1,90,2|0,0:0|0:0,0:0:0:0:
233,128,17353,1,2,0:0:0:0:
11,244,17515,2,0,P|43:197|86:181,1,90,12|2,0:0|0:0,0:0:0:0:
233,128,17839,1,0,0:0:0:0:
283,342,18002,6,0,P|327:335|363:308,1,90,2|12,0:0|0:0,0:0:0:0:
417,177,18326,1,2,0:0:0:0:
294,251,18488,1,0,0:0:0:0:
436,262,18650,1,2,0:0:0:0:
327,169,18812,2,0,L|237:135,1,90,12|0,0:0|0:0,0:0:0:0:
512,22,19137,6,0,L|493:112,1,90,6|2,0:0|0:0,0:0:0:0:
468,253,19461,1,12,0:0:0:0:
377,68,19623,2,0,L|406:156,1,90,2|0,0:0|0:0,0:0:0:0:
468,253,19947,1,2,0:0:0:0:
265,167,20110,1,12,0:0:0:0:
191,315,20272,6,0,L|316:288,1,90,2|0,0:0|0:0,0:0:0:0:
381,244,20596,1,2,0:0:0:0:
474,357,20758,2,0,P|491:311|465:252,1,90,12|2,0:0|0:0,0:0:0:0:
294,233,21083,6,0,P|289:262|291:292,2,60,0|0|0,0:0|0:0|0:0,0:0:0:0:
392,232,21407,2,0,P|394:202|389:172,2,60,12|0|0,0:0|0:0|0:0,0:0:0:0:
216,88,21731,6,0,P|270:73|314:88,1,90,6|2,0:0|0:0,0:0:0:0:
294,233,22056,1,12,0:0:0:0:
337,5,22218,2,0,P|376:44|385:89,1,90,2|0,0:0|0:0,0:0:0:0:
294,233,22542,1,2,0:0:0:0:
469,68,22704,2,0,P|455:123|420:152,1,90,12|2,0:0|0:0,0:0:0:0:
294,233,23029,1,0,0:0:0:0:
415,362,23191,6,0,P|372:376|328:371,1,90,2|12,0:0|0:0,0:0:0:0:
219,284,23515,1,2,0:0:0:0:
362,289,23677,1,0,0:0:0:0:
243,367,23839,1,2,0:0:0:0:
294,233,24002,2,0,L|323:147,1,90,12|0,0:0|0:0,0:0:0:0:
84,2,24326,6,0,L|104:94,1,90,6|2,0:0|0:0,0:0:0:0:
154,207,24650,1,8,0:0:0:0:
274,31,24812,2,0,L|243:121,1,90,2|0,0:0|0:0,0:0:0:0:
154,207,25137,1,2,0:0:0:0:
370,146,25299,1,8,0:0:0:0:
413,278,25461,6,0,L|288:251,1,90,6|0,0:0|0:0,0:0:0:0:
154,207,25785,1,2,0:0:0:0:
229,331,25947,1,8,0:0:0:0:
418,295,26110,2,0,L|293:268,1,90,6|0,0:0|0:0,0:0:0:0:
244,116,26434,5,2,0:0:0:0:
244,116,26515,1,2,0:0:0:0:
244,116,26596,2,0,L|311:104,1,45,2|2,0:0|0:0,0:0:0:0:
337,12,26758,2,0,L|292:19,1,45,2|0,0:0|0:0,0:0:0:0:
139,48,26920,6,0,L|31:66,1,90,6|0,0:0|0:0,0:0:0:0:
13,192,27245,1,2,0:0:0:0:
107,236,27407,2,0,P|118:192|110:149,1,90,0|2,0:0|0:0,0:0:0:0:
20,290,27731,2,0,L|61:390,1,90,0|2,0:0|0:0,0:0:0:0:
161,320,28056,1,8,0:0:0:0:
342,370,28218,6,0,L|450:352,1,90,2|0,0:0|0:0,0:0:0:0:
483,224,28542,1,2,0:0:0:0:
388,179,28704,2,0,P|377:222|385:266,1,90,0|2,0:0|0:0,0:0:0:0:
476,126,29029,1,8,0:0:0:0:
352,80,29191,2,0,B|284:72|284:72|200:83,1,135,10|0,0:0|0:0,0:0:0:0:
201,89,29515,6,0,L|219:197,1,90,2|0,0:0|0:0,0:0:0:0:
131,273,29839,1,2,0:0:0:0:
32,253,30002,2,0,P|52:212|87:184,1,90,0|2,0:0|0:0,0:0:0:0:
239,298,30326,2,0,P|194:295|149:290,1,90,0|2,0:0|0:0,0:0:0:0:
287,201,30650,1,8,0:0:0:0:
419,354,30812,6,0,P|446:305|446:266,1,90,2|0,0:0|0:0,0:0:0:0:
287,201,31137,1,2,0:0:0:0:
347,280,31299,1,0,0:0:0:0:
318,98,31461,1,2,0:0:0:0:
383,183,31623,1,0,0:0:0:0:
276,349,31785,2,0,B|210:340|210:340|129:352,1,135,14|0,0:0|0:0,0:0:0:0:
123,335,32110,6,0,L|141:227,1,90,2|0,0:0|0:0,0:0:0:0:
31,290,32434,1,2,0:0:0:0:
194,157,32596,2,0,P|150:146|106:154,1,90,0|2,0:0|0:0,0:0:0:0:
11,44,32920,2,0,P|55:55|99:47,1,90,0|2,0:0|0:0,0:0:0:0:
279,24,33245,1,8,0:0:0:0:
388,197,33407,6,0,L|370:305,1,90,2|0,0:0|0:0,0:0:0:0:
242,338,33731,1,2,0:0:0:0:
197,243,33893,2,0,P|240:232|284:240,1,90,0|2,0:0|0:0,0:0:0:0:
123,335,34218,1,8,0:0:0:0:
83,211,34380,2,0,B|62:128|62:128|86:59,1,135,10|0,0:0|0:0,0:0:0:0:
100,60,34704,6,0,L|209:62,1,90,2|0,0:0|0:0,0:0:0:0:
279,181,35029,1,2,0:0:0:0:
197,243,35191,2,0,P|181:201|181:157,1,90,0|2,0:0|0:0,0:0:0:0:
300,8,35515,2,0,P|315:49|315:93,1,90,0|2,0:0|0:0,0:0:0:0:
493,93,35839,1,8,0:0:0:0:
442,229,36002,6,0,P|441:273|457:315,1,90,6|2,0:0|0:0,0:0:0:0:
251,352,36326,2,0,L|189:366,1,45,14|0,0:0|0:0,0:0:0:0:
148,283,36488,2,0,L|106:298,1,45,2|2,0:0|0:0,0:0:0:0:
0,332,36650,1,6,0:0:0:0:
26,182,36812,1,2,0:0:0:0:
26,182,36893,1,2,0:0:0:0:
26,182,36974,1,2,0:0:0:0:
148,283,37137,1,2,0:0:0:0:
224,84,37299,5,6,0:0:0:0:
318,187,37461,1,0,0:0:0:0:
156,160,37623,1,8,0:0:0:0:
318,187,37785,2,0,B|367:181|367:181|431:187,1,90,0|2,0:0|0:0,0:0:0:0:
366,284,38110,1,2,0:0:0:0:
475,246,38272,2,0,P|494:167|471:118,1,135,8|0,0:0|0:0,0:0:0:0:
456,108,38596,5,2,0:0:0:0:
228,103,38758,1,0,0:0:0:0:
410,27,38920,1,8,0:0:0:0:
228,103,39083,2,0,B|179:109|179:109|115:103,1,90,0|2,0:0|0:0,0:0:0:0:
180,6,39407,1,2,0:0:0:0:
71,44,39569,2,0,P|52:123|75:172,1,135,8|0,0:0|0:0,0:0:0:0:
88,188,39893,5,2,0:0:0:0:
293,242,40056,1,0,0:0:0:0:
109,299,40218,1,8,0:0:0:0:
312,252,40380,1,0,0:0:0:0:
179,196,40542,1,2,0:0:0:0:
264,358,40704,2,0,B|215:364|215:364|151:358,2,90,2|8|0,0:0|0:0|0:0,0:0:0:0:
406,252,41191,5,2,0:0:0:0:
470,164,41353,1,2,0:0:0:0:
299,143,41515,1,8,0:0:0:0:
404,353,41677,1,0,0:0:0:0:
217,269,41839,5,2,0:0:0:0:
406,252,42002,1,2,0:0:0:0:
264,358,42164,1,8,0:0:0:0:
299,143,42326,1,2,0:0:0:0:
299,143,42407,1,2,0:0:0:0:
299,143,42488,5,2,0:0:0:0:
89,174,42650,1,0,0:0:0:0:
217,269,42812,1,8,0:0:0:0:
195,109,42974,2,0,P|186:61|170:7,1,90,0|2,0:0|0:0,0:0:0:0:
319,255,43299,1,2,0:0:0:0:
371,88,43461,2,0,P|433:72|506:99,1,135,8|0,0:0|0:0,0:0:0:0:
511,167,43785,6,0,L|500:269,1,90,2|0,0:0|0:0,0:0:0:0:
369,175,44110,1,8,0:0:0:0:
491,219,44272,2,0,L|480:321,1,90,0|2,0:0|0:0,0:0:0:0:
319,255,44596,1,2,0:0:0:0:
471,271,44758,2,0,B|465:334|465:334|446:370|406:375,1,135,8|0,0:0|0:0,0:0:0:0:
387,381,45083,5,2,0:0:0:0:
247,214,45245,1,0,0:0:0:0:
391,294,45407,1,8,0:0:0:0:
212,324,45569,2,0,P|162:336|117:325,1,90,0|2,0:0|0:0,0:0:0:0:
159,218,45893,2,0,P|202:206|247:214,1,90,2|8,0:0|0:0,0:0:0:0:
63,155,46218,1,0,0:0:0:0:
63,155,46380,5,6,0:0:0:0:
46,23,46542,1,2,0:0:0:0:
209,28,46704,1,12,0:0:0:0:
142,226,46866,1,2,0:0:0:0:
321,123,47029,1,2,0:0:0:0:
360,253,47191,1,2,0:0:0:0:
142,226,47353,2,0,P|185:196|262:196,1,90,8|0,0:0|0:0,0:0:0:0:
158,340,47677,5,6,0:0:0:0:
225,277,47839,2,0,P|248:336|247:358,1,67.5000025749208,2|2,0:0|0:0,0:0:0:0:
75,291,48164,2,0,P|52:232|53:210,1,67.5000025749208,2|2,0:0|0:0,0:0:0:0:
158,340,48488,1,2,0:0:0:0:
167,179,48974,5,2,0:0:0:0:
234,116,49137,2,0,P|257:175|256:197,1,67.5000025749208,2|2,0:0|0:0,0:0:0:0:
122,67,49461,2,0,P|161:17|181:7,1,67.5000025749208,2|2,0:0|0:0,0:0:0:0:
167,179,49785,1,2,0:0:0:0:
167,179,50272,5,2,0:0:0:0:
167,179,50596,5,2,0:0:0:0:
255,173,50758,1,2,0:0:0:0:
287,254,50920,1,2,0:0:0:0:
220,310,51083,1,2,0:0:0:0:
146,263,51245,1,2,0:0:0:0:
146,263,51569,6,0,B|121:210|121:210|127:164|127:164|100:100,1,161.999995056153,2|0,0:0|0:0,0:0:0:0:
99,113,52218,2,0,B|120:164|120:164|114:210|114:210|139:264,1,161.999995056153,2|0,0:0|0:0,0:0:0:0:
206,323,52866,5,2,0:0:0:0:
274,253,53029,2,0,L|340:240,1,67.5000025749208,2|2,0:0|0:0,0:0:0:0:
391,357,53353,2,0,L|324:369,1,67.5000025749208,2|2,0:0|0:0,0:0:0:0:
206,323,53677,1,2,0:0:0:0:
281,135,54164,5,2,0:0:0:0:
348,198,54326,2,0,P|371:139|370:117,1,67.5000025749208,2|2,0:0|0:0,0:0:0:0:
253,250,54650,2,0,L|247:317,1,67.5000025749208,2|2,0:0|0:0,0:0:0:0:
281,135,54974,1,2,0:0:0:0:
281,135,55461,5,2,0:0:0:0:
281,135,55785,5,2,0:0:0:0:
220,5,55947,1,2,0:0:0:0:
192,144,56110,1,2,0:0:0:0:
296,49,56272,1,2,0:0:0:0:
156,65,56434,2,0,L|29:74,1,101.250003862381,2|0,0:0|0:0,0:0:0:0:
9,151,56758,6,0,P|2:196|5:241,1,90,10|2,0:0|0:0,0:0:0:0:
115,357,57083,2,0,P|117:312|110:267,1,90,10|2,0:0|0:0,0:0:0:0:
267,305,57407,6,0,L|314:320,1,45,10|0,0:0|0:0,0:0:0:0:
478,354,57569,2,0,L|436:369,1,45,10|0,0:0|0:0,0:0:0:0:
354,237,57731,2,0,P|414:209|478:228,1,135,10|0,0:0|0:0,0:0:0:0:
477,227,58056,5,6,0:0:0:0:
420,116,58218,1,2,0:0:0:0:
512,17,58380,1,8,0:0:0:0:
420,116,58542,2,0,L|306:90,1,90,2|0,0:0|0:0,0:0:0:0:
132,159,58866,1,2,0:0:0:0:
249,169,59029,1,8,0:0:0:0:
50,217,59191,6,0,B|28:151|28:151|41:86,1,135,2|0,0:0|0:0,0:0:0:0:
40,86,59515,1,2,0:0:0:0:
202,89,59677,1,8,0:0:0:0:
183,256,59839,2,0,L|167:365,1,90,2|0,0:0|0:0,0:0:0:0:
87,298,60164,1,2,0:0:0:0:
290,359,60326,2,0,P|371:374|435:342,1,135,12|0,0:0|0:0,0:0:0:0:
418,355,60650,5,6,0:0:0:0:
416,207,60812,1,2,0:0:0:0:
310,122,60974,1,8,0:0:0:0:
416,207,61137,2,0,L|530:181,1,90,2|0,0:0|0:0,0:0:0:0:
310,122,61461,1,2,0:0:0:0:
344,281,61623,1,8,0:0:0:0:
140,371,61785,6,0,B|114:307|114:307|127:242,1,135,2|0,0:0|0:0,0:0:0:0:
126,242,62110,1,2,0:0:0:0:
221,291,62272,1,8,0:0:0:0:
65,155,62434,2,0,P|106:135|158:139,1,90,2|0,0:0|0:0,0:0:0:0:
311,173,62758,1,2,0:0:0:0:
221,291,62920,1,12,0:0:0:0:
416,159,63083,1,2,0:0:0:0:
412,179,63164,1,2,0:0:0:0:
407,197,63245,5,6,0:0:0:0:
293,339,63407,1,2,0:0:0:0:
459,300,63569,1,8,0:0:0:0:
293,339,63731,2,0,P|304:289|300:234,1,90,2|0,0:0|0:0,0:0:0:0:
231,91,64056,1,2,0:0:0:0:
146,216,64218,1,8,0:0:0:0:
315,142,64380,6,0,B|329:99|329:99|308:2,1,135,2|0,0:0|0:0,0:0:0:0:
310,11,64704,1,2,0:0:0:0:
231,176,64866,1,8,0:0:0:0:
416,159,65029,2,0,L|528:148,1,90,2|0,0:0|0:0,0:0:0:0:
500,276,65353,1,2,0:0:0:0:
318,241,65515,2,0,P|291:301|310:365,1,135,12|0,0:0|0:0,0:0:0:0:
309,364,65839,5,6,0:0:0:0:
419,248,66002,1,2,0:0:0:0:
312,140,66164,1,8,0:0:0:0:
419,248,66326,2,0,L|415:158,1,90,2|0,0:0|0:0,0:0:0:0:
340,5,66650,1,2,0:0:0:0:
312,140,66812,1,8,0:0:0:0:
139,100,66974,6,0,B|96:86|96:86|-1:107,1,135,2|0,0:0|0:0,0:0:0:0:
8,104,67299,1,2,0:0:0:0:
103,215,67461,1,8,0:0:0:0:
216,60,67623,2,0,P|227:104|215:147,1,90,6|0,0:0|0:0,0:0:0:0:
77,211,67947,1,2,0:0:0:0:
50,205,68029,1,2,0:0:0:0:
25,197,68110,1,2,0:0:0:0:
134,310,68272,1,2,0:0:0:0:
161,304,68353,1,2,0:0:0:0:
186,296,68434,5,6,0:0:0:0:
299,231,68596,1,2,0:0:0:0:
222,382,68758,1,8,0:0:0:0:
299,231,68920,2,0,P|315:289|304:332,1,90,2|0,0:0|0:0,0:0:0:0:
202,172,69245,1,2,0:0:0:0:
370,151,69407,1,8,0:0:0:0:
183,181,69569,6,0,B|142:187|142:187|88:175|88:175|32:177,1,135,2|0,0:0|0:0,0:0:0:0:
49,176,69893,1,2,0:0:0:0:
153,97,70056,1,8,0:0:0:0:
68,271,70218,2,0,P|52:315|62:375,1,90,2|0,0:0|0:0,0:0:0:0:
157,330,70542,1,2,0:0:0:0:
266,107,70704,2,0,P|294:168|275:232,1,135,12|0,0:0|0:0,0:0:0:0:
276,230,71029,5,6,0:0:0:0:
202,172,71191,1,2,0:0:0:0:
383,188,71353,1,8,0:0:0:0:
188,257,71515,2,0,P|184:213|201:171,1,90,2|0,0:0|0:0,0:0:0:0:
292,16,71839,1,2,0:0:0:0:
383,188,72002,1,8,0:0:0:0:
266,107,72164,6,0,B|304:109|304:109|358:97|358:97|399:103,1,135,2|0,0:0|0:0,0:0:0:0:
399,103,72488,1,2,0:0:0:0:
292,16,72650,1,8,0:0:0:0:
484,156,72812,2,0,P|495:113|486:70,1,90,2|0,0:0|0:0,0:0:0:0:
383,188,73137,1,2,0:0:0:0:
498,273,73299,1,12,0:0:0:0:
351,334,73461,1,2,0:0:0:0:
324,338,73542,1,2,0:0:0:0:
298,346,73623,5,6,0:0:0:0:
159,296,73785,1,2,0:0:0:0:
299,191,73947,1,8,0:0:0:0:
89,350,74110,2,0,P|72:311|86:243,1,90,2|0,0:0|0:0,0:0:0:0:
140,75,74434,1,2,0:0:0:0:
208,202,74596,1,8,0:0:0:0:
379,83,74758,6,0,B|291:76|291:76|229:109,1,135,2|0,0:0|0:0,0:0:0:0:
249,97,75083,1,2,0:0:0:0:
370,207,75245,1,8,0:0:0:0:
464,30,75407,2,0,P|477:98|455:143,1,90,2|0,0:0|0:0,0:0:0:0:
370,207,75731,1,2,0:0:0:0:
239,122,75893,2,0,L|267:277,1,135,12|0,0:0|0:0,0:0:0:0:
262,254,76218,5,6,0:0:0:0:
121,186,76380,1,2,0:0:0:0:
142,343,76542,1,8,0:0:0:0:
129,99,76704,2,0,P|85:109|51:137,1,90,2|0,0:0|0:0,0:0:0:0:
179,250,77029,1,2,0:0:0:0:
239,121,77191,1,8,0:0:0:0:
23,275,77353,6,0,L|165:253,1,135,6|0,0:0|0:0,0:0:0:0:
179,250,77677,1,2,0:0:0:0:
119,348,77839,1,8,0:0:0:0:
129,218,78002,2,0,L|219:205,1,90,6|0,0:0|0:0,0:0:0:0:
433,193,78326,5,2,0:0:0:0:
353,311,78488,2,0,L|344:252,1,45,2|2,0:0|0:0,0:0:0:0:
446,120,78650,2,0,L|455:179,1,45,2|2,0:0|0:0,0:0:0:0:
312,173,78812,5,2,0:0:0:0:
256,192,78893,12,6,81407,0:0:0:0:
