osu file format v14

[General]
AudioFilename: audio.mp3
AudioLeadIn: 0
PreviewTime: 115253
Countdown: 0
SampleSet: Soft
StackLeniency: 0.4
Mode: 0
LetterboxInBreaks: 0
WidescreenStoryboard: 0

[Editor]
Bookmarks: 11913,13190,23403,33615,43828,53721,61381,64254,74466,84041,94892,99998,105104,115317,122658,135743,140849,145955,156168,166381,176594,187764,188083,208509,212658,218721,228296
DistanceSpacing: 1.1
BeatDivisor: 2
GridSize: 16
TimelineZoom: 1.6

[Metadata]
Title:Chiisana Lion feat. Minami (CV: Toyonaga Toshiyuki)
TitleUnicode:小さなライオン feat. 南 (CV: 豊永利行)
Artist:LIP x LIP
ArtistUnicode:LIP×LIP
Creator:Jian
Version:Allegiance
Source:
Tags:どっちのkissか、選べよ。 Docchi no kiss ka, Erabe yo. 告白実行委員会~アイドルシリーズ~ Kokuhaku Jikkou Iinkai ~Idol Series~ ふてニャン Futenyan 染谷勇次郎 Someya Yuujirou 柴崎愛蔵 Shibasaki Aizou 内山昂輝 Uchiyama Kouki 島﨑信長 Shimazaki Nobunaga Y!Mobile Japanese Pop JPop J-Pop full size SeaRasp kanor Kyle Y Nikakis SkyFlame Serizawa Haruki Jack J_a_c_k walaowey KittyAdventure gokugohan12468 Kyle_Y honeyworks ハニーワークス ハニワ
BeatmapID:1890080
BeatmapSetID:905572

[Difficulty]
HPDrainRate:5.7
CircleSize:3.6
OverallDifficulty:9
ApproachRate:9.3
SliderMultiplier:1.8
SliderTickRate:1

[Events]
//Background and Video events
Video,0,"video.mp4"
0,0,"chisana.jpg",0,0
//Break Periods
2,177886,186268
//Storyboard Layer 0 (Background)
//Storyboard Layer 1 (Fail)
//Storyboard Layer 2 (Pass)
//Storyboard Layer 3 (Foreground)
//Storyboard Layer 4 (Overlay)
//Storyboard Sound Samples

[TimingPoints]
440,319.148936170213,4,2,1,55,1,0
1238,-100,4,2,1,55,0,0
1716,-100,4,2,1,55,0,0
1955,-100,4,2,1,5,0,0
2035,-100,4,2,1,55,0,0
3232,-100,4,2,1,5,0,0
3312,-100,4,2,1,55,0,0
8338,-100,4,2,1,5,0,0
8418,-100,4,2,1,55,0,0
13206,-133.333333333333,4,2,1,40,0,0
13445,-133.333333333333,4,2,1,5,0,0
13525,-133.333333333333,4,2,1,40,0,0
15998,-133.333333333333,4,2,1,5,0,0
16078,-133.333333333333,4,2,1,40,0,0
19509,-133.333333333333,4,2,1,5,0,0
19588,-133.333333333333,4,2,1,40,0,0
21104,-133.333333333333,4,2,1,5,0,0
21184,-133.333333333333,4,2,1,40,0,0
23338,-133.333333333333,4,2,1,5,0,0
23418,-117.647058823529,4,2,1,50,0,0
25572,-117.647058823529,4,2,1,5,0,0
25652,-117.647058823529,4,2,1,50,0,0
26211,-117.647058823529,4,2,1,5,0,0
26291,-117.647058823529,4,2,1,50,0,0
27168,-117.647058823529,4,2,1,5,0,0
27248,-117.647058823529,4,2,1,50,0,0
28445,-117.647058823529,4,2,1,5,0,0
28525,-117.647058823529,4,2,1,50,0,0
28764,-117.647058823529,4,2,1,5,0,0
28844,-117.647058823529,4,2,1,50,0,0
30679,-117.647058823529,4,2,1,5,0,0
30759,-117.647058823529,4,2,1,50,0,0
30998,-117.647058823529,4,2,1,5,0,0
31078,-117.647058823529,4,2,1,50,0,0
31317,-117.647058823529,4,2,1,5,0,0
31397,-117.647058823529,4,2,1,50,0,0
33870,-117.647058823529,4,2,1,5,0,0
33950,-117.647058823529,4,2,1,50,0,0
35147,-117.647058823529,4,2,1,5,0,0
35227,-117.647058823529,4,2,1,50,0,0
35466,-117.647058823529,4,2,1,5,0,0
35546,-117.647058823529,4,2,1,50,0,0
36104,-117.647058823529,4,2,1,5,0,0
36184,-117.647058823529,4,2,1,50,0,0
38977,-117.647058823529,4,2,1,5,0,0
39057,-117.647058823529,4,2,1,50,0,0
40253,-117.647058823529,4,2,1,5,0,0
40333,-117.647058823529,4,2,1,50,0,0
41291,-117.647058823529,4,2,1,50,0,0
42567,-117.647058823529,4,2,1,55,0,0
42886,-105.263157894737,4,2,1,60,0,0
43205,-95.2380952380952,4,2,1,65,0,0
43525,-86.9565217391304,4,2,1,70,0,0
43844,-95.2380952380952,4,2,1,70,0,1
44083,-95.2380952380952,4,2,1,5,0,1
44163,-95.2380952380952,4,2,1,70,0,1
45360,-95.2380952380952,4,2,1,5,0,1
45440,-95.2380952380952,4,2,1,70,0,1
46636,-95.2380952380952,4,2,1,5,0,1
46716,-95.2380952380952,4,2,1,70,0,1
53418,-95.2380952380952,4,2,1,60,0,0
54057,-95.2380952380952,4,2,1,70,0,1
56849,-95.2380952380952,4,2,1,5,0,1
56929,-95.2380952380952,4,2,1,70,0,1
59083,-95.2380952380952,4,2,1,5,0,1
59163,-95.2380952380952,4,2,1,70,0,1
60679,-95.2380952380952,4,2,1,5,0,1
60759,-95.2380952380952,4,2,1,70,0,1
61636,-95.2380952380952,4,2,1,5,0,1
61716,-95.2380952380952,4,2,1,60,0,0
61955,-95.2380952380952,4,2,1,5,0,0
62035,-95.2380952380952,4,2,1,60,0,0
64269,-95.2380952380952,4,2,1,70,0,1
65546,-95.2380952380952,4,2,1,60,0,0
65785,-95.2380952380952,4,2,1,5,0,0
65865,-95.2380952380952,4,2,1,60,0,0
66822,-133.333333333333,4,2,1,60,0,0
67062,-133.333333333333,4,2,1,5,0,0
67142,-95.2380952380951,4,2,1,60,0,0
67461,-133.333333333333,4,2,1,60,0,0
67700,-133.333333333333,4,2,1,5,0,0
67780,-95.2380952380952,4,2,1,60,0,0
68099,-133.333333333333,4,2,1,55,0,0
68418,-117.647058823529,4,2,1,60,0,0
68737,-105.263157894737,4,2,1,65,0,0
69057,-95.2380952380951,4,2,1,70,0,0
69376,-95.2380952380951,4,2,1,70,0,1
70652,-95.2380952380951,4,2,1,60,0,0
70892,-95.2380952380951,4,2,1,5,0,0
70971,-95.2380952380951,4,2,1,60,0,0
71849,-95.2380952380951,4,2,1,5,0,0
71929,-95.2380952380951,4,2,1,60,0,0
73445,-95.2380952380951,4,2,1,5,0,0
73525,-95.2380952380951,4,2,1,60,0,0
73764,-95.2380952380951,4,2,1,5,0,0
73844,-95.2380952380951,4,2,1,60,0,0
74083,-95.2380952380951,4,2,1,5,0,0
74163,-95.2380952380951,4,2,1,60,0,0
74482,-100,4,2,1,55,0,0
74721,-100,4,2,1,5,0,0
74801,-100,4,2,1,55,0,0
75998,-100,4,2,1,5,0,0
76078,-100,4,2,1,55,0,0
77275,-100,4,2,1,5,0,0
77354,-100,4,2,1,55,0,0
79828,-100,4,2,1,5,0,0
79908,-100,4,2,1,55,0,0
81104,-100,4,2,1,5,0,0
81184,-100,4,2,1,55,0,0
82062,-100,4,2,1,5,0,0
82142,-100,4,2,1,55,0,0
84695,-133.333333333333,4,2,1,40,0,0
87487,-133.333333333333,4,2,1,5,0,0
87567,-133.333333333333,4,2,1,40,0,0
89721,-133.333333333333,4,2,1,5,0,0
89801,-133.333333333333,4,2,1,40,0,0
92275,-133.333333333333,4,2,1,5,0,0
92354,-133.333333333333,4,2,1,40,0,0
105120,-117.647058823529,4,2,1,50,0,0
107913,-117.647058823529,4,2,1,5,0,0
107993,-117.647058823529,4,2,1,50,0,0
110466,-117.647058823529,4,2,1,5,0,0
110546,-117.647058823529,4,2,1,60,0,0
114057,-117.647058823529,4,2,1,55,0,0
114376,-105.263157894737,4,2,1,60,0,0
114695,-95.2380952380951,4,2,1,65,0,0
115014,-86.9565217391304,4,2,1,70,0,0
115333,-95.2380952380952,4,2,1,70,0,1
115572,-95.2380952380952,4,2,1,5,0,1
115652,-95.2380952380952,4,2,1,70,0,1
116849,-95.2380952380952,4,2,1,5,0,1
116929,-95.2380952380952,4,2,1,70,0,1
118126,-95.2380952380952,4,2,1,5,0,1
118205,-95.2380952380952,4,2,1,70,0,1
120679,-95.2380952380952,4,2,1,5,0,1
120759,-95.2380952380952,4,2,1,70,0,1
124908,-95.2380952380952,4,2,1,60,0,0
125546,-95.2380952380952,4,2,1,70,0,1
128338,-95.2380952380952,4,2,1,5,0,1
128418,-95.2380952380952,4,2,1,70,0,1
132168,-95.2380952380952,4,2,1,5,0,1
132248,-95.2380952380952,4,2,1,70,0,1
133205,-95.2380952380952,4,2,1,60,0,0
133445,-95.2380952380952,4,2,1,5,0,0
133525,-95.2380952380952,4,2,1,60,0,0
135759,-95.2380952380952,4,2,1,70,0,1
137035,-95.2380952380952,4,2,1,60,0,0
137275,-95.2380952380952,4,2,1,5,0,0
137354,-95.2380952380952,4,2,1,60,0,0
138312,-133.333333333333,4,2,1,60,0,0
138551,-133.333333333333,4,2,1,5,0,0
138631,-95.2380952380951,4,2,1,60,0,0
138950,-133.333333333333,4,2,1,60,0,0
139190,-133.333333333333,4,2,1,5,0,0
139269,-95.2380952380952,4,2,1,60,0,0
139588,-133.333333333333,4,2,1,55,0,0
139908,-117.647058823529,4,2,1,60,0,0
140227,-105.263157894737,4,2,1,65,0,0
140546,-95.2380952380951,4,2,1,70,0,0
140865,-95.2380952380951,4,2,1,70,0,1
142142,-95.2380952380951,4,2,1,60,0,0
142381,-95.2380952380951,4,2,1,5,0,0
142461,-95.2380952380951,4,2,1,60,0,0
143019,-95.2380952380951,4,2,1,5,0,0
143099,-95.2380952380951,4,2,1,60,0,0
144934,-95.2380952380951,4,2,1,5,0,0
145014,-95.2380952380951,4,2,1,60,0,0
145253,-95.2380952380951,4,2,1,5,0,0
145333,-95.2380952380951,4,2,1,60,0,0
145572,-95.2380952380951,4,2,1,5,0,0
145652,-95.2380952380951,4,2,1,60,0,0
145971,-105.263157894737,4,2,1,55,0,0
148445,-117.647058823529,4,2,1,5,0,0
148525,-117.647058823529,4,2,1,55,0,0
152594,-117.647058823529,4,2,1,5,0,0
152674,-117.647058823529,4,2,1,55,0,0
153551,-117.647058823529,4,2,1,5,0,0
153631,-117.647058823529,4,2,1,55,0,0
156104,-111.111111111111,4,2,1,60,0,0
156424,-111.111111111111,4,2,1,5,0,0
156503,-111.111111111111,4,2,1,60,0,0
157381,-111.111111111111,4,2,1,5,0,0
157461,-111.111111111111,4,2,1,60,0,0
157700,-111.111111111111,4,2,1,5,0,0
157780,-111.111111111111,4,2,1,60,0,0
158658,-111.111111111111,4,2,1,5,0,0
158737,-111.111111111111,4,2,1,60,0,0
158977,-111.111111111111,4,2,1,5,0,0
159057,-111.111111111111,4,2,1,60,0,0
159934,-111.111111111111,4,2,1,5,0,0
160014,-111.111111111111,4,2,1,60,0,0
161211,-111.111111111111,4,2,1,5,0,0
161291,-111.111111111111,4,2,1,60,0,0
162487,-111.111111111111,4,2,1,5,0,0
162567,-111.111111111111,4,2,1,60,0,0
163764,-111.111111111111,4,2,1,5,0,0
163844,-111.111111111111,4,2,1,60,0,0
164083,-111.111111111111,4,2,1,5,0,0
164163,-111.111111111111,4,2,1,60,0,0
166636,-111.111111111111,4,2,1,5,0,0
166716,-111.111111111111,4,2,1,60,0,0
167594,-111.111111111111,4,2,1,5,0,0
167674,-111.111111111111,4,2,1,60,0,0
168870,-111.111111111111,4,2,1,5,0,0
168950,-111.111111111111,4,2,1,60,0,0
174695,-111.111111111111,4,2,1,70,0,0
175014,-111.111111111111,4,2,1,80,0,0
175333,-111.111111111111,4,2,1,50,0,0
175652,-99.9999999999999,4,2,1,60,0,0
175971,-90.9090909090909,4,2,1,70,0,0
176291,-90.9090909090909,4,2,1,80,0,0
186822,-111.111111111111,4,2,1,50,0,0
187461,-90.9090909090909,4,2,1,55,0,0
187780,-80,4,2,1,55,0,0
188099,-95.2380952380952,4,2,1,70,0,1
188338,-95.2380952380952,4,2,1,5,0,1
188418,-95.2380952380952,4,2,1,70,0,1
189296,-95.2380952380952,4,2,1,5,0,1
189376,-95.2380952380952,4,2,1,70,0,1
189615,-95.2380952380952,4,2,1,5,0,1
189695,-95.2380952380952,4,2,1,70,0,1
190892,-95.2380952380952,4,2,1,5,0,1
190971,-95.2380952380952,4,2,1,70,0,1
193445,-95.2380952380952,4,2,1,5,0,1
193525,-95.2380952380952,4,2,1,70,0,1
194402,-95.2380952380952,4,2,1,5,0,1
194482,-95.2380952380952,4,2,1,70,0,1
197035,-90.9090909090909,4,2,1,60,0,1
197674,-90.9090909090909,4,2,1,60,0,0
198312,-95.2380952380952,4,2,1,70,0,1
201104,-95.2380952380952,4,2,1,5,0,1
201184,-95.2380952380952,4,2,1,70,0,1
203658,-95.2380952380952,4,2,1,5,0,1
203737,-95.2380952380952,4,2,1,70,0,1
205892,-95.2380952380952,4,2,1,5,0,1
205971,-90.9090909090909,4,2,1,60,0,0
206211,-95.2380952380952,4,2,1,5,0,0
206291,-95.2380952380952,4,2,1,60,0,0
207248,-95.2380952380952,4,2,1,60,0,0
207727,-95.2380952380952,4,2,1,60,0,0
208525,-95.2380952380952,4,2,1,70,0,1
209801,-95.2380952380952,4,2,1,60,0,0
210041,-95.2380952380952,4,2,1,5,0,0
210120,-95.2380952380952,4,2,1,60,0,0
211078,-133.333333333333,4,2,1,60,0,0
211317,-95.2380952380952,4,2,1,5,0,0
211397,-95.2380952380952,4,2,1,60,0,0
211716,-95.2380952380952,4,2,1,60,0,0
211876,-95.2380952380952,4,2,1,60,0,0
212035,-95.2380952380952,4,2,1,60,0,0
212354,-133.333333333333,4,2,1,55,0,0
212674,-117.647058823529,4,2,1,60,0,0
212993,-105.263157894737,4,2,1,65,0,0
213312,-95.2380952380951,4,2,1,70,0,0
213631,-95.2380952380951,4,2,1,70,0,1
214908,-95.2380952380951,4,2,1,60,0,0
215147,-95.2380952380951,4,2,1,5,0,0
215227,-95.2380952380951,4,2,1,60,0,0
216104,-95.2380952380951,4,2,1,5,0,0
216184,-95.2380952380951,4,2,1,60,0,0
217700,-95.2380952380951,4,2,1,5,0,0
217780,-95.2380952380951,4,2,1,60,0,0
218019,-95.2380952380951,4,2,1,5,0,0
218099,-95.2380952380951,4,2,1,60,0,0
218338,-95.2380952380951,4,2,1,5,0,0
218418,-95.2380952380951,4,2,1,60,0,0
218737,-100,4,2,1,55,0,0
218977,-100,4,2,1,5,0,0
219057,-100,4,2,1,55,0,0
220253,-100,4,2,1,5,0,0
220333,-100,4,2,1,55,0,0
221530,-100,4,2,1,5,0,0
221610,-100,4,2,1,55,0,0
224083,-100,4,2,1,5,0,0
224163,-100,4,2,1,55,0,0
225360,-100,4,2,1,5,0,0
225440,-100,4,2,1,55,0,0
226317,-100,4,2,1,5,0,0
226397,-100,4,2,1,55,0,0
227674,-100,4,2,1,65,0,0
227993,-100,4,2,1,75,0,0
228312,-100,4,2,1,85,0,0
229081,319.148936170213,4,2,1,20,1,0
229081,-100,4,2,1,20,0,0
229190,462.962962962963,4,2,1,30,1,0
229190,-117.647058823529,4,2,1,30,0,0
229305,-117.647058823529,4,2,1,5,0,0
230000,-117.647058823529,4,2,1,5,0,0
230115,490.998363338789,4,2,1,25,1,0
230115,-62.5,4,2,1,25,0,0
230237,-62.5,4,2,1,5,0,0
230974,-62.5,4,2,1,25,0,0
231096,542.005420054201,4,2,1,35,1,0
231096,-116.279069767442,4,2,1,35,0,0
231231,-116.279069767442,4,2,1,5,0,0
232044,-116.279069767442,4,2,1,5,0,0
232180,645.50833781603,4,2,1,30,1,0
232180,-117.647058823529,4,2,1,30,0,0
232341,-117.647058823529,4,2,1,5,0,0
233148,-117.647058823529,4,2,1,30,0,0
233471,-117.647058823529,4,2,1,35,0,0
238635,-117.647058823529,4,2,1,5,0,0

[Colours]
Combo1 : 166,166,255
Combo2 : 253,104,100
Combo3 : 250,176,133
Combo4 : 243,237,112
Combo5 : 247,157,157
Combo6 : 106,181,255

[HitObjects]
287,260,1237,5,0,1:0:0:0:
385,64,1397,1,8,0:0:0:0:
371,53,1717,6,0,B|297:43|292:104|221:85,1,135,6|0,1:2|0:0,0:0:0:0:
192,70,2036,2,0,P|217:117|229:171,1,90,8|0,0:0|0:0,0:0:0:0:
70,116,2355,2,0,P|45:163|33:217,1,90,2|0,1:2|1:0,0:0:0:0:
233,193,2674,2,0,P|280:168|334:156,1,90,10|0,0:0|0:0,0:0:0:0:
477,335,2993,6,0,B|385:309|426:381|310:341,1,135,2|0,1:2|0:0,0:0:0:0:
313,363,3312,2,0,P|287:294|267:268,1,90,10|0,0:0|0:0,0:0:0:0:
108,352,3631,2,0,P|180:363|213:359,1,90,2|0,1:2|1:0,0:0:0:0:
220,180,3951,2,0,P|173:237|160:267,1,90,10|0,0:0|0:0,0:0:0:0:
373,104,4270,6,0,P|419:161|432:191,1,90,2|0,1:2|0:0,0:0:0:0:
204,163,4589,2,0,P|157:220|144:250,1,90,10|0,0:0|0:0,0:0:0:0:
326,382,4908,1,2,1:2:0:0:
426,194,5068,1,2,1:2:0:0:
200,339,5227,1,10,0:0:0:0:
296,155,5387,1,2,0:0:0:0:
98,378,5546,6,0,P|83:278|54:189,1,180,2|8,1:2|0:0,0:0:0:0:
184,268,6025,1,2,0:0:0:0:
302,132,6185,1,2,1:2:0:0:
320,344,6344,1,2,1:2:0:0:
205,169,6504,2,0,P|180:104|161:74,1,90,10|0,0:0|0:0,0:0:0:0:
89,287,6823,6,0,P|155:354|254:332,1,180,6|8,1:2|0:0,0:0:0:0:
205,169,7302,1,0,0:0:0:0:
320,344,7461,2,0,P|338:274|336:238,1,90,2|0,1:2|1:0,0:0:0:0:
106,374,7780,2,0,P|88:304|90:268,1,90,10|0,0:0|0:0,0:0:0:0:
238,70,8099,6,0,P|237:143|221:203,1,135,2|0,1:2|0:0,0:0:0:0:
180,274,8419,2,0,P|113:260|65:255,1,90,8|0,0:0|0:0,0:0:0:0:
320,344,8737,2,0,P|387:330|435:325,1,90,2|0,1:2|1:0,0:0:0:0:
106,374,9057,2,0,P|39:360|-9:355,1,90,10|0,0:0|0:0,0:0:0:0:
277,268,9376,5,2,1:2:0:0:
32,194,9536,1,2,1:2:0:0:
303,182,9695,1,10,0:0:0:0:
106,374,9855,1,2,0:0:0:0:
189,80,10014,2,0,P|200:123|204:168,1,90,10|0,3:0|1:0,0:0:0:0:
194,251,10253,1,0,1:0:0:0:
194,251,10333,1,8,0:0:0:0:
289,91,10493,1,8,3:0:0:0:
31,193,10653,5,6,1:2:0:0:
246,7,10972,5,6,1:2:0:0:
256,368,11291,5,6,1:2:0:0:
256,368,11929,5,2,0:0:0:0:
286,285,12088,1,2,0:0:0:0:
210,213,12248,1,2,0:0:0:0:
310,134,12408,1,2,0:0:0:0:
169,72,12567,1,2,0:0:0:0:
359,0,12886,1,2,0:0:0:0:
62,20,13206,6,0,P|69:75|65:136,1,101.250003862381,6|0,1:2|0:0,0:0:0:0:
59,146,13525,1,10,0:0:0:0:
156,119,13685,1,8,0:0:0:0:
101,232,13844,2,0,P|111:291|109:330,1,67.5000025749208,2|0,0:0|1:0,0:0:0:0:
197,368,14163,2,0,P|199:334|207:301,1,67.5000025749208,10|0,0:0|0:0,0:0:0:0:
274,175,14482,5,2,1:2:0:0:
323,318,14642,1,0,0:0:0:0:
382,160,14802,1,8,0:0:0:0:
445,250,14961,1,8,0:0:0:0:
307,324,15121,2,0,P|275:313|241:308,1,67.5000025749208,2|0,0:0|1:0,0:0:0:0:
265,162,15440,2,0,P|237:141|207:126,1,67.5000025749208,10|0,0:0|0:0,0:0:0:0:
46,236,15759,6,0,B|109:221|94:271|161:252,1,101.250003862381,2|0,1:2|0:0,0:0:0:0:
168,252,16078,1,10,0:0:0:0:
140,172,16238,1,8,0:0:0:0:
90,296,16397,2,0,P|112:321|128:350,1,67.5000025749208,2|0,0:0|1:0,0:0:0:0:
1,259,16717,2,0,P|17:229|39:204,1,67.5000025749208,10|0,0:0|0:0,0:0:0:0:
242,131,17035,6,0,P|176:122|139:173,1,135.000005149842,2|8,1:2|0:0,0:0:0:0:
233,239,17514,1,10,0:0:0:0:
366,184,17674,2,0,P|437:171|518:177,1,135.000005149842,2|8,0:0|0:0,0:0:0:0:
499,173,18312,6,0,P|499:139|507:106,1,67.5000025749208,2|0,1:2|0:0,0:0:0:0:
406,32,18631,1,10,0:0:0:0:
326,110,18791,1,8,0:0:0:0:
232,0,18950,2,0,P|239:32|240:66,1,67.5000025749208,2|0,0:0|1:0,0:0:0:0:
305,208,19269,2,0,P|318:132|337:85,1,101.250003862381,10|0,0:0|0:0,0:0:0:0:
346,86,19589,5,2,1:2:0:0:
220,148,19748,1,0,0:0:0:0:
395,216,19908,1,8,0:0:0:0:
326,110,20068,1,8,0:0:0:0:
230,263,20227,2,0,P|216:293|210:326,1,67.5000025749208,2|0,0:0|1:0,0:0:0:0:
220,148,20546,2,0,P|170:130|142:129,1,67.5000025749208,10|0,0:0|0:0,0:0:0:0:
54,274,20865,6,0,P|140:253|151:224,1,101.250003862381,2|0,1:2|0:0,0:0:0:0:
153,218,21185,1,10,0:0:0:0:
210,326,21344,1,8,0:0:0:0:
370,245,21504,2,0,P|336:244|304:253,1,67.5000025749208,2|0,0:0|1:0,0:0:0:0:
460,344,21823,1,10,0:0:0:0:
312,384,21982,1,2,0:0:0:0:
385,158,22142,6,0,P|328:119|257:138,1,135.000005149842,2|8,1:2|0:0,0:0:0:0:
345,77,22621,1,10,0:0:0:0:
310,212,22780,1,2,0:0:0:0:
190,92,22940,1,0,1:0:0:0:
107,280,23099,2,0,P|84:201|61:155,1,101.250003862381,8|0,0:0|0:0,0:0:0:0:
60,158,23418,6,0,P|116:173|151:155,1,76.5000014591217,6|0,1:2|0:0,0:0:0:0:
261,77,23737,2,0,P|227:74|186:94,1,76.5000014591217,10|8,0:0|0:0,0:0:0:0:
310,212,24057,2,0,P|318:162|332:124,1,76.5000014591217,2|0,0:0|1:0,0:0:0:0:
173,16,24376,2,0,P|184:52|189:90,1,76.5000014591217,10|0,0:0|0:0,0:0:0:0:
341,115,24695,5,2,1:2:0:0:
214,207,24854,1,0,0:0:0:0:
372,322,25014,2,0,L|369:233,1,76.5000014591217,8|8,0:0|0:0,0:0:0:0:
239,98,25333,2,0,P|290:128|356:100,1,114.750002188683,2|0,0:0|0:0,0:0:0:0:
362,91,25652,2,0,P|406:69|446:76,1,76.5000014591217,10|0,0:0|0:0,0:0:0:0:
393,332,25971,6,0,L|387:194,1,114.750002188683,2|0,1:2|0:0,0:0:0:0:
385,187,26291,2,0,B|349:201|349:201|294:187,1,76.5000014591217,10|8,0:0|0:0,0:0:0:0:
166,93,26610,2,0,B|202:83|202:83|238:97,1,76.5000014591217,2|0,0:0|1:0,0:0:0:0:
107,298,26929,2,0,L|113:181,1,114.750002188683,10|0,0:0|0:0,0:0:0:0:
115,158,27248,5,2,1:2:0:0:
200,238,27408,1,0,0:0:0:0:
30,293,27567,2,0,L|114:298,1,76.5000014591217,8|10,0:0|0:0,0:0:0:0:
214,207,27886,1,2,0:0:0:0:
250,339,28046,1,0,1:0:0:0:
312,191,28205,2,0,P|354:168|433:200,1,114.750002188683,8|0,0:0|0:0,0:0:0:0:
445,209,28525,6,0,L|450:94,1,114.750002188683,2|0,1:2|0:0,0:0:0:0:
451,64,28844,2,0,P|419:54|372:74,1,76.5000014591217,10|8,0:0|0:0,0:0:0:0:
240,187,29163,2,0,P|275:200|311:190,1,76.5000014591217,2|0,0:0|1:0,0:0:0:0:
452,39,29482,2,0,P|420:29|373:49,1,76.5000014591217,10|0,0:0|0:0,0:0:0:0:
198,38,29801,5,2,1:2:0:0:
328,173,29961,1,0,0:0:0:0:
154,190,30120,2,0,L|156:99,1,76.5000014591217,8|8,0:0|0:0,0:0:0:0:
331,58,30440,2,0,L|327:190,1,114.750002188683,2|0,0:0|0:0,0:0:0:0:
327,211,30759,2,0,P|395:197|444:234,1,114.750002188683,10|0,0:0|0:0,0:0:0:0:
444,241,31078,6,0,P|436:303|433:373,1,114.750002188683,2|0,1:2|0:0,0:0:0:0:
433,382,31397,2,0,P|387:368|345:365,1,76.5000014591217,10|8,0:0|0:0,0:0:0:0:
257,278,31717,1,2,0:0:0:0:
431,218,31876,1,2,1:2:0:0:
329,369,32036,1,10,0:0:0:0:
327,172,32195,2,0,L|327:229,1,38.2500007295609,2|0,0:0|0:0,0:0:0:0:
235,366,32354,6,0,P|175:378|136:353,1,76.5000014591217,2|0,1:2|1:0,0:0:0:0:
294,248,32674,1,10,0:0:0:0:
120,206,32833,1,2,0:0:0:0:
327,139,32993,5,10,3:0:0:0:
192,294,33152,1,8,3:0:0:0:
263,76,33312,1,4,3:0:0:0:
377,287,33471,1,4,3:0:0:0:
120,206,33631,6,0,P|160:185|244:190,1,114.750002188683,6|0,1:2|0:0,0:0:0:0:
255,203,33950,2,0,P|244:268|244:303,1,76.5000014591217,10|0,0:0|0:0,0:0:0:0:
122,384,34269,2,0,P|118:345|110:308,1,76.5000014591217,2|0,1:2|1:0,0:0:0:0:
273,217,34588,2,0,P|262:282|262:317,1,76.5000014591217,10|0,0:0|0:0,0:0:0:0:
87,96,34908,6,0,P|112:171|125:241,1,114.750002188683,2|0,1:2|0:0,0:0:0:0:
122,231,35227,2,0,P|68:238|33:290,1,114.750002188683,10|0,0:0|0:0,0:0:0:0:
32,317,35546,1,2,1:2:0:0:
35,194,35705,1,0,1:0:0:0:
148,336,35865,2,0,P|205:325|278:324,1,114.750002188683,8|0,0:0|0:0,0:0:0:0:
293,327,36184,6,0,B|281:292|281:292|303:244,1,76.5000014591217,2|0,1:2|0:0,0:0:0:0:
435,147,36503,2,0,B|447:182|447:182|425:230,1,76.5000014591217,10|0,0:0|0:0,0:0:0:0:
283,103,36822,2,0,L|376:95,1,76.5000014591217,2|0,1:2|1:0,0:0:0:0:
297,256,37142,2,0,L|204:248,1,76.5000014591217,10|0,0:0|1:0,0:0:0:0:
188,244,37381,1,0,1:0:0:0:
188,244,37461,5,10,0:0:0:0:
433,355,37780,5,10,0:0:0:0:
440,60,38099,5,10,0:0:0:0:
47,237,38418,5,2,0:0:0:0:
47,237,38737,6,0,B|120:210|105:268|182:242,1,114.750002188683,6|0,1:2|0:0,0:0:0:0:
188,244,39057,2,0,P|169:205|161:170,1,76.5000014591217,10|0,0:0|0:0,0:0:0:0:
337,105,39376,2,0,P|316:137|289:164,1,76.5000014591217,2|0,1:2|1:0,0:0:0:0:
143,46,39695,2,0,P|186:49|220:59,1,76.5000014591217,10|0,0:0|0:0,0:0:0:0:
402,149,40014,6,0,P|320:157|257:173,1,114.750002188683,2|0,1:2|0:0,0:0:0:0:
262,176,40333,2,0,B|275:215|275:215|265:262,1,76.5000014591217,10|0,0:0|0:0,0:0:0:0:
152,144,40652,1,2,1:2:0:0:
337,105,40812,1,0,1:0:0:0:
258,282,40971,2,0,L|162:277,1,76.5000014591217,8|0,0:0|1:0,0:0:0:0:
146,275,41211,1,0,1:0:0:0:
146,275,41291,6,0,P|133:218|159:164,1,114.750002188683,14|0,0:0|0:0,0:0:0:0:
174,158,41610,5,2,1:2:0:0:
247,313,41769,1,0,1:0:0:0:
337,105,41929,5,2,1:2:0:0:
181,278,42088,1,8,0:0:0:0:
436,223,42248,5,10,0:0:0:0:
241,93,42408,1,8,0:0:0:0:
325,343,42567,6,0,B|364:357|364:357|410:341,1,76.5000014591217,6|0,1:2|0:0,0:0:0:0:
416,102,42886,2,0,B|376:87|376:87|330:107,1,85.4999977169037,14|0,0:0|0:0,0:0:0:0:
154,332,43205,6,0,P|147:273|132:221,1,94.499997116089,6|8,1:2|0:0,0:0:0:0:
197,186,43445,1,8,0:0:0:0:
197,186,43525,2,0,P|270:209|320:209,1,103.500001974106,4|8,1:2|0:0,0:0:0:0:
380,185,43764,1,8,0:0:0:0:
380,185,43844,6,0,B|294:181|333:253|239:242,1,141.749995674133,6|0,1:2|0:0,0:0:0:0:
197,186,44163,2,0,P|187:127|191:81,1,94.499997116089,10|0,0:0|0:0,0:0:0:0:
373,29,44482,1,2,1:2:0:0:
296,210,44642,1,0,1:0:0:0:
104,53,44801,2,0,P|160:73|197:100,1,94.499997116089,10|0,0:0|0:0,0:0:0:0:
186,353,45120,6,0,B|196:295|152:294|168:214,1,141.749995674133,2|0,1:2|0:0,0:0:0:0:
197,186,45440,2,0,P|257:193|324:220,1,94.499997116089,8|0,0:0|0:0,0:0:0:0:
477,251,45759,2,0,P|417:258|350:285,1,94.499997116089,2|0,1:2|1:0,0:0:0:0:
215,384,46078,2,0,P|222:324|249:257,1,94.499997116089,10|0,0:0|0:0,0:0:0:0:
437,112,46397,6,0,P|373:148|297:113,1,141.749995674133,2|0,1:2|0:0,0:0:0:0:
290,107,46716,2,0,L|300:6,1,94.499997116089,10|0,0:0|0:0,0:0:0:0:
381,172,47035,1,2,1:2:0:0:
197,186,47195,1,2,1:2:0:0:
370,68,47354,1,10,0:0:0:0:
301,236,47514,1,2,0:0:0:0:
162,51,47674,6,0,P|95:29|26:119,1,188.999994232178,2|8,1:2|0:0,0:0:0:0:
197,186,48152,1,2,0:0:0:0:
40,324,48312,5,2,1:2:0:0:
108,110,48471,1,0,1:0:0:0:
232,291,48631,2,0,P|281:321|359:309,1,94.499997116089,8|0,0:0|0:0,0:0:0:0:
370,68,48950,6,0,P|353:145|351:191,1,94.499997116089,6|0,1:2|0:0,0:0:0:0:
206,357,49269,2,0,P|199:310|187:264,1,94.499997116089,10|0,0:0|0:0,0:0:0:0:
362,48,49588,2,0,P|349:93|343:140,1,94.499997116089,2|0,1:2|1:0,0:0:0:0:
188,351,49908,2,0,P|181:304|169:258,1,94.499997116089,10|0,0:0|0:0,0:0:0:0:
406,354,50227,6,0,P|416:267|440:150,1,188.999994232178,2|8,1:2|0:0,0:0:0:0:
282,292,50705,1,0,0:0:0:0:
184,114,50865,2,0,P|139:96|94:107,1,94.499997116089,2|0,1:2|1:0,0:0:0:0:
42,293,51184,2,0,P|87:302|130:285,1,94.499997116089,10|0,0:0|0:0,0:0:0:0:
240,63,51503,6,0,P|230:111|226:193,1,94.499997116089,2|0,1:2|0:0,0:0:0:0:
153,331,51822,2,0,P|148:283|138:237,1,94.499997116089,10|0,0:0|0:0,0:0:0:0:
12,78,52142,1,2,1:2:0:0:
42,293,52301,1,2,1:2:0:0:
225,156,52461,1,10,0:0:0:0:
34,167,52620,1,2,1:2:0:0:
191,343,52780,5,14,0:0:0:0:
88,24,52940,1,0,1:0:0:0:
19,316,53099,5,12,0:0:0:0:
240,63,53259,1,2,1:2:0:0:
425,364,53418,6,0,P|432:303|441:270,1,94.499997116089,2|8,1:2|0:0,0:0:0:0:
388,207,53658,1,8,0:0:0:0:
388,207,53737,2,0,P|347:194|284:242,1,94.499997116089,0|8,1:2|0:0,0:0:0:0:
294,292,53977,1,8,0:0:0:0:
294,292,54057,6,0,B|189:248|185:323|101:276,1,188.999994232178,6|10,1:2|0:0,0:0:0:0:
301,213,54535,1,0,0:0:0:0:
173,115,54695,2,0,P|158:175|157:225,1,94.499997116089,2|0,1:2|1:0,0:0:0:0:
320,45,55014,2,0,P|335:105|336:155,1,94.499997116089,10|0,0:0|0:0,0:0:0:0:
72,30,55333,6,0,P|172:70|232:23,1,188.999994232178,2|8,1:2|0:0,0:0:0:0:
210,147,55812,1,0,0:0:0:0:
377,55,55971,2,0,P|433:56|480:65,1,94.499997116089,2|0,1:2|1:0,0:0:0:0:
194,166,56291,2,0,P|138:167|91:176,1,94.499997116089,10|0,0:0|0:0,0:0:0:0:
240,381,56610,6,0,P|246:295|266:212,1,141.749995674133,2|0,1:2|0:0,0:0:0:0:
271,213,56929,2,0,P|331:230|386:209,1,94.499997116089,10|0,0:0|0:0,0:0:0:0:
274,38,57248,1,2,1:2:0:0:
148,198,57408,1,2,1:2:0:0:
377,55,57567,1,10,0:0:0:0:
419,285,57727,1,2,0:0:0:0:
244,56,57886,6,0,B|223:105|244:157|249:140|274:197|253:253,1,188.999994232178,2|8,1:2|0:0,0:0:0:0:
321,106,58365,2,0,P|355:99|403:99,1,47.2499985580445,10|8,0:0|0:0,0:0:0:0:
251,266,58525,5,2,1:2:0:0:
171,19,58684,1,0,1:0:0:0:
15,236,58844,2,0,P|74:265|149:227,1,141.749995674133,8|0,0:0|0:0,0:0:0:0:
148,198,59163,6,0,P|128:293|117:397,1,188.999994232178,6|8,1:2|0:0,0:0:0:0:
261,220,59642,1,0,0:0:0:0:
364,354,59801,2,0,P|408:374|457:366,1,94.499997116089,2|0,1:2|1:0,0:0:0:0:
483,173,60120,2,0,P|436:167|394:188,1,94.499997116089,10|0,0:0|0:0,0:0:0:0:
279,377,60440,6,0,B|267:305|313:317|293:198,1,141.749995674133,2|0,1:2|0:0,0:0:0:0:
291,206,60759,2,0,P|243:217|198:201,1,94.499997116089,8|0,0:0|0:0,0:0:0:0:
180,182,60998,1,8,0:0:0:0:
180,182,61078,2,0,L|171:276,1,94.499997116089,2|0,1:2|1:0,0:0:0:0:
0,146,61397,2,0,P|63:162|125:100,1,141.749995674133,10|0,0:0|0:0,0:0:0:0:
135,93,61716,6,0,P|205:100|276:98,1,141.749995674133,6|0,1:2|0:0,0:0:0:0:
308,92,62035,2,0,B|297:47|297:47|315:1,1,94.499997116089,10|0,0:0|0:0,0:0:0:0:
489,162,62354,2,0,L|384:165,1,94.499997116089,2|10,1:2|0:0,0:0:0:0:
367,163,62594,1,8,0:0:0:0:
367,163,62674,2,0,L|362:227,1,47.2499985580445,2|0,1:2|1:0,0:0:0:0:
512,304,62833,2,0,L|508:256,1,47.2499985580445,10|8,3:0|3:0,0:0:0:0:
359,379,62992,5,6,1:2:0:0:
506,233,63152,1,0,0:0:0:0:
278,183,63312,1,0,1:0:0:0:
456,371,63471,1,2,0:0:0:0:
489,162,63631,2,0,L|384:165,1,94.499997116089,6|8,1:2|0:0,0:0:0:0:
367,163,63870,1,8,0:0:0:0:
367,163,63950,2,0,L|362:210,1,47.2499985580445,0|0,1:0|1:0,0:0:0:0:
512,303,64110,2,0,L|508:256,1,47.2499985580445,8|8,0:0|0:0,0:0:0:0:
338,364,64268,5,14,0:0:0:0:
369,76,64429,1,0,1:0:0:0:
252,369,64588,5,10,0:0:0:0:
286,64,64749,1,0,1:0:0:0:
79,286,64908,5,10,0:0:0:0:
405,307,65067,1,0,1:0:0:0:
58,202,65227,5,10,0:0:0:0:
413,224,65386,1,0,1:0:0:0:
159,364,65546,6,0,B|171:283|130:306|142:204,1,141.749995674133,2|0,1:2|0:0,0:0:0:0:
143,193,65865,2,0,P|186:212|243:190,1,94.499997116089,10|0,0:0|0:0,0:0:0:0:
373,56,66184,2,0,P|328:44|285:63,1,94.499997116089,2|0,1:2|1:0,0:0:0:0:
474,255,66503,2,0,P|479:203|491:153,1,94.499997116089,10|0,0:0|1:0,0:0:0:0:
267,92,66822,5,2,1:2:0:0:
313,298,66982,1,0,0:0:0:0:
247,77,67142,2,0,P|195:64|146:87,1,94.499997116089,14|8,0:0|0:0,0:0:0:0:
144,103,67381,1,8,0:0:0:0:
144,103,67461,5,2,1:2:0:0:
381,221,67620,1,0,0:0:0:0:
135,319,67780,2,0,L|140:216,1,94.499997116089,14|0,0:0|1:0,0:0:0:0:
285,62,68099,6,0,L|343:133,1,67.5000025749208,10|0,0:0|1:0,0:0:0:0:
220,224,68418,2,0,L|259:123,1,76.5000014591217,10|0,0:0|0:0,0:0:0:0:
395,199,68737,2,0,L|284:216,1,85.4999977169037,10|0,3:0|0:0,0:0:0:0:
268,40,69057,2,0,L|338:128,1,94.499997116089,2|8,1:2|0:0,0:0:0:0:
208,256,69376,5,14,0:0:0:0:
478,184,69535,1,0,1:0:0:0:
139,224,69695,5,10,0:0:0:0:
505,256,69854,1,0,1:0:0:0:
268,40,70014,5,10,0:0:0:0:
319,340,70174,1,0,1:0:0:0:
345,10,70333,5,10,0:0:0:0:
246,365,70493,1,0,1:0:0:0:
81,160,70652,6,0,P|135:138|213:181,1,141.749995674133,2|0,1:2|0:0,0:0:0:0:
218,200,70971,2,0,L|214:294,1,94.499997116089,10|0,0:0|0:0,0:0:0:0:
336,182,71291,2,0,L|332:88,1,94.499997116089,2|0,1:2|1:0,0:0:0:0:
512,241,71610,2,0,P|451:222|379:264,1,141.749995674133,10|0,0:0|0:0,0:0:0:0:
376,284,71929,5,2,1:2:0:0:
459,91,72088,1,0,1:0:0:0:
206,171,72248,2,0,L|210:265,1,94.499997116089,14|0,0:0|1:0,0:0:0:0:
213,294,72487,1,0,1:0:0:0:
213,294,72567,5,2,1:2:0:0:
331,87,72727,1,0,1:0:0:0:
76,65,72886,2,0,L|80:159,1,94.499997116089,14|0,0:0|1:0,0:0:0:0:
331,87,73205,6,0,P|269:54|191:107,1,141.749995674133,10|0,0:0|0:0,0:0:0:0:
197,113,73525,2,0,B|276:105|245:173|351:173,1,141.749995674133,10|0,0:0|0:0,0:0:0:0:
351,167,73844,2,0,P|336:244|330:319,1,141.749995674133,10|0,0:0|0:0,0:0:0:0:
331,345,74163,2,0,B|378:328|378:328|439:353,1,94.499997116089,8|8,0:0|0:0,0:0:0:0:
441,355,74402,1,0,0:0:0:0:
441,355,74482,6,0,P|447:284|461:219,1,135,6|0,1:2|0:0,0:0:0:0:
474,182,74801,2,0,P|434:197|375:176,1,90,8|0,0:0|0:0,0:0:0:0:
305,1,75120,2,0,P|328:67|331:113,1,90,2|0,1:2|1:0,0:0:0:0:
460,221,75440,2,0,P|468:176|485:135,1,90,10|0,0:0|0:0,0:0:0:0:
274,245,75759,6,0,B|182:219|223:291|107:251,1,135,2|0,1:2|0:0,0:0:0:0:
120,253,76078,2,0,B|135:296|135:296|124:345,1,90,8|0,0:0|0:0,0:0:0:0:
0,180,76397,2,0,L|104:176,1,90,2|0,1:2|1:0,0:0:0:0:
215,342,76716,2,0,L|111:338,1,90,10|0,0:0|0:0,0:0:0:0:
158,126,77035,6,0,B|208:125|208:125|235:142|235:142|324:139,1,135,2|0,1:2|0:0,0:0:0:0:
319,138,77354,2,0,P|303:90|323:43,1,90,10|0,0:0|0:0,0:0:0:0:
470,159,77674,1,2,1:2:0:0:
274,245,77833,1,2,1:2:0:0:
398,91,77993,1,10,0:0:0:0:
443,309,78152,1,2,0:0:0:0:
288,140,78312,6,0,P|262:245|258:338,1,180,2|8,1:2|0:0,0:0:0:0:
172,154,78791,1,2,0:0:0:0:
93,337,78950,1,2,1:2:0:0:
202,151,79110,1,2,1:2:0:0:
287,348,79269,2,0,P|349:362|396:339,1,90,10|0,0:0|0:0,0:0:0:0:
470,159,79588,6,0,P|413:154|362:228,1,135,6|0,1:2|0:0,0:0:0:0:
364,239,79908,2,0,B|322:222|322:222|264:241,1,90,8|0,0:0|0:0,0:0:0:0:
392,363,80227,2,0,B|434:376|434:376|476:359,1,90,2|0,1:2|1:0,0:0:0:0:
364,222,80546,2,0,B|322:205|322:205|264:224,1,90,10|0,0:0|0:0,0:0:0:0:
180,380,80865,6,0,P|172:313|154:248,1,135,2|0,1:2|0:0,0:0:0:0:
141,224,81184,2,0,P|95:235|50:223,1,90,8|0,0:0|0:0,0:0:0:0:
198,61,81503,2,0,L|202:161,1,90,2|0,1:2|1:0,0:0:0:0:
413,120,81822,2,0,P|356:94|276:150,1,135,10|0,0:0|0:0,0:0:0:0:
287,156,82142,5,2,1:2:0:0:
392,10,82301,1,8,0:3:0:0:
449,198,82461,1,10,3:0:0:0:
313,33,82620,1,6,3:0:0:0:
313,33,82700,1,4,3:0:0:0:
313,33,82780,2,0,P|293:108|292:148,1,90,2|8,1:2|0:0,0:0:0:0:
287,156,83019,1,8,0:0:0:0:
287,156,83099,2,0,P|362:136|402:135,1,90,2|4,1:2|3:0,0:0:0:0:
289,384,83418,5,6,1:2:0:0:
153,22,83737,5,6,1:2:0:0:
14,302,84057,5,10,0:0:0:0:
34,341,84136,1,8,0:0:0:0:
72,364,84216,1,8,0:0:0:0:
117,364,84296,1,8,0:0:0:0:
155,342,84376,1,8,0:0:0:0:
154,191,84535,1,8,3:2:0:0:
267,264,84695,6,0,P|320:280|354:274,1,67.5000025749208,6|0,1:2|0:0,0:0:0:0:
469,202,85014,2,0,P|435:204|404:217,1,67.5000025749208,10|0,0:0|0:0,0:0:0:0:
502,340,85333,2,0,P|509:288|515:256,1,67.5000025749208,2|0,1:2|1:0,0:0:0:0:
356,197,85652,2,0,P|361:230|365:263,1,67.5000025749208,10|0,0:0|0:0,0:0:0:0:
498,170,85971,5,2,1:2:0:0:
331,116,86131,1,0,0:0:0:0:
478,20,86291,2,0,P|466:84|464:108,1,67.5000025749208,8|0,0:0|0:0,0:0:0:0:
404,217,86610,2,0,P|360:231|325:222,1,67.5000025749208,2|0,1:2|1:0,0:0:0:0:
224,127,86929,2,0,P|257:125|288:138,1,67.5000025749208,10|0,0:0|0:0,0:0:0:0:
165,262,87248,6,0,P|154:213|135:142,1,101.250003862381,2|0,1:2|0:0,0:0:0:0:
128,140,87567,2,0,P|89:147|61:132,1,67.5000025749208,10|0,0:0|0:0,0:0:0:0:
211,29,87886,2,0,L|204:105,1,67.5000025749208,2|0,1:2|1:0,0:0:0:0:
70,202,88205,2,0,L|63:134,1,67.5000025749208,10|0,0:0|0:0,0:0:0:0:
245,208,88525,5,2,1:2:0:0:
105,65,88684,1,0,0:0:0:0:
272,237,88844,2,0,P|333:228|369:226,1,67.5000025749208,8|2,0:0|0:0,0:0:0:0:
204,96,89163,5,2,1:2:0:0:
73,231,89322,1,0,1:0:0:0:
224,357,89482,2,0,B|286:358|263:327|341:330,1,101.250003862381,8|0,0:0|0:0,0:0:0:0:
349,331,89801,6,0,P|339:295|349:263,1,67.5000025749208,2|0,1:2|0:0,0:0:0:0:
430,157,90120,2,0,P|438:189|428:221,1,67.5000025749208,10|0,0:0|0:0,0:0:0:0:
287,130,90440,1,2,1:2:0:0:
412,76,90599,1,0,1:0:0:0:
338,227,90759,2,0,L|259:217,1,67.5000025749208,10|0,0:0|0:0,0:0:0:0:
128,84,91078,5,2,1:2:0:0:
219,278,91237,1,0,0:0:0:0:
311,101,91397,2,0,P|352:86|399:97,1,67.5000025749208,8|0,0:0|0:0,0:0:0:0:
245,208,91716,2,0,P|211:208|180:194,1,67.5000025749208,2|0,1:2|1:0,0:0:0:0:
31,64,92035,2,0,B|88:53|65:94|150:81,1,101.250003862381,10|0,0:0|0:0,0:0:0:0:
154,74,92354,6,0,P|184:60|218:60,1,67.5000025749208,2|0,1:2|0:0,0:0:0:0:
350,144,92674,2,0,P|316:144|286:129,1,67.5000025749208,10|0,0:0|0:0,0:0:0:0:
216,13,92993,1,2,1:2:0:0:
392,63,93152,1,2,1:2:0:0:
413,242,93312,1,10,0:0:0:0:
311,101,93471,1,2,1:2:0:0:
219,278,93631,5,10,0:0:0:0:
357,169,93791,1,0,1:0:0:0:
164,129,93950,2,0,P|175:170|184:220,1,67.5000025749208,8|10,0:0|0:0,0:0:0:0:
163,223,94190,1,8,0:0:0:0:
163,223,94269,1,2,1:2:0:0:
245,49,94429,1,8,0:0:0:0:
332,284,94588,1,8,0:0:0:0:
272,26,94748,1,8,0:0:0:0:
33,200,94908,6,0,B|114:187|77:236|174:221,1,135.000005149842,2|2,0:0|0:0,0:0:0:0:
162,222,95546,2,0,P|142:292|201:353,1,135.000005149842,2|2,0:0|0:0,0:0:0:0:
173,340,96184,5,2,0:0:0:0:
249,243,96344,1,0,0:0:0:0:
329,370,96503,1,0,0:0:0:0:
329,370,96822,6,0,B|349:335|349:335|410:323|454:368,1,135.000005149842,2|2,0:0|0:0,0:0:0:0:
438,354,97461,6,0,P|430:306|421:211,1,135.000005149842,2|2,0:0|0:0,0:0:0:0:
421,220,98099,2,0,B|354:192|363:243|281:204,1,135.000005149842,2|2,0:0|0:0,0:0:0:0:
289,208,98737,5,2,0:0:0:0:
205,117,98897,1,0,0:0:0:0:
324,28,99057,1,0,0:0:0:0:
293,124,99216,1,2,0:0:0:0:
189,9,99376,2,0,P|136:13|112:103,1,135.000005149842,2|2,0:0|0:0,0:0:0:0:
103,80,100014,6,0,P|120:145|129:211,1,135.000005149842,6|8,1:2|0:0,0:0:0:0:
218,85,100493,1,8,0:0:0:0:
289,208,100652,2,0,P|319:223|377:212,1,67.5000025749208,2|0,0:0|1:0,0:0:0:0:
268,102,100971,2,0,P|234:101|204:116,1,67.5000025749208,10|0,0:0|0:0,0:0:0:0:
142,271,101291,5,2,1:2:0:0:
289,208,101450,1,0,0:0:0:0:
107,188,101610,1,8,0:0:0:0:
304,287,101769,1,8,0:0:0:0:
204,116,101929,2,0,P|194:168|192:201,1,67.5000025749208,2|0,0:0|1:0,0:0:0:0:
70,325,102248,2,0,P|66:291|58:258,1,67.5000025749208,10|0,0:0|0:0,0:0:0:0:
228,330,102567,6,0,B|283:335|283:335|306:353|306:353|362:358,1,135.000005149842,2|10,1:2|0:0,0:0:0:0:
465,253,103046,1,8,0:0:0:0:
289,208,103205,1,2,0:0:0:0:
356,357,103365,1,2,1:2:0:0:
416,185,103525,1,10,0:0:0:0:
228,330,103684,1,2,1:2:0:0:
228,330,103764,1,0,1:0:0:0:
228,330,103844,6,0,P|194:326|160:324,1,67.5000025749208,10|0,0:0|1:0,0:0:0:0:
324,226,104163,1,10,0:0:0:0:
204,116,104322,1,2,0:0:0:0:
332,327,104482,5,2,1:2:0:0:
107,188,104642,1,8,0:0:0:0:
107,188,104721,1,8,0:0:0:0:
107,188,104801,1,0,1:0:0:0:
354,74,104961,1,8,3:0:0:0:
160,324,105120,6,0,P|90:304|-14:292,1,153.000002918243,6|10,1:2|0:0,0:0:0:0:
233,202,105599,1,0,0:0:0:0:
56,88,105759,2,0,P|69:155|70:193,1,76.5000014591217,2|0,1:2|1:0,0:0:0:0:
160,324,106078,2,0,P|164:286|173:248,1,76.5000014591217,10|0,0:0|0:0,0:0:0:0:
281,89,106397,6,0,P|333:71|379:86,1,76.5000014591217,2|0,1:2|0:0,0:0:0:0:
233,202,106716,2,0,P|195:203|160:186,1,76.5000014591217,10|0,0:0|0:0,0:0:0:0:
271,65,107035,1,2,1:2:0:0:
324,226,107195,1,0,1:0:0:0:
188,112,107354,2,0,L|194:29,1,76.5000014591217,8|0,0:0|0:0,0:0:0:0:
337,148,107674,6,0,P|405:141|424:90,1,114.750002188683,2|0,1:2|0:0,0:0:0:0:
418,72,107993,2,0,P|457:81|493:65,1,76.5000014591217,10|0,0:0|0:0,0:0:0:0:
268,13,108312,2,0,P|279:76|282:106,1,76.5000014591217,2|0,1:2|1:0,0:0:0:0:
394,286,108631,2,0,P|399:248|406:210,1,76.5000014591217,10|8,0:0|0:0,0:0:0:0:
422,185,108870,1,8,0:0:0:0:
422,185,108950,5,2,1:2:0:0:
193,35,109269,5,2,1:2:0:0:
126,272,109588,5,10,0:0:0:0:
294,176,109908,5,2,0:2:0:0:
294,176,110227,6,0,B|221:149|236:207|159:181,1,114.750002188683,6|0,1:2|0:0,0:0:0:0:
153,174,110546,2,0,P|167:218|157:253,1,76.5000014591217,10|0,0:0|0:0,0:0:0:0:
100,373,110865,2,0,P|86:329|96:294,1,76.5000014591217,2|0,1:2|1:0,0:0:0:0:
233,293,111184,2,0,P|247:337|237:372,1,76.5000014591217,10|0,0:0|0:0,0:0:0:0:
84,255,111503,6,0,P|151:248|172:244,1,76.5000014591217,2|0,1:2|1:0,0:0:0:0:
260,384,111822,2,0,P|222:378|184:375,1,76.5000014591217,10|0,0:0|0:0,0:0:0:0:
312,256,112142,1,2,1:2:0:0:
153,174,112301,1,0,0:0:0:0:
233,293,112461,1,0,1:0:0:0:
190,95,112620,1,0,1:0:0:0:
92,300,112780,5,14,0:0:0:0:
92,300,113099,5,10,0:0:0:0:
167,75,113259,1,0,1:0:0:0:
275,361,113418,5,10,0:0:0:0:
190,95,113578,1,0,1:0:0:0:
140,374,113737,5,10,0:0:0:0:
271,63,113897,1,0,1:0:0:0:
419,378,114057,6,0,P|427:330|439:279,1,76.5000014591217,14|0,0:0|0:0,0:0:0:0:
275,99,114376,2,0,P|285:138|291:185,1,85.4999977169037,6|0,1:2|0:0,0:0:0:0:
100,373,114695,6,0,P|53:376|14:330,1,94.499997116089,6|8,1:2|0:0,0:0:0:0:
28,267,114934,1,8,0:0:0:0:
28,267,115014,2,0,P|84:282|139:288,1,103.500001974106,4|8,1:2|0:0,0:0:0:0:
213,273,115253,1,8,0:0:0:0:
213,273,115333,6,0,P|245:210|180:164,1,141.749995674133,6|0,1:2|0:0,0:0:0:0:
123,150,115652,2,0,P|109:100|135:60,1,94.499997116089,10|0,0:0|0:0,0:0:0:0:
290,182,115971,1,2,1:2:0:0:
129,287,116131,1,0,1:0:0:0:
346,370,116291,2,0,P|405:361|461:355,1,94.499997116089,10|0,0:0|0:0,0:0:0:0:
409,126,116610,6,0,B|324:139|359:84|251:100,1,141.749995674133,2|0,1:2|0:0,0:0:0:0:
196,116,116929,2,0,P|210:166|213:218,1,94.499997116089,8|0,0:0|0:0,0:0:0:0:
346,370,117248,2,0,P|350:323|363:277,1,94.499997116089,2|0,1:2|1:0,0:0:0:0:
180,108,117567,2,0,P|193:153|197:200,1,94.499997116089,10|0,0:0|0:0,0:0:0:0:
350,60,117886,6,0,P|417:55|458:109,1,141.749995674133,2|0,1:2|0:0,0:0:0:0:
412,176,118205,2,0,P|366:166|316:158,1,94.499997116089,10|0,0:0|0:0,0:0:0:0:
498,98,118525,1,2,1:2:0:0:
363,277,118684,1,2,1:2:0:0:
262,62,118844,1,10,0:0:0:0:
340,295,119003,1,2,0:0:0:0:
416,26,119163,6,0,P|445:138|449:220,1,188.999994232178,2|8,1:2|0:0,0:0:0:0:
353,375,119642,1,2,0:0:0:0:
235,141,119801,5,2,1:2:0:0:
443,294,119961,1,0,1:0:0:0:
166,371,120120,2,0,L|70:361,1,94.499997116089,8|0,0:0|0:0,0:0:0:0:
0,142,120440,6,0,B|94:139|42:177|149:170,1,141.749995674133,6|0,1:2|0:0,0:0:0:0:
217,155,120759,2,0,P|204:105|223:63,1,94.499997116089,10|0,0:0|0:0,0:0:0:0:
342,206,121078,2,0,P|355:256|336:298,1,94.499997116089,2|0,1:2|1:0,0:0:0:0:
126,80,121397,2,0,P|216:67|237:62,1,94.499997116089,10|0,0:0|0:0,0:0:0:0:
174,280,121716,6,0,B|129:291|129:291|75:272,1,94.499997116089,2|0,1:2|0:0,0:0:0:0:
219,66,122035,2,0,B|264:50|264:50|309:61,1,94.499997116089,8|0,0:0|0:0,0:0:0:0:
174,280,122354,2,0,L|167:181,1,94.499997116089,2|0,1:2|1:0,0:0:0:0:
386,26,122674,2,0,L|379:120,1,94.499997116089,10|0,0:0|0:0,0:0:0:0:
167,185,122993,6,0,P|90:173|46:168,1,94.499997116089,2|0,1:2|0:0,0:0:0:0:
339,294,123312,2,0,P|416:282|460:277,1,94.499997116089,10|0,0:0|0:0,0:0:0:0:
270,135,123631,1,2,1:2:0:0:
221,360,123790,1,2,1:2:0:0:
190,106,123950,1,10,0:0:0:0:
342,328,124109,1,2,1:2:0:0:
309,61,124269,5,6,1:2:0:0:
127,346,124429,1,0,1:0:0:0:
467,188,124588,5,12,0:0:0:0:
106,89,124748,1,2,1:2:0:0:
342,328,124908,6,0,P|347:281|358:235,1,94.499997116089,8|8,0:0|0:0,0:0:0:0:
388,157,125147,1,8,0:0:0:0:
388,157,125227,2,0,P|342:168|293:147,1,94.499997116089,0|8,1:2|0:0,0:0:0:0:
233,103,125466,1,8,0:0:0:0:
233,103,125546,6,0,B|112:123|180:157|67:192,1,188.999994232178,6|10,1:2|0:0,0:0:0:0:
221,194,126025,1,0,0:0:0:0:
88,8,126184,2,0,P|75:58|71:106,1,94.499997116089,2|0,1:2|1:0,0:0:0:0:
204,286,126503,2,0,P|217:236|221:188,1,94.499997116089,10|0,0:0|0:0,0:0:0:0:
43,333,126822,6,0,P|19:270|0:127,1,188.999994232178,2|8,1:2|0:0,0:0:0:0:
169,34,127301,1,0,0:0:0:0:
253,220,127460,2,0,P|292:243|347:242,1,94.499997116089,2|0,1:2|1:0,0:0:0:0:
158,76,127780,2,0,P|111:76|70:100,1,94.499997116089,10|0,0:0|0:0,0:0:0:0:
204,286,128099,6,0,P|215:200|230:117,1,141.749995674133,2|0,1:2|0:0,0:0:0:0:
268,71,128418,2,0,P|326:84|378:64,1,94.499997116089,10|0,0:0|0:0,0:0:0:0:
423,21,128658,1,0,1:0:0:0:
423,21,128737,1,2,1:2:0:0:
340,244,128897,1,2,1:2:0:0:
248,38,129056,1,10,0:0:0:0:
434,236,129216,1,2,0:0:0:0:
128,166,129376,6,0,B|139:144|167:129|167:129|243:138|258:247,1,188.999994232178,2|8,1:2|0:0,0:0:0:0:
89,341,129854,2,0,L|33:331,1,47.2499985580445,10|8,0:0|0:0,0:0:0:0:
253,220,130014,5,2,1:2:0:0:
11,120,130173,1,0,1:0:0:0:
238,7,130333,2,0,P|226:78|221:132,1,94.499997116089,8|0,0:0|0:0,0:0:0:0:
411,350,130652,6,0,P|391:255|380:151,1,188.999994232178,6|8,1:2|0:0,0:0:0:0:
499,50,131131,1,0,1:0:0:0:
499,50,131211,1,0,1:0:0:0:
499,50,131291,2,0,P|447:73|397:67,1,94.499997116089,2|0,1:2|1:0,0:0:0:0:
238,7,131610,2,0,P|284:7|326:28,1,94.499997116089,10|0,0:0|0:0,0:0:0:0:
168,244,131929,6,0,P|82:220|75:141,1,141.749995674133,2|0,1:2|0:0,0:0:0:0:
73,99,132248,2,0,P|129:122|185:110,1,94.499997116089,8|0,0:0|0:0,0:0:0:0:
239,93,132487,1,0,1:0:0:0:
239,93,132567,1,2,1:2:0:0:
55,14,132726,1,0,1:0:0:0:
168,244,132886,2,0,P|224:221|280:233,1,94.499997116089,10|0,0:0|0:0,0:0:0:0:
397,384,133205,6,0,P|367:318|365:236,1,141.749995674133,6|0,1:2|0:0,0:0:0:0:
416,180,133524,2,0,P|442:113|437:55,1,94.499997116089,10|0,0:0|0:0,0:0:0:0:
401,20,133764,1,0,1:0:0:0:
401,20,133844,1,2,1:2:0:0:
228,126,134003,1,0,1:0:0:0:
205,124,134083,1,0,1:0:0:0:
181,122,134162,1,10,0:0:0:0:
157,120,134242,1,0,1:0:0:0:
134,118,134322,1,2,1:2:0:0:
110,116,134402,1,0,1:0:0:0:
88,113,134481,5,10,0:0:0:0:
297,18,134642,1,0,0:0:0:0:
256,223,134801,1,8,0:0:0:0:
262,254,134880,1,8,0:0:0:0:
275,285,134960,1,8,0:0:0:0:
294,311,135040,1,8,0:0:0:0:
323,326,135120,5,8,0:0:0:0:
309,294,135200,1,8,0:0:0:0:
275,285,135280,1,8,0:0:0:0:
245,301,135360,1,8,0:0:0:0:
227,329,135440,1,8,0:0:0:0:
197,343,135519,1,8,0:0:0:0:
163,343,135599,2,0,L|84:328,1,47.2499985580445,4|4,3:0|3:0,0:0:0:0:
309,155,135759,5,14,0:0:0:0:
38,316,135918,1,0,1:0:0:0:
369,216,136078,5,10,0:0:0:0:
64,111,136237,1,0,1:0:0:0:
234,371,136397,5,10,0:0:0:0:
345,81,136557,1,0,1:0:0:0:
105,374,136716,5,10,0:0:0:0:
36,90,136876,1,0,1:0:0:0:
309,155,137035,6,0,B|218:142|267:196|144:182,1,141.749995674133,2|0,1:2|0:0,0:0:0:0:
110,137,137354,2,0,P|95:179|111:232,1,94.499997116089,10|0,0:0|0:0,0:0:0:0:
277,368,137674,2,0,P|292:326|276:273,1,94.499997116089,2|0,1:2|1:0,0:0:0:0:
12,361,137993,2,0,L|127:375,1,94.499997116089,10|0,0:0|1:0,0:0:0:0:
149,299,138232,1,0,1:0:0:0:
149,299,138312,5,2,1:2:0:0:
6,105,138471,1,0,1:0:0:0:
249,31,138631,2,0,P|236:95|231:142,1,94.499997116089,14|8,0:0|0:0,0:0:0:0:
252,202,138870,1,8,0:0:0:0:
252,202,138950,5,2,1:2:0:0:
123,48,139110,1,0,0:0:0:0:
354,133,139269,2,0,P|418:120|465:115,1,94.499997116089,14|0,0:0|0:0,0:0:0:0:
247,356,139588,6,0,P|183:360|156:351,1,67.5000025749208,10|0,0:0|1:0,0:0:0:0:
300,281,139908,2,0,P|335:334|341:364,1,76.5000014591217,10|0,0:0|0:0,0:0:0:0:
209,273,140227,2,0,P|237:215|263:194,1,85.4999977169037,10|0,3:0|0:0,0:0:0:0:
247,356,140466,1,0,1:2:0:0:
247,356,140547,2,0,P|182:359|152:349,1,94.499997116089,2|8,1:2|0:0,0:0:0:0:
354,133,140865,5,14,0:0:0:0:
81,313,141025,1,0,1:0:0:0:
418,195,141184,5,10,0:0:0:0:
116,46,141344,1,0,1:0:0:0:
338,345,141503,5,10,0:0:0:0:
249,31,141663,1,0,1:0:0:0:
180,359,141822,5,10,0:0:0:0:
277,20,141982,1,0,1:0:0:0:
115,181,142142,6,0,B|204:170|161:215|259:201,1,141.749995674133,2|0,1:2|0:0,0:0:0:0:
326,174,142461,2,0,P|381:155|433:161,1,94.499997116089,10|0,0:0|0:0,0:0:0:0:
507,333,142780,2,0,B|482:365|482:365|421:375|380:337,1,141.749995674133,2|0,1:2|0:0,0:0:0:0:
319,296,143099,2,0,P|264:277|212:283,1,94.499997116089,10|0,0:0|0:0,0:0:0:0:
416,156,143418,5,2,1:2:0:0:
311,379,143578,1,0,1:0:0:0:
188,148,143737,2,0,L|199:46,1,94.499997116089,14|0,0:0|1:0,0:0:0:0:
263,2,143977,1,0,1:0:0:0:
263,2,144057,5,2,1:2:0:0:
345,209,144216,1,0,1:0:0:0:
138,265,144376,2,0,L|36:254,1,94.499997116089,14|0,0:0|1:0,0:0:0:0:
34,11,144695,6,0,P|87:15|111:105,1,141.749995674133,10|0,0:0|0:0,0:0:0:0:
108,121,145014,2,0,B|197:110|134:160|264:139,1,141.749995674133,10|0,0:0|0:0,0:0:0:0:
272,133,145333,2,0,B|291:123|299:104|299:104|340:151|330:210,1,141.749995674133,10|0,0:0|0:0,0:0:0:0:
326,226,145652,2,0,P|259:251|234:240,1,94.499997116089,8|8,0:0|0:0,0:0:0:0:
223,231,145892,1,8,0:0:0:0:
223,231,145971,6,0,P|236:293|241:339,1,85.4999977169037,6|0,1:2|0:0,0:0:0:0:
125,202,146291,1,10,0:0:0:0:
53,366,146450,1,2,1:2:0:0:
32,161,146610,1,10,0:0:0:0:
133,348,146769,1,2,1:2:0:0:
243,141,146929,1,10,0:0:0:0:
44,254,147088,1,2,1:2:0:0:
321,311,147248,5,10,0:0:0:0:
321,311,147567,5,10,0:0:0:0:
167,173,147727,1,2,1:2:0:0:
417,206,147886,1,10,0:0:0:0:
238,314,148046,1,0,0:0:0:0:
491,353,148205,1,10,0:0:0:0:
330,217,148365,1,0,0:0:0:0:
512,37,148525,6,0,B|424:14|449:71|357:46,1,153.000002918243,14|8,0:0|0:0,0:0:0:0:
509,193,149003,1,2,1:2:0:0:
509,193,149083,1,2,1:2:0:0:
509,193,149163,1,10,0:0:0:0:
321,311,149322,1,0,1:0:0:0:
437,126,149482,1,10,0:0:0:0:
491,353,149642,1,0,1:0:0:0:
314,141,149801,6,0,B|250:150|250:150|232:164|232:164|138:176,1,153.000002918243,10|10,0:0|0:0,0:0:0:0:
363,243,150280,1,2,1:2:0:0:
193,85,150440,1,10,0:0:0:0:
238,314,150599,1,2,1:2:0:0:
277,53,150759,1,10,0:0:0:0:
321,311,150918,1,0,1:0:0:0:
321,311,150998,1,0,1:0:0:0:
321,311,151078,5,14,0:0:0:0:
321,311,151397,5,10,0:0:0:0:
231,117,151557,1,2,1:2:0:0:
133,348,151716,2,0,P|119:303|116:253,1,76.5000014591217,10|0,0:0|1:0,0:0:0:0:
277,53,152035,2,0,P|271:90|259:127,1,76.5000014591217,10|0,0:0|1:0,0:0:0:0:
15,73,152354,6,0,P|80:71|109:118,1,114.750002188683,10|0,0:0|0:0,0:0:0:0:
97,190,152674,1,10,0:0:0:0:
182,30,152833,1,0,1:0:0:0:
270,237,152993,1,10,0:0:0:0:
106,106,153152,1,0,1:0:0:0:
363,55,153312,2,0,P|348:120|341:195,1,114.750002188683,10|0,0:0|0:0,0:0:0:0:
350,250,153631,6,0,B|434:229|427:286|509:252,1,153.000002918243,6|4,1:2|3:0,0:0:0:0:
361,383,154110,1,8,0:0:0:0:
361,383,154190,1,8,0:0:0:0:
361,383,154269,1,0,1:0:0:0:
464,182,154429,1,8,3:0:0:0:
253,324,154588,1,8,0:0:0:0:
222,309,154668,1,8,0:0:0:0:
203,280,154748,1,8,0:0:0:0:
194,246,154828,1,8,0:0:0:0:
196,211,154908,6,0,L|204:158,1,38.2500007295609,2|8,1:2|0:0,0:0:0:0:
405,219,155067,1,8,0:0:0:0:
415,185,155147,1,8,0:0:0:0:
418,150,155227,6,0,L|413:107,1,38.2500007295609,2|8,1:2|0:0,0:0:0:0:
210,66,155386,1,8,0:0:0:0:
200,100,155466,1,8,0:2:0:0:
197,135,155546,6,0,L|202:178,1,38.2500007295609,6|8,3:0|0:0,0:0:0:0:
363,55,155705,1,8,0:0:0:0:
363,55,155785,1,8,0:0:0:0:
363,55,155865,1,0,1:0:0:0:
325,263,156025,1,8,3:0:0:0:
200,100,156184,6,0,P|145:76|79:94,1,121.499996292114,6|0,1:2|0:0,0:0:0:0:
42,162,156503,2,0,P|51:213|53:256,1,80.9999975280763,10|0,0:0|0:0,0:0:0:0:
150,372,156822,2,0,P|153:331|160:291,1,80.9999975280763,2|0,1:2|1:0,0:0:0:0:
341,183,157142,2,0,B|271:172|300:211|202:195,1,121.499996292114,10|0,0:0|0:0,0:0:0:0:
197,188,157461,6,0,P|207:130|204:40,1,121.499996292114,2|0,1:2|0:0,0:0:0:0:
199,37,157780,2,0,P|234:57|278:53,1,80.9999975280763,8|0,0:0|0:0,0:0:0:0:
427,6,158099,2,0,P|387:3|352:23,1,80.9999975280763,2|0,1:2|1:0,0:0:0:0:
476,233,158418,2,0,P|484:172|499:114,1,121.499996292114,10|0,0:0|0:0,0:0:0:0:
486,93,158737,6,0,B|410:80|445:122|348:108,1,121.499996292114,2|0,1:2|0:0,0:0:0:0:
340,104,159057,2,0,P|353:176|352:200,1,80.9999975280763,8|0,0:0|0:0,0:0:0:0:
257,321,159376,2,0,P|204:342|130:254,1,161.999995056153,2|8,1:2|0:0,0:0:0:0:
216,160,159854,1,0,0:0:0:0:
31,81,160014,6,0,P|42:147|53:256,1,161.999995056153,2|8,1:2|0:0,0:0:0:0:
145,367,160493,1,0,0:0:0:0:
256,234,160652,2,0,P|302:212|345:220,1,80.9999975280763,2|0,1:2|1:0,0:0:0:0:
145,367,160971,2,0,P|104:367|70:347,1,80.9999975280763,10|0,0:0|0:0,0:0:0:0:
197,118,161291,6,0,P|182:206|170:292,1,161.999995056153,6|8,1:2|0:0,0:0:0:0:
96,138,161769,1,0,0:0:0:0:
267,56,161929,2,0,P|318:73|348:76,1,80.9999975280763,2|0,1:2|1:0,0:0:0:0:
490,190,162248,2,0,B|417:192|459:222|345:225,1,121.499996292114,10|0,0:0|0:0,0:0:0:0:
330,214,162567,6,0,P|368:254|324:335,1,121.499996292114,2|0,1:2|0:0,0:0:0:0:
334,333,162886,1,10,0:0:0:0:
237,202,163046,1,2,0:0:0:0:
145,367,163205,2,0,P|128:323|126:267,1,80.9999975280763,2|0,1:2|1:0,0:0:0:0:
334,333,163525,2,0,P|369:358|458:317,1,121.499996292114,10|0,0:0|0:0,0:0:0:0:
458,318,163844,6,0,P|449:262|441:188,1,121.499996292114,2|0,1:2|0:0,0:0:0:0:
438,170,164163,2,0,P|411:187|343:176,1,80.9999975280763,8|0,0:0|0:0,0:0:0:0:
267,56,164482,1,2,1:2:0:0:
441,197,164642,1,0,1:0:0:0:
360,0,164801,1,10,0:0:0:0:
279,213,164961,1,0,1:0:0:0:
184,1,165120,5,10,0:0:0:0:
363,186,165280,1,0,1:0:0:0:
147,207,165440,5,8,0:0:0:0:
358,37,165599,1,0,1:0:0:0:
68,17,165759,5,8,3:0:0:0:
215,151,165918,1,8,0:3:0:0:
0,188,166078,1,8,0:0:0:0:
168,26,166237,1,4,3:0:0:0:
183,288,166397,6,0,P|225:328|297:307,1,121.499996292114,6|0,1:2|0:0,0:0:0:0:
306,305,166716,2,0,P|339:286|386:284,1,80.9999975280763,10|0,0:0|0:0,0:0:0:0:
512,369,167035,2,0,P|471:366|436:347,1,80.9999975280763,2|0,1:2|1:0,0:0:0:0:
407,124,167354,2,0,P|392:183|384:246,1,121.499996292114,10|0,0:0|0:0,0:0:0:0:
381,283,167674,6,0,P|376:242|360:205,1,80.9999975280763,2|0,1:2|0:0,0:0:0:0:
506,102,167993,2,0,P|490:139|485:179,1,80.9999975280763,10|0,0:0|0:0,0:0:0:0:
512,329,168312,1,2,1:2:0:0:
454,188,168471,1,0,1:0:0:0:
363,363,168631,2,0,B|297:344|309:406|222:378,1,121.499996292114,10|0,0:0|0:0,0:0:0:0:
219,375,168950,6,0,P|223:335|212:296,1,80.9999975280763,2|0,1:2|0:0,0:0:0:0:
104,131,169269,2,0,P|92:169|97:209,1,80.9999975280763,10|8,0:0|0:0,0:0:0:0:
115,234,169509,1,8,0:0:0:0:
115,234,169589,2,0,L|155:230,1,40.4999987640381,2|0,1:2|1:0,0:0:0:0:
288,159,169749,2,0,L|247:155,1,40.4999987640381,8|8,0:0|0:0,0:0:0:0:
338,282,169907,1,10,0:0:0:0:
210,150,170067,1,0,1:0:0:0:
136,380,170227,5,10,0:0:0:0:
17,136,170546,5,10,0:0:0:0:
340,67,170865,5,14,0:0:0:0:
340,67,171503,6,0,P|395:42|441:51,1,80.9999975280763,6|0,1:2|0:0,0:0:0:0:
275,204,171822,2,0,P|330:229|376:220,1,80.9999975280763,10|0,0:0|0:0,0:0:0:0:
164,69,172142,2,0,P|109:44|63:53,1,80.9999975280763,2|0,1:2|1:0,0:0:0:0:
229,206,172461,2,0,P|174:231|128:222,1,80.9999975280763,10|0,0:0|0:0,0:0:0:0:
340,67,172780,6,0,P|323:141|314:240,1,161.999995056153,6|10,1:2|0:0,0:0:0:0:
387,367,173259,1,0,0:0:0:0:
448,206,173418,1,10,3:0:0:0:
360,346,173578,1,0,0:0:0:0:
229,206,173737,1,0,1:0:0:0:
391,268,173897,1,4,3:0:0:0:
173,373,174057,5,6,1:2:0:0:
173,373,174376,5,10,0:0:0:0:
141,366,174455,1,8,0:0:0:0:
115,347,174535,1,8,0:0:0:0:
98,320,174615,1,8,0:0:0:0:
92,285,174695,2,0,L|96:240,3,40.4999987640381,10|8|8|8,0:0|0:0|0:0|0:0,0:0:0:0:
225,165,175014,2,0,L|228:205,3,40.4999987640381,10|8|8|8,0:0|0:0|0:0|0:0,0:0:0:0:
39,32,175333,6,0,L|32:140,1,80.9999975280763,6|8,1:2|0:0,0:0:0:0:
251,0,175652,2,0,L|257:112,1,90,6|8,1:2|0:0,0:0:0:0:
468,49,175971,2,0,L|461:164,1,99.0000030212403,6|8,1:2|0:0,0:0:0:0:
251,0,176291,1,6,1:2:0:0:
183,283,176450,1,2,0:0:0:0:
176,112,186822,5,2,0:0:0:0:
179,127,186901,1,2,0:0:0:0:
188,145,186981,1,2,0:0:0:0:
205,162,187061,1,2,0:0:0:0:
230,175,187141,1,2,0:0:0:0:
261,180,187220,1,2,0:0:0:0:
296,172,187300,1,2,0:0:0:0:
325,143,187380,1,2,0:0:0:0:
342,100,187461,6,0,L|349:38,3,49.5000015106202,0|0|0|0,1:0|1:0|1:0|1:0,0:0:0:0:
465,60,187780,6,0,L|456:-3,3,56.25,8|8|8|8,0:0|0:0|0:0|0:0,0:0:0:0:
388,200,188099,6,0,B|302:196|341:268|247:257,1,141.749995674133,6|0,1:2|0:0,0:0:0:0:
192,223,188418,2,0,P|140:204|84:206,1,94.499997116089,10|0,0:0|0:0,0:0:0:0:
260,92,188737,1,2,1:2:0:0:
380,265,188897,1,0,1:0:0:0:
242,66,189057,2,0,P|190:85|134:83,1,94.499997116089,10|0,0:0|0:0,0:0:0:0:
380,265,189375,6,0,B|388:191|410:126,1,141.749995674133,2|0,1:2|0:0,0:0:0:0:
465,63,189695,2,0,P|471:109|488:153,1,94.499997116089,8|0,0:0|0:0,0:0:0:0:
278,0,190014,2,0,P|271:60|244:127,1,94.499997116089,2|0,1:2|1:0,0:0:0:0:
472,281,190333,2,0,P|426:269|379:264,1,94.499997116089,10|0,0:0|0:0,0:0:0:0:
89,347,190652,6,0,P|155:360|191:292,1,141.749995674133,2|0,1:2|0:0,0:0:0:0:
116,267,190971,2,0,L|15:257,1,94.499997116089,10|0,0:0|0:0,0:0:0:0:
261,180,191290,1,2,1:2:0:0:
219,382,191450,1,2,1:2:0:0:
114,166,191609,1,10,0:0:0:0:
246,366,191769,1,2,0:0:0:0:
396,114,191929,6,0,B|358:90|358:90|277:94|260:182,1,188.999994232178,2|8,1:2|0:0,0:0:0:0:
323,331,192407,1,2,0:0:0:0:
488,153,192567,5,2,1:2:0:0:
323,331,192726,1,0,1:0:0:0:
178,105,192886,2,0,P|129:75|51:87,1,94.499997116089,8|0,0:0|0:0,0:0:0:0:
323,331,193205,6,0,P|329:284|341:238,1,94.499997116089,6|0,1:2|0:0,0:0:0:0:
93,72,193524,2,0,P|104:117|111:164,1,94.499997116089,10|0,0:0|0:0,0:0:0:0:
326,12,193843,2,0,P|313:57|307:104,1,94.499997116089,2|0,1:2|1:0,0:0:0:0:
90,347,194163,2,0,P|83:300|71:254,1,94.499997116089,10|0,0:0|0:0,0:0:0:0:
406,354,194482,6,0,P|416:267|440:150,1,188.999994232178,2|8,1:2|0:0,0:0:0:0:
246,366,194960,1,0,0:0:0:0:
111,164,195120,2,0,P|63:159|17:154,1,94.499997116089,2|0,1:2|1:0,0:0:0:0:
247,246,195439,2,0,P|295:243|344:238,1,94.499997116089,10|0,0:0|0:0,0:0:0:0:
169,4,195758,6,0,P|139:48|161:106,1,94.499997116089,2|0,1:2|0:0,0:0:0:0:
250,331,196077,2,0,P|265:280|235:237,1,94.499997116089,10|0,0:0|0:0,0:0:0:0:
17,154,196397,1,2,1:2:0:0:
168,368,196556,1,2,1:2:0:0:
219,63,196716,1,10,0:0:0:0:
71,254,196875,1,2,1:2:0:0:
358,162,197035,5,14,0:0:0:0:
88,23,197195,1,2,1:2:0:0:
170,330,197354,5,12,0:2:0:0:
326,12,197514,1,2,1:2:0:0:
11,204,197673,6,0,P|51:176|108:186,1,99.0000030212403,2|8,1:2|0:0,0:0:0:0:
156,241,197913,1,8,0:0:0:0:
156,241,197992,2,0,P|215:256|254:237,1,99.0000030212403,8|8,0:0|0:0,0:0:0:0:
274,163,198232,1,8,0:0:0:0:
274,163,198312,6,0,B|264:207|264:207|294:283|408:266,1,188.999994232178,6|10,1:2|0:0,0:0:0:0:
505,114,198790,1,0,0:0:0:0:
496,359,198950,2,0,P|511:299|512:249,1,94.499997116089,2|0,1:2|0:0,0:0:0:0:
374,69,199269,2,0,P|359:129|358:179,1,94.499997116089,10|0,0:0|0:0,0:0:0:0:
240,364,199588,6,0,P|225:267|192:152,1,188.999994232178,2|8,1:2|0:0,0:0:0:0:
335,341,200067,1,0,0:0:0:0:
435,188,200226,2,0,P|395:154|348:168,1,94.499997116089,2|0,1:2|0:0,0:0:0:0:
183,333,200546,2,0,P|228:337|260:304,1,94.499997116089,10|0,0:2|0:0,0:0:0:0:
105,68,200865,6,0,P|100:141|76:209,1,141.749995674133,4|0,1:2|0:0,0:0:0:0:
31,285,201184,2,0,P|91:268|146:289,1,94.499997116089,8|0,0:0|0:0,0:0:0:0:
287,378,201503,1,2,0:0:0:0:
201,179,201663,1,2,0:0:0:0:
415,355,201822,1,10,0:0:0:0:
121,274,201982,1,2,0:0:0:0:
469,205,202141,6,0,B|425:187|368:212|385:217|333:238|284:217,1,188.999994232178,6|8,1:2|0:0,0:0:0:0:
326,31,202620,2,0,P|333:65|333:113,1,47.2499985580445,8|0,0:2|0:2,0:0:0:0:
203,312,202780,2,0,P|205:288|211:265,1,47.2499985580445,6|0,1:2|0:0,0:0:0:0:
425,71,202940,2,0,P|418:105|418:153,1,47.2499985580445,8|8,0:2|0:2,0:0:0:0:
201,179,203099,1,2,1:2:0:0:
458,383,203259,1,8,0:0:0:0:
458,383,203338,1,8,0:0:0:0:
458,383,203418,6,0,B|490:332|490:332|466:189,1,188.999994232178,6|10,1:2|0:0,0:0:0:0:
328,366,203897,1,0,0:0:0:0:
217,86,204057,2,0,L|200:179,1,94.499997116089,2|0,1:2|0:0,0:0:0:0:
429,32,204375,2,0,L|449:141,1,94.499997116089,10|0,0:0|0:0,0:0:0:0:
199,54,204695,6,0,B|118:43|159:96|39:114,1,141.749995674133,6|0,1:2|0:0,0:0:0:0:
1,79,205014,2,0,P|14:123|28:174,1,94.499997116089,8|0,0:0|0:0,0:0:0:0:
25,248,205253,1,0,0:0:0:0:
25,248,205333,2,0,P|65:225|119:239,1,94.499997116089,2|0,1:2|0:0,0:0:0:0:
241,384,205652,2,0,P|253:331|291:238,1,141.749995674133,10|0,0:0|0:0,0:0:0:0:
349,195,205971,6,0,P|419:209|476:219,1,99.0000030212403,6|0,1:2|0:0,0:0:0:0:
279,33,206290,2,0,B|268:78|268:78|286:124,1,94.499997116089,10|0,0:0|0:0,0:0:0:0:
509,288,206609,2,0,P|457:292|401:299,1,94.499997116089,2|10,1:2|0:0,0:0:0:0:
335,318,206849,1,8,0:0:0:0:
335,318,206929,2,0,L|338:365,1,47.2499985580445,2|0,1:2|0:0,0:0:0:0:
446,213,207088,2,0,L|450:165,1,47.2499985580445,10|0,0:3|0:0,0:0:0:0:
223,183,207247,5,6,1:2:0:0:
414,296,207407,1,0,0:0:0:0:
355,75,207567,1,8,0:0:0:0:
221,300,207726,5,10,0:0:0:0:
221,300,207807,1,8,0:2:0:0:
221,300,207886,2,0,L|160:288,1,47.2499985580445,6|8,1:2|0:2,0:0:0:0:
403,175,208046,2,0,L|449:165,1,47.2499985580445,8|8,0:2|0:2,0:0:0:0:
199,54,208205,6,0,L|187:115,1,47.2499985580445,4|4,3:0|3:0,0:0:0:0:
423,342,208365,2,0,L|413:295,1,47.2499985580445,4|4,3:0|3:0,0:0:0:0:
338,21,208525,5,14,0:0:0:0:
402,261,208684,1,0,1:0:0:0:
258,0,208843,5,10,0:0:0:0:
221,300,209004,1,0,1:0:0:0:
351,49,209163,5,10,0:0:0:0:
461,323,209322,1,0,1:0:0:0:
199,54,209482,5,10,0:0:0:0:
145,335,209641,1,0,1:0:0:0:
491,153,209801,6,0,B|410:165|433:124|331:136,1,141.749995674133,2|0,1:2|0:0,0:0:0:0:
278,169,210120,2,0,P|259:212|281:269,1,94.499997116089,10|0,0:0|0:0,0:0:0:0:
491,153,210439,2,0,P|503:108|484:65,1,94.499997116089,2|0,1:2|1:0,0:0:0:0:
234,35,210758,2,0,P|286:30|336:18,1,94.499997116089,10|0,0:0|1:0,0:0:0:0:
367,8,210998,1,0,1:0:0:0:
367,8,211077,5,2,1:2:0:0:
278,169,211237,1,0,0:0:0:0:
131,18,211397,2,0,P|79:5|30:28,1,94.499997116089,14|8,0:0|0:0,0:0:0:0:
28,44,211636,1,8,0:0:0:0:
28,44,211716,5,2,1:2:0:0:
144,210,211875,1,0,1:0:0:0:
327,20,212035,2,0,L|332:123,1,94.499997116089,14|0,0:0|1:0,0:0:0:0:
197,351,212354,6,0,L|255:280,1,67.5000025749208,10|0,0:0|1:0,0:0:0:0:
132,189,212674,2,0,L|168:282,1,76.5000014591217,10|0,0:0|0:0,0:0:0:0:
307,214,212993,2,0,L|196:197,1,85.4999977169037,10|0,3:0|0:0,0:0:0:0:
180,373,213312,2,0,L|250:285,1,94.499997116089,2|8,1:2|0:0,0:0:0:0:
119,162,213631,5,14,0:0:0:0:
426,369,213790,1,0,1:0:0:0:
78,232,213950,5,10,0:0:0:0:
419,115,214109,1,0,1:0:0:0:
261,376,214269,5,10,0:0:0:0:
337,39,214429,1,0,1:0:0:0:
342,375,214588,5,10,0:0:0:0:
234,35,214748,1,0,1:0:0:0:
36,308,214907,6,0,P|88:259|161:296,1,141.749995674133,2|0,1:2|0:0,0:0:0:0:
213,337,215226,2,0,P|259:349|303:330,1,94.499997116089,10|0,0:0|0:0,0:0:0:0:
480,176,215546,2,0,P|435:163|390:179,1,94.499997116089,2|0,1:2|1:0,0:0:0:0:
342,375,215865,2,0,P|330:305|310:237,1,141.749995674133,10|0,0:0|0:0,0:0:0:0:
268,169,216184,5,2,1:2:0:0:
493,310,216343,1,0,1:0:0:0:
338,0,216503,2,0,L|334:94,1,94.499997116089,14|8,0:0|0:0,0:0:0:0:
336,123,216742,1,8,0:0:0:0:
336,123,216822,5,2,1:2:0:0:
512,73,216982,1,0,1:0:0:0:
402,293,217141,2,0,L|308:289,1,94.499997116089,14|0,0:0|1:0,0:0:0:0:
57,360,217460,6,0,B|85:336|85:336|77:220,1,141.749995674133,10|0,0:0|0:0,0:0:0:0:
73,194,217780,2,0,B|152:202|121:134|227:134,1,141.749995674133,10|0,0:0|0:0,0:0:0:0:
224,137,218099,2,0,P|164:81|215:53,1,141.749995674133,10|0,0:0|0:0,0:0:0:0:
216,50,218418,2,0,B|319:68,1,94.499997116089,8|8,0:0|0:0,0:0:0:0:
338,72,218657,1,8,0:0:0:0:
338,72,218737,6,0,P|344:143|358:208,1,135,6|0,1:2|0:0,0:0:0:0:
462,366,219056,2,0,P|473:317|490:247,1,90,8|0,0:0|0:0,0:0:0:0:
248,375,219375,2,0,P|235:319|218:264,1,90,2|0,1:2|1:0,0:0:0:0:
416,127,219695,2,0,P|404:170|396:214,1,90,10|0,0:0|0:0,0:0:0:0:
189,55,220014,6,0,B|97:29|138:101|22:61,1,135,2|0,1:2|0:0,0:0:0:0:
30,65,220333,2,0,B|64:115|21:164,1,90,8|0,0:0|0:0,0:0:0:0:
192,216,220652,2,0,P|147:219|98:230,1,90,2|0,1:2|1:0,0:0:0:0:
216,50,220971,2,0,P|169:43|123:33,1,90,10|0,0:0|0:0,0:0:0:0:
310,269,221290,6,0,B|319:198|348:108,1,135,2|0,1:2|0:0,0:0:0:0:
357,113,221609,2,0,P|405:129|452:109,1,90,10|0,0:0|0:0,0:0:0:0:
290,3,221929,1,2,1:2:0:0:
217,190,222088,1,2,1:2:0:0:
403,48,222248,1,10,0:0:0:0:
473,261,222407,1,2,0:0:0:0:
243,79,222567,6,0,P|269:184|278:275,1,180,2|8,1:2|0:0,0:0:0:0:
153,384,223046,1,2,0:0:0:0:
74,183,223205,1,2,1:2:0:0:
247,373,223365,1,2,1:2:0:0:
415,198,223524,2,0,P|468:175|524:207,1,90,10|0,0:0|0:0,0:0:0:0:
341,374,223844,6,0,P|284:379|233:305,1,135,6|0,1:2|0:0,0:0:0:0:
226,293,224163,2,0,B|184:310|184:310|126:291,1,90,8|0,0:0|0:0,0:0:0:0:
34,114,224482,2,0,B|76:101|76:101|118:118,1,90,2|0,1:2|1:0,0:0:0:0:
19,333,224801,2,0,B|-1:218,1,90,10|0,0:0|0:0,0:0:0:0:
219,53,225120,6,0,P|201:117|187:186,1,135,2|0,1:2|0:0,0:0:0:0:
183,221,225439,2,0,P|225:198|276:211,1,90,8|0,0:0|1:0,0:0:0:0:
425,380,225758,2,0,P|430:329|440:277,1,90,2|0,1:2|1:0,0:0:0:0:
512,119,226077,2,0,P|463:164|391:146,1,135,10|0,0:0|0:0,0:0:0:0:
377,132,226397,5,2,1:2:0:0:
507,367,226556,1,10,0:0:0:0:
439,85,226716,1,10,3:0:0:0:
313,352,226875,1,6,3:0:0:0:
313,352,226955,1,4,3:0:0:0:
313,352,227035,2,0,P|266:376|195:354,1,90,2|8,1:2|0:0,0:0:0:0:
155,344,227274,1,8,0:0:0:0:
155,344,227354,2,0,P|175:269|176:229,1,90,2|4,1:2|3:0,0:0:0:0:
156,8,227673,5,6,1:2:0:0:
58,370,227992,5,6,1:2:0:0:
439,85,228312,5,6,1:2:0:0:
344,328,229081,5,2,0:0:0:0:
344,328,229190,6,0,B|430:270|402:155|402:155|376:212|320:206,1,267.750005106926,2|0,0:0|0:0,0:0:0:0:
326,125,230115,6,0,B|331:114|318:91|318:91|336:64|317:19|317:19|274:45|258:82|258:82|204:60|165:103|165:103|134:77|84:73|84:73|87:121|115:139|115:139|113:164|125:175,1,504,2|2,0:0|0:0,0:0:0:0:
139,253,231096,6,0,B|105:265|66:232|66:232|88:354|193:355,1,270.900004133606,2|0,0:0|0:0,0:0:0:0:
211,280,232180,6,0,B|262:293|268:352|268:352|255:294|297:262|297:262|268:237|273:189,1,267.750005106926,2|2,0:0|0:0,0:0:0:0:
272,200,233471,5,2,0:0:0:0:
256,192,233632,12,0,238635,0:0:0:0:
