osu file format v14

[General]
AudioFilename: audio.mp3
AudioLeadIn: 0
PreviewTime: 48200
Countdown: 0
SampleSet: Soft
StackLeniency: 0.4
Mode: 0
LetterboxInBreaks: 0
WidescreenStoryboard: 1

[Editor]
Bookmarks: 6024,16603,18100,30175,36225,42251,48289,58855,60364,70930,72440,84515,96591,108666,114704,125270,126779,137345
DistanceSpacing: 1.5
BeatDivisor: 4
GridSize: 4
TimelineZoom: 1.5

[Metadata]
Title:Emo Hardcore
TitleUnicode:Эмо Хардкор
Artist:LIDA x FRIK PATI
ArtistUnicode:LIDA x ФРИК ПАТИ
Creator:Nuvolina
Version:Hard
Source:
Tags:russian electronic Жабы атаковали планету Земля Toads Attacked the Earth Planet pw384 log off now log_off_now
BeatmapID:3083688
BeatmapSetID:1502812

[Difficulty]
HPDrainRate:4
CircleSize:3.5
OverallDifficulty:6
ApproachRate:8
SliderMultiplier:1.5
SliderTickRate:1

[Events]
//Background and Video events
0,0,"bg.jpg",0,0
//Break Periods
2,30186,35469
2,58871,59620
2,70947,71695
2,96602,101884
//Storyboard Layer 0 (Background)
//Storyboard Layer 1 (Fail)
//Storyboard Layer 2 (Pass)
//Storyboard Layer 3 (Foreground)
//Storyboard Layer 4 (Overlay)
//Storyboard Sound Samples

[TimingPoints]
4521,377.358490566038,4,2,1,60,1,0
6030,-133.333333333333,4,2,1,60,0,0
18105,-100,4,2,2,80,0,0
33200,560.747663551402,4,2,1,50,1,0
33341,444.444444444444,4,2,1,50,1,0
33563,377.358490566038,4,2,1,50,1,0
33751,314.13612565445,4,2,1,50,1,0
33908,377.358490566038,4,2,1,50,1,0
34474,472.44094488189,4,2,1,50,1,0
34710,377.358490566038,4,2,1,50,1,0
36219,-133.333333333333,4,2,1,60,0,0
40747,-133.333333333333,4,2,1,40,0,0
48294,-83.3333333333333,4,2,1,100,0,1
48672,-83.3333333333333,4,2,1,100,0,0
58860,-83.3333333333333,4,2,1,74,0,0
60370,-83.3333333333333,4,2,1,100,0,1
60747,-83.3333333333333,4,2,1,100,0,0
70936,-83.3333333333333,4,2,1,74,0,0
71690,-83.3333333333333,4,2,1,85,0,0
72445,-100,4,2,1,70,0,0
84521,-100,4,2,2,80,0,0
94332,-100,4,2,2,80,0,0
99615,560.747663551402,4,2,1,50,1,0
99755,444.444444444444,4,2,1,50,1,0
99977,377.358490566038,4,2,1,50,1,0
100165,314.13612565445,4,2,1,50,1,0
100322,377.358490566038,4,2,1,50,1,0
100888,474.308300395257,4,2,1,50,1,0
101125,377.358490566038,4,2,1,50,1,0
102634,-133.333333333333,4,2,1,50,0,0
108671,-133.333333333333,4,2,1,40,0,0
114709,-83.3333333333333,4,2,1,100,0,1
115087,-83.3333333333333,4,2,1,100,0,0
125275,-83.3333333333333,4,2,1,74,0,0
125277,-83.3333333333333,4,2,1,74,0,0
126785,-83.3333333333333,4,2,1,100,0,1
137351,-100,4,2,1,74,0,0
138860,-100,4,2,3,60,0,0

[Colours]
Combo1 : 174,234,251
Combo2 : 194,156,226
Combo3 : 255,170,217
Combo4 : 133,165,250

[HitObjects]
171,154,6030,6,0,B|230:167,1,56.2500021457673,2|0,3:2|0:2,0:0:0:0:
287,113,6408,2,0,B|254:57,1,56.2500021457673,2|0,3:2|0:2,0:0:0:0:
206,6,6785,2,0,L|92:33,1,112.500004291535,2|2,3:2|3:2,0:0:0:0:
26,161,7540,2,0,L|49:232,1,56.2500021457673,2|0,3:2|0:2,0:0:0:0:
121,230,7917,2,0,L|96:286,1,56.2500021457673,2|0,3:2|0:0,0:0:0:0:
58,366,8295,2,0,P|102:355|171:384,1,112.500004291535,2|2,3:2|3:2,0:0:0:0:
310,368,9049,6,0,L|324:303,1,56.2500021457673,2|0,3:2|0:2,0:0:0:0:
228,257,9427,2,0,L|237:321,1,56.2500021457673,2|0,3:2|0:2,0:0:0:0:
163,377,9804,1,2,3:2:0:0:
163,377,9993,1,2,0:2:0:0:
111,301,10181,2,0,L|132:238,1,56.2500021457673,2|0,3:2|0:2,0:0:0:0:
104,173,10559,2,0,L|39:161,2,56.2500021457673,2|0|2,3:2|0:2|3:2,0:0:0:0:
167,118,11125,1,2,0:2:0:0:
207,194,11314,2,0,P|248:174|318:192,1,112.500004291535,2|2,3:2|3:2,0:0:0:0:
347,343,12068,6,0,L|406:343,1,56.2500021457673,2|0,3:2|0:2,0:0:0:0:
473,372,12446,2,0,L|502:318,1,56.2500021457673,2|0,3:2|0:2,0:0:0:0:
448,259,12823,2,0,P|489:228|491:169,1,112.500004291535,2|2,3:2|3:2,0:0:0:0:
472,44,13578,2,0,L|407:63,1,56.2500021457673,2|2,3:2|0:2,0:0:0:0:
335,57,13955,2,0,L|356:114,1,56.2500021457673,2|0,3:2|0:2,0:0:0:0:
373,192,14332,2,0,L|253:170,1,112.500004291535,2|2,3:2|3:2,0:0:0:0:
146,295,15087,6,0,L|129:232,1,56.2500021457673,2|0,3:2|0:2,0:0:0:0:
154,159,15464,2,0,L|135:96,1,56.2500021457673,2|2,3:2|0:2,0:0:0:0:
72,55,15842,1,2,3:2:0:0:
72,55,16031,1,2,0:2:0:0:
51,132,16219,2,0,L|62:196,1,56.2500021457673,2|2,3:2|0:2,0:0:0:0:
60,187,18106,6,0,B|68:296,2,75,2|2|2,3:2|0:3|1:2,0:0:0:0:
6,103,18672,1,2,0:3:0:0:
80,40,18861,2,0,P|131:91|208:60,1,150,2|2,3:2|1:2,0:0:0:0:
375,153,19615,2,0,P|332:146|308:122,1,75,2|2,3:2|0:3,0:0:0:0:
324,31,19993,1,2,1:2:0:0:
324,31,20181,1,2,0:3:0:0:
421,19,20370,2,0,P|486:44|496:123,1,150,2|2,3:2|1:2,0:0:0:0:
469,309,21125,6,0,B|488:407,2,75,2|2|2,3:2|0:3|1:2,0:0:0:0:
398,241,21691,1,2,0:3:0:0:
310,283,21880,2,0,P|280:262|226:260,2,75,2|0|2,3:2|0:2|1:2,0:0:0:0:
135,369,22634,6,0,L|46:350,1,75,2|0,3:2|0:2,0:0:0:0:
96,265,23012,2,0,L|7:271,1,75,2|0,1:2|0:2,0:0:0:0:
175,290,23389,1,2,3:2:0:0:
90,114,23766,1,2,1:2:0:0:
280,71,24144,2,0,P|320:72|357:98,1,75,2|0,3:2|0:2,0:0:0:0:
324,183,24521,2,0,P|284:182|247:156,1,75,2|0,1:2|0:2,0:0:0:0:
191,90,24898,2,0,L|186:9,1,75,2|0,3:2|0:2,0:0:0:0:
97,55,25276,1,2,1:2:0:0:
82,151,25464,1,0,0:2:0:0:
147,223,25653,6,0,B|138:300,2,75,2|2|2,3:2|0:3|1:2,0:0:0:0:
242,192,26219,1,2,0:3:0:0:
242,192,26408,1,2,3:2:0:0:
339,360,26785,2,0,B|370:340|370:340|412:344,1,75,2|0,1:2|0:0,0:0:0:0:
504,361,27163,2,0,L|476:289,1,75,2|0,3:2|0:2,0:0:0:0:
396,235,27540,2,0,L|424:163,1,75,2|0,1:2|0:2,0:0:0:0:
388,52,27917,2,0,L|316:80,1,75,2|0,3:2|0:2,0:0:0:0:
218,149,28295,2,0,L|288:177,1,75,2|0,1:2|0:2,0:0:0:0:
226,52,28672,5,2,0:0:0:0:
226,52,36219,6,0,B|171:74|171:74|107:43,2,112.500004291535,2|2|2,0:2|0:2|0:2,0:0:0:0:
370,73,37351,1,2,0:2:0:0:
370,73,37540,2,0,P|330:111|346:181,1,112.500004291535,2|0,0:3|0:2,0:0:0:0:
381,229,38106,1,2,0:2:0:0:
264,316,38483,2,0,L|272:378,1,56.2500021457673,2|0,0:2|0:0,0:0:0:0:
183,300,38861,2,0,L|199:240,1,56.2500021457673,2|0,0:2|0:2,0:0:0:0:
113,336,39238,6,0,P|56:328|24:277,1,112.500004291535,2|2,0:2|0:2,0:0:0:0:
6,140,39993,1,2,0:2:0:0:
137,75,40370,1,2,0:2:0:0:
137,75,40559,2,0,P|183:104|257:93,1,112.500004291535,2|2,0:3|0:2,0:0:0:0:
303,46,41125,1,2,0:2:0:0:
364,178,41502,1,2,0:2:0:0:
245,263,41880,1,2,0:2:0:0:
187,128,42257,5,2,3:2:0:0:
182,134,43012,1,2,0:2:0:0:
176,140,43766,1,2,0:2:0:0:
170,146,44521,1,2,0:2:0:0:
164,152,45276,5,2,0:3:0:0:
353,56,46031,1,2,0:3:0:0:
449,244,46785,1,2,0:3:0:0:
260,340,47540,1,2,0:3:0:0:
164,152,48294,6,0,L|63:132,2,89.9999972534181,6|2|2,3:2|0:3|1:2,0:0:0:0:
196,264,48860,1,2,0:2:0:0:
296,203,49049,5,2,3:2:0:0:
296,203,49238,1,2,0:3:0:0:
267,94,49427,1,2,1:2:0:0:
267,94,49615,1,2,0:3:0:0:
378,57,49804,6,0,P|403:30|474:31,2,89.9999972534181,2|2|2,3:2|0:3|1:2,0:0:0:0:
437,158,50370,1,2,0:3:0:0:
396,268,50559,2,0,P|419:297|409:363,2,89.9999972534181,2|2|2,3:2|0:3|1:2,0:0:0:0:
294,211,51125,1,2,0:3:0:0:
258,79,51314,5,2,3:2:0:0:
151,32,51502,1,2,0:3:0:0:
60,106,51691,2,0,L|103:202,1,89.9999972534181,2|2,1:2|0:3,0:0:0:0:
28,283,52068,5,2,3:2:0:0:
28,283,52257,1,2,0:3:0:0:
113,362,52446,1,2,1:2:0:0:
113,362,52634,1,2,0:3:0:0:
227,337,52822,6,0,P|264:360|326:345,2,89.9999972534181,2|2|2,3:2|0:3|1:2,0:0:0:0:
210,220,53388,1,2,0:3:0:0:
322,187,53578,2,0,P|321:146|366:103,2,89.9999972534181,2|2|2,3:2|0:3|1:2,0:0:0:0:
404,270,54144,1,2,0:3:0:0:
508,177,54332,5,2,3:2:0:0:
455,72,54520,1,2,0:3:0:0:
338,81,54709,2,0,L|250:60,1,89.9999972534181,2|2,1:2|0:3,0:0:0:0:
143,26,55086,5,2,3:2:0:0:
143,26,55275,1,2,0:3:0:0:
60,108,55464,1,2,1:2:0:0:
60,108,55652,1,2,0:3:0:0:
140,193,55841,6,0,P|174:166|240:173,2,89.9999972534181,2|2|2,3:2|0:3|1:2,0:0:0:0:
74,295,56407,1,2,0:3:0:0:
174,354,56596,2,0,P|174:305|206:253,2,89.9999972534181,2|2|2,3:2|0:3|1:2,0:0:0:0:
284,313,57163,1,2,0:3:0:0:
378,370,57351,6,0,L|396:282,2,89.9999972534181,2|2|2,3:2|0:3|1:2,0:0:0:0:
487,326,57917,1,2,0:3:0:0:
476,214,58105,5,2,3:2:0:0:
476,214,58294,1,2,0:3:0:0:
368,180,58483,1,2,1:2:0:0:
368,180,58671,1,2,0:3:0:0:
368,180,60370,5,6,3:2:0:0:
255,213,60559,1,2,0:3:0:0:
157,149,60747,2,0,L|213:56,1,89.9999972534181,2|2,1:2|0:3,0:0:0:0:
69,14,61125,5,2,3:2:0:0:
69,14,61314,1,2,0:3:0:0:
9,114,61502,1,2,1:2:0:0:
9,114,61691,1,2,0:3:0:0:
83,204,61880,6,0,P|114:167|167:170,1,89.9999972534181,2|2,3:2|0:3,0:0:0:0:
262,207,62257,1,2,1:2:0:0:
262,207,62446,1,2,0:3:0:0:
207,309,62634,2,0,P|238:346|291:343,1,89.9999972534181,2|2,3:2|0:3,0:0:0:0:
386,306,63011,1,2,1:2:0:0:
386,306,63200,1,2,0:3:0:0:
503,308,63389,6,0,L|452:389,2,89.9999972534181,2|2|2,3:2|0:3|1:2,0:0:0:0:
469,195,63955,1,0,0:2:0:0:
364,243,64144,5,2,3:2:0:0:
364,243,64332,1,2,0:3:0:0:
327,136,64521,1,2,1:2:0:0:
327,136,64710,1,2,0:3:0:0:
224,191,64898,6,0,P|232:143|196:104,1,89.9999972534181,2|2,3:2|0:3,0:0:0:0:
107,56,65275,1,2,1:2:0:0:
107,56,65464,1,2,0:3:0:0:
25,139,65653,2,0,P|69:158|80:210,1,89.9999972534181,2|2,3:2|0:3,0:0:0:0:
72,312,66031,1,2,1:2:0:0:
72,312,66219,1,2,0:3:0:0:
181,355,66408,5,2,3:2:0:0:
248,259,66597,1,2,0:3:0:0:
175,167,66785,2,0,L|236:83,1,89.9999972534181,2|2,1:2|0:3,0:0:0:0:
320,20,67163,5,2,3:2:0:0:
320,20,67352,1,2,0:3:0:0:
408,103,67540,1,2,1:2:0:0:
408,103,67729,1,2,0:3:0:0:
324,185,67918,6,0,P|361:216|358:269,1,89.9999972534181,2|2,3:2|0:3,0:0:0:0:
321,364,68295,1,2,1:2:0:0:
321,364,68484,1,2,0:3:0:0:
228,292,68672,2,0,P|197:329|144:326,1,89.9999972534181,2|2,3:2|0:3,0:0:0:0:
49,289,69049,1,2,1:2:0:0:
49,289,69238,1,2,0:3:0:0:
75,174,69427,6,0,L|50:78,2,89.9999972534181,2|2|2,3:2|0:3|1:2,0:0:0:0:
185,213,69993,1,0,0:2:0:0:
267,131,70181,5,2,3:2:0:0:
267,131,70370,1,2,0:3:0:0:
202,33,70559,1,2,1:2:0:0:
202,33,70747,1,2,0:3:0:0:
27,189,72445,6,0,L|44:267,1,75,2|2,3:2|0:2,0:0:0:0:
107,335,72823,1,2,3:2:0:0:
124,141,73200,2,0,L|143:68,1,75,2|0,3:2|0:2,0:0:0:0:
228,20,73578,1,2,3:2:0:0:
228,20,73766,1,2,0:2:0:0:
301,84,73955,2,0,L|398:102,1,75,2|0,3:2|0:2,0:0:0:0:
471,86,74332,2,0,L|462:160,1,75,2|0,3:2|0:2,0:0:0:0:
375,207,74710,2,0,L|413:290,1,75,2|0,3:2|0:2,0:0:0:0:
470,348,75087,1,2,3:2:0:0:
275,344,75464,6,0,L|292:266,1,75,2|0,3:2|0:2,0:0:0:0:
229,194,75841,1,2,3:2:0:0:
65,299,76219,2,0,L|84:226,1,75,2|0,3:2|0:2,0:0:0:0:
49,139,76596,1,2,3:2:0:0:
49,139,76784,1,2,0:2:0:0:
107,60,76974,2,0,L|204:78,1,75,2|2,3:2|0:2,0:0:0:0:
273,42,77351,2,0,L|264:116,1,75,2|0,3:2|0:2,0:0:0:0:
286,212,77729,1,2,3:2:0:0:
439,331,78106,2,0,L|477:248,1,75,2|2,3:2|0:2,0:0:0:0:
401,193,78483,6,0,L|418:115,1,75,2|0,3:2|0:2,0:0:0:0:
480,45,78860,1,2,3:2:0:0:
288,11,79238,2,0,L|215:30,1,75,2|0,3:2|0:2,0:0:0:0:
167,115,79615,1,2,3:2:0:0:
167,115,79803,1,0,0:2:0:0:
70,100,79992,2,0,L|88:197,1,75,2|2,3:2|0:2,0:0:0:0:
174,210,80370,2,0,L|165:284,1,75,2|0,3:2|0:2,0:0:0:0:
86,343,80747,1,2,3:2:0:0:
277,379,81124,1,2,3:2:0:0:
459,310,81502,6,0,L|442:232,1,75,2|2,3:2|0:2,0:0:0:0:
379,164,81879,1,0,3:2:0:0:
210,261,82257,2,0,L|229:188,1,75,2|0,3:2|0:2,0:0:0:0:
180,108,82634,1,2,3:2:0:0:
180,108,82822,1,2,0:2:0:0:
180,108,84521,6,0,B|188:-1,2,75,2|0|2,3:2|0:0|1:2,0:0:0:0:
92,151,85087,1,2,0:3:0:0:
145,232,85276,2,0,P|196:283|273:252,1,150,2|2,3:2|1:2,0:0:0:0:
427,156,86030,2,0,P|384:149|360:125,1,75,2|2,3:2|0:3,0:0:0:0:
319,45,86408,1,2,1:2:0:0:
319,45,86596,1,2,0:3:0:0:
257,121,86785,2,0,L|322:280,1,150,2|2,3:2|1:2,0:0:0:0:
125,311,87540,6,0,B|88:404,2,75,2|0|2,3:2|0:2|1:2,0:0:0:0:
78,225,88106,1,2,0:3:0:0:
136,147,88295,2,0,B|115:113|115:113|116:67,2,75,2|0|2,3:2|0:2|1:2,0:0:0:0:
309,57,89049,6,0,P|334:90|328:134,1,75,2|2,3:2|0:3,0:0:0:0:
261,188,89427,2,0,P|261:224|285:253,1,75,2|2,1:2|0:3,0:0:0:0:
377,319,89804,2,0,L|401:228,1,75,2|0,3:2|0:2,0:0:0:0:
463,175,90181,1,2,1:2:0:0:
309,57,90559,2,0,L|230:66,1,75,2|2,3:2|0:3,0:0:0:0:
136,63,90936,2,0,L|169:133,1,75,2|2,1:2|0:3,0:0:0:0:
228,207,91313,2,0,P|256:187|307:190,1,75,2|0,3:2|0:2,0:0:0:0:
369,249,91691,1,2,1:2:0:0:
313,328,91879,1,0,0:2:0:0:
218,303,92068,6,0,B|141:294,2,75,2|2|2,3:2|0:3|1:2,0:0:0:0:
228,207,92634,1,2,0:3:0:0:
228,207,92823,1,2,3:2:0:0:
93,65,93200,2,0,B|124:45|124:45|166:49,1,75,2|0,1:2|0:0,0:0:0:0:
277,42,93578,2,0,P|251:68|256:114,1,75,2|0,3:2|0:2,0:0:0:0:
316,176,93955,1,2,1:2:0:0:
316,176,94144,1,0,0:2:0:0:
415,67,94332,2,0,L|343:95,1,75,2|0,3:2|0:2,0:0:0:0:
415,162,94710,2,0,L|485:190,1,75,2|0,1:2|0:2,0:0:0:0:
400,257,95087,5,2,0:0:0:0:
400,257,102634,6,0,B|444:241|444:241|493:284,2,112.500004291535,2|2|2,0:2|0:2|0:2,0:0:0:0:
284,347,103766,1,2,0:2:0:0:
200,226,104144,2,0,L|193:149,2,56.2500021457673,2|2|2,0:2|0:3|0:2,0:0:0:0:
76,304,104898,2,0,L|84:366,1,56.2500021457673,2|0,0:2|0:0,0:0:0:0:
3,259,105276,2,0,L|19:199,1,56.2500021457673,2|0,0:2|0:2,0:0:0:0:
93,159,105653,6,0,P|98:101|51:50,1,112.500004291535,2|2,0:2|0:2,0:0:0:0:
209,22,106408,2,0,L|210:87,1,56.2500021457673,2|0,0:2|0:2,0:0:0:0:
240,157,106785,1,2,0:2:0:0:
240,157,106974,1,2,0:3:0:0:
240,157,108672,5,2,3:2:0:0:
246,160,109427,1,2,0:2:0:0:
254,164,110181,1,2,0:2:0:0:
262,167,110936,1,2,0:2:0:0:
270,171,111691,5,2,0:3:0:0:
247,381,112446,1,2,0:3:0:0:
36,359,113200,1,2,0:3:0:0:
59,149,113955,1,2,0:3:0:0:
270,171,114710,5,4,3:2:0:0:
340,264,114898,1,2,0:3:0:0:
408,358,115087,2,0,L|464:265,1,89.9999972534181,0|2,1:2|0:3,0:0:0:0:
458,162,115465,5,2,3:2:0:0:
458,162,115654,1,2,0:3:0:0:
512,60,115842,1,2,1:2:0:0:
512,60,116031,1,2,0:3:0:0:
399,27,116220,6,0,P|368:64|315:61,1,89.9999972534181,2|2,3:2|0:3,0:0:0:0:
217,47,116597,1,2,1:2:0:0:
217,47,116786,1,2,0:3:0:0:
107,86,116974,2,0,P|93:129|122:190,1,89.9999972534181,2|2,3:2|0:3,0:0:0:0:
173,265,117351,1,2,1:2:0:0:
173,265,117540,1,2,0:3:0:0:
278,213,117729,6,0,L|227:132,2,89.9999972534181,2|2|2,3:2|0:3|1:2,0:0:0:0:
340,312,118295,1,0,0:2:0:0:
458,341,118484,5,2,3:2:0:0:
458,341,118672,1,2,0:3:0:0:
421,234,118861,1,2,1:2:0:0:
421,234,119050,1,2,0:3:0:0:
340,312,119238,6,0,P|292:304|253:340,1,89.9999972534181,2|2,3:2|0:3,0:0:0:0:
158,382,119615,1,2,1:2:0:0:
158,382,119804,1,2,0:3:0:0:
70,305,119992,2,0,P|94:261|75:201,1,89.9999972534181,2|2,3:2|0:3,0:0:0:0:
26,130,120369,1,2,1:2:0:0:
26,130,120558,1,2,0:3:0:0:
99,37,120748,5,2,3:2:0:0:
211,71,120937,1,2,0:3:0:0:
323,101,121125,2,0,L|384:17,1,89.9999972534181,0|2,1:2|0:3,0:0:0:0:
470,106,121503,5,2,3:2:0:0:
470,106,121690,1,2,0:3:0:0:
407,205,121880,1,2,1:2:0:0:
407,205,122069,1,2,0:3:0:0:
482,294,122256,6,0,P|451:331|398:328,1,89.9999972534181,2|2,3:2|0:3,0:0:0:0:
303,291,122635,1,2,1:2:0:0:
303,291,122822,1,2,0:3:0:0:
241,192,123012,2,0,P|195:208|180:259,1,89.9999972534181,2|2,3:2|0:3,0:0:0:0:
182,362,123389,1,2,1:2:0:0:
182,362,123578,1,2,0:3:0:0:
62,292,123766,6,0,L|39:379,2,89.9999972534181,2|2|2,3:2|0:3|1:2,0:0:0:0:
52,175,124333,1,2,0:3:0:0:
130,89,124521,5,2,3:2:0:0:
130,89,124710,1,2,0:3:0:0:
250,103,124899,1,2,1:2:0:0:
250,103,125087,1,2,0:3:0:0:
250,103,126785,5,2,3:2:0:0:
135,77,126974,1,2,0:3:0:0:
22,46,127162,2,0,L|38:160,1,89.9999972534181,2|2,1:2|0:3,0:0:0:0:
95,236,127540,5,2,3:2:0:0:
97,353,127729,1,2,0:3:0:0:
181,272,127917,1,2,1:2:0:0:
134,379,128106,1,2,0:3:0:0:
251,378,128295,6,0,P|250:329|293:297,1,89.9999972534181,2|2,3:2|0:3,0:0:0:0:
390,265,128672,1,2,1:2:0:0:
390,265,128861,1,2,0:3:0:0:
468,178,129049,2,0,P|468:129|425:97,1,89.9999972534181,2|2,3:2|0:3,0:0:0:0:
340,50,129426,1,2,1:2:0:0:
340,50,129615,1,2,0:3:0:0:
259,139,129804,5,2,3:2:0:0:
147,103,129993,1,2,0:3:0:0:
35,68,130181,2,0,L|51:182,1,89.9999972534181,2|2,1:2|0:3,0:0:0:0:
56,274,130559,5,2,3:2:0:0:
157,331,130747,1,2,0:3:0:0:
259,274,130936,1,2,1:2:0:0:
351,346,131125,1,2,0:3:0:0:
460,304,131314,6,0,P|460:255|417:223,1,89.9999972534181,2|2,3:2|0:3,0:0:0:0:
371,134,131691,1,2,1:2:0:0:
371,134,131880,1,2,0:3:0:0:
254,139,132068,2,0,P|253:90|296:58,1,89.9999972534181,2|2,3:2|0:3,0:0:0:0:
393,26,132445,1,2,1:2:0:0:
393,26,132634,1,2,0:3:0:0:
484,98,132823,5,2,3:2:0:0:
449,210,133012,1,2,0:3:0:0:
413,321,133200,2,0,L|306:288,1,89.9999972534181,2|2,1:2|0:3,0:0:0:0:
225,353,133578,5,2,3:2:0:0:
184,243,133766,1,2,0:3:0:0:
120,341,133955,1,2,1:2:0:0:
143,226,134144,1,2,0:3:0:0:
31,260,134332,6,0,P|54:223|45:163,1,89.9999972534181,2|2,3:2|0:3,0:0:0:0:
12,67,134710,1,2,1:2:0:0:
12,67,134898,1,2,0:3:0:0:
124,34,135087,2,0,P|158:83|196:83,1,89.9999972534181,2|2,3:2|0:3,0:0:0:0:
294,46,135464,1,2,1:2:0:0:
294,46,135653,1,2,0:3:0:0:
378,126,135841,5,2,3:2:0:0:
395,241,136030,1,2,0:3:0:0:
405,357,136219,2,0,L|291:341,1,89.9999972534181,2|2,1:2|0:3,0:0:0:0:
215,282,136597,2,0,L|231:182,2,89.9999972534181,2|2|2,3:2|0:3|1:2,0:0:0:0:
107,329,137163,1,2,0:3:0:0:
134,235,137351,6,0,P|90:221|54:238,2,75,2|2|2,0:2|0:3|0:2,0:0:0:0:
214,290,137917,1,2,0:3:0:0:
316,233,138106,2,0,L|301:141,2,75,2|2|2,0:2|0:3|0:2,0:0:0:0:
386,300,138672,1,2,0:3:0:0:
466,244,138861,5,2,0:2:0:0:
466,244,139238,1,2,0:2:0:0:
