osu file format v14

[General]
AudioFilename: audio.mp3
AudioLeadIn: 0
PreviewTime: 48200
Countdown: 0
SampleSet: Soft
StackLeniency: 0.4
Mode: 0
LetterboxInBreaks: 0
WidescreenStoryboard: 0

[Editor]
Bookmarks: 6024,16603,18100,30175,36225,42251,48289,58855,60364,70930,72440,84515,96591,108666,114704,125270,126779,137345
DistanceSpacing: 1
BeatDivisor: 4
GridSize: 4
TimelineZoom: 1.5

[Metadata]
Title:Emo Hardcore
TitleUnicode:Эмо Хардкор
Artist:LIDA x FRIK PATI
ArtistUnicode:LIDA x ФРИК ПАТИ
Creator:Nuvolina
Version:Expert
Source:
Tags:russian electronic Жабы атаковали планету Земля Toads Attacked the Earth Planet pw384 log off now log_off_now
BeatmapID:3078875
BeatmapSetID:1502812

[Difficulty]
HPDrainRate:5
CircleSize:3.8
OverallDifficulty:9
ApproachRate:9.2
SliderMultiplier:1.8
SliderTickRate:1

[Events]
//Background and Video events
0,0,"bg.jpg",0,0
//Break Periods
//Storyboard Layer 0 (Background)
//Storyboard Layer 1 (Fail)
//Storyboard Layer 2 (Pass)
//Storyboard Layer 3 (Foreground)
//Storyboard Layer 4 (Overlay)
//Storyboard Sound Samples

[TimingPoints]
4521,377.358490566038,4,2,1,60,1,0
6030,-100,4,2,1,60,0,0
7068,-100,4,2,1,5,0,0
7162,-100,4,2,1,60,0,0
8200,-100,4,2,1,5,0,0
8294,-100,4,2,1,60,0,0
11596,-100,4,2,1,5,0,0
11690,-100,4,2,1,60,0,0
13105,-100,4,2,1,5,0,0
13200,-100,4,2,1,60,0,0
18105,-66.6666666666667,4,2,2,80,0,0
18860,-83.3333333333333,4,2,2,80,0,0
19615,-100,4,2,2,80,0,0
21124,-66.6666666666667,4,2,2,80,0,0
21879,-83.3333333333333,4,2,2,80,0,0
22634,-100,4,2,2,80,0,0
23672,-100,4,2,2,5,0,0
23766,-100,4,2,2,80,0,0
24143,-66.6666666666667,4,2,2,80,0,0
24898,-83.3333333333333,4,2,2,80,0,0
25653,-100,4,2,2,80,0,0
27162,-66.6666666666667,4,2,2,80,0,0
27917,-83.3333333333333,4,2,2,80,0,0
28672,-100,4,2,2,80,0,0
29992,-100,4,2,2,50,0,0
30181,-100,4,2,1,50,0,0
31219,-100,4,2,1,5,0,0
31313,-100,4,2,1,50,0,0
32728,-100,4,2,1,5,0,0
32822,-100,4,2,1,50,0,0
33200,560.747663551402,4,2,1,50,1,0
33341,444.444444444444,4,2,1,50,1,0
33563,377.358490566038,4,2,1,50,1,0
33751,314.13612565445,4,2,1,50,1,0
33908,377.358490566038,4,2,1,50,1,0
34474,472.44094488189,4,2,1,50,1,0
34710,377.358490566038,4,2,1,50,1,0
35747,-100,4,2,1,5,0,0
35841,-100,4,2,1,50,0,0
36219,-100,4,2,1,60,0,0
37257,-100,4,2,1,5,0,0
37351,-100,4,2,1,60,0,0
38766,-100,4,2,1,60,0,0
38860,-100,4,2,1,60,0,0
40747,-133.333333333333,4,2,1,40,0,0
48294,-50,4,2,1,100,0,1
48672,-50,4,2,1,100,0,0
58860,-66.6666666666667,4,2,1,74,0,0
60370,-50,4,2,1,100,0,1
60747,-50,4,2,1,100,0,0
70936,-66.6666666666667,4,2,1,74,0,0
71690,-66.6666666666667,4,2,1,85,0,0
72445,-100,4,2,1,70,0,0
84521,-66.6666666666667,4,2,2,80,0,0
85275,-83.3333333333333,4,2,2,80,0,0
86030,-100,4,2,2,80,0,0
87539,-66.6666666666667,4,2,2,80,0,0
88294,-83.3333333333333,4,2,2,80,0,0
89049,-100,4,2,2,80,0,0
90558,-66.6666666666667,4,2,2,80,0,0
91313,-83.3333333333333,4,2,2,80,0,0
92068,-100,4,2,2,80,0,0
93577,-66.6666666666667,4,2,2,80,0,0
94332,-83.3333333333333,4,2,2,80,0,0
95087,-83.3333333333333,4,2,2,100,0,0
96407,-83.3333333333333,4,2,2,50,0,0
96596,-100,4,2,1,50,0,0
97634,-100,4,2,1,5,0,0
97728,-100,4,2,1,50,0,0
99143,-100,4,2,1,5,0,0
99237,-100,4,2,1,50,0,0
99615,560.747663551402,4,2,1,50,1,0
99755,444.444444444444,4,2,1,50,1,0
99977,377.358490566038,4,2,1,50,1,0
100165,314.13612565445,4,2,1,50,1,0
100322,377.358490566038,4,2,1,50,1,0
100888,474.308300395257,4,2,1,50,1,0
101125,377.358490566038,4,2,1,50,1,0
102162,-100,4,2,1,5,0,0
102256,-100,4,2,1,50,0,0
103671,-100,4,2,1,5,0,0
103766,-100,4,2,1,50,0,0
105181,-100,4,2,1,5,0,0
105275,-100,4,2,1,50,0,0
108671,-100,4,2,1,40,0,0
114709,-50,4,2,1,100,0,1
115087,-50,4,2,1,100,0,0
125275,-66.6666666666667,4,2,1,74,0,0
126785,-50,4,2,1,100,0,1
127539,-66.6666666666667,4,2,1,100,0,1
129049,-66.6666666666667,4,2,1,100,0,1
129804,-66.6666666666667,4,2,1,100,0,1
132068,-66.6666666666667,4,2,1,100,0,1
132822,-66.6666666666667,4,2,1,100,0,1
135087,-66.6666666666667,4,2,1,100,0,1
135841,-66.6666666666667,4,2,1,100,0,1
137351,-50,4,2,1,74,0,0
138860,-100,4,2,3,60,0,0

[Colours]
Combo1 : 174,234,251
Combo2 : 194,156,226
Combo3 : 255,170,217
Combo4 : 133,165,250

[HitObjects]
50,240,6030,6,0,L|146:286,1,90,2|0,3:2|0:2,0:2:0:0:
243,225,6408,2,0,L|208:317,1,90,2|0,3:2|0:2,0:2:0:0:
166,173,6785,2,0,P|200:138|294:156,1,135,2|0,3:2|0:2,0:2:0:0:
299,159,7162,2,0,L|276:48,1,90,2|0,3:2|0:2,0:2:0:0:
426,210,7540,2,0,L|403:99,1,90,2|0,3:2|0:2,0:2:0:0:
341,276,7917,2,0,P|406:322|472:298,1,135,2|0,3:2|0:2,0:2:0:0:
495,287,8294,2,0,L|475:376,1,90,2|0,3:2|0:2,0:2:0:0:
260,332,8672,6,0,L|235:233,1,90,2|0,3:2|0:2,0:2:0:0:
83,334,9050,2,0,P|116:311|167:319,1,90,2|0,3:2|0:2,0:2:0:0:
147,217,9427,2,0,L|172:118,1,90,2|0,3:2|0:2,0:2:0:0:
158,96,9710,1,2,0:2:0:0:
185,70,9805,2,0,L|296:93,1,90,2|0,3:2|0:2,0:2:0:0:
401,128,10182,2,0,P|372:93|378:17,1,90,2|0,3:2|0:2,0:2:0:0:
512,121,10559,1,2,3:2:0:0:
462,201,10748,1,2,0:2:0:0:
346,203,10936,1,2,3:2:0:0:
396,283,11125,1,2,0:2:0:0:
328,343,11313,2,0,P|268:306|198:328,1,135,2|0,3:2|0:2,0:2:0:0:
161,347,11691,2,0,L|183:243,1,90,2|0,3:2|0:2,0:2:0:0:
168,67,12068,6,0,L|80:106,1,90,2|0,3:2|0:2,0:2:0:0:
75,256,12446,2,0,P|61:204|31:180,1,90,2|0,3:2|0:2,0:2:0:0:
152,175,12823,2,0,P|186:210|280:192,1,135,2|0,3:2|0:2,0:2:0:0:
299,180,13200,2,0,L|265:278,1,90,2|0,3:2|0:2,0:2:0:0:
380,367,13578,1,2,3:2:0:0:
478,340,13766,1,2,0:2:0:0:
378,199,13955,2,0,L|412:297,1,90,2|0,3:2|0:2,0:2:0:0:
453,129,14332,2,0,P|417:106|361:112,1,90,2|0,3:2|0:2,0:2:0:0:
290,121,14615,1,2,0:2:0:0:
290,121,14710,2,0,L|311:33,1,90,2|0,3:2|0:2,0:2:0:0:
67,113,15087,6,0,L|121:215,1,90,2|0,3:2|0:2,0:2:0:0:
159,350,15464,1,2,3:2:0:0:
69,280,15653,1,2,0:2:0:0:
197,258,15842,2,0,L|310:271,1,90,2|0,3:2|0:2,0:2:0:0:
404,344,16219,1,2,3:2:0:0:
467,248,16408,1,2,0:2:0:0:
467,248,18105,5,2,3:2:0:0:
330,242,18295,1,2,0:3:0:0:
374,97,18483,1,2,1:2:0:0:
507,127,18672,1,2,0:3:0:0:
237,148,18860,2,0,L|271:37,1,107.999996704102,2|0,3:2|0:2,0:2:0:0:
269,44,19238,2,0,L|237:148,1,107.999996704102,2|0,1:2|0:2,0:2:0:0:
262,305,19615,5,2,3:2:0:0:
266,324,19804,1,2,0:3:0:0:
369,377,19993,1,2,1:2:0:0:
375,356,20181,1,2,0:3:0:0:
489,328,20370,2,0,L|455:226,1,90,2|0,3:2|0:0,0:0:0:0:
374,97,20747,2,0,L|340:199,1,90,2|0,1:2|0:0,0:0:0:0:
228,360,21125,5,2,3:2:0:0:
138,241,21314,1,2,0:3:0:0:
228,122,21502,1,2,1:2:0:0:
138,3,21691,1,2,0:3:0:0:
19,119,21879,2,0,P|62:148|115:145,1,107.999996704102,2|0,3:2|0:2,0:2:0:0:
116,144,22257,2,0,P|63:148|19:119,1,107.999996704102,2|0,1:2|0:2,0:2:0:0:
255,36,22634,6,0,L|225:128,1,90,2|0,3:2|0:2,0:2:0:0:
360,229,23012,2,0,L|324:126,1,90,2|0,1:2|0:2,0:2:0:0:
301,329,23389,2,0,L|468:360,1,135,2|0,3:2|0:0,0:0:0:0:
499,252,23766,2,0,L|445:276,1,45,2|0,1:2|0:2,0:2:0:0:
210,349,24143,6,0,B|76:320,1,135.000005149842,2|0,3:2|0:2,0:2:0:0:
290,211,24521,2,0,B|428:184,1,135.000005149842,2|0,1:2|0:2,0:2:0:0:
134,66,24898,2,0,B|156:171,1,107.999996704102,2|0,3:2|0:2,0:2:0:0:
156,171,25276,2,0,B|134:66,1,107.999996704102,2|0,1:2|0:2,0:2:0:0:
149,258,25653,5,2,3:2:0:0:
135,268,25842,1,2,0:3:0:0:
56,170,26031,1,2,1:2:0:0:
39,167,26219,1,2,0:3:0:0:
134,65,26408,2,0,L|260:96,1,90,2|0,3:2|0:0,0:0:0:0:
398,141,26785,2,0,L|310:162,1,90,2|0,1:2|0:0,0:0:0:0:
216,343,27163,6,0,P|212:275|267:240,1,135.000005149842,2|0,3:2|0:2,0:2:0:0:
485,127,27540,2,0,P|417:131|382:76,1,135.000005149842,2|0,1:2|0:2,0:2:0:0:
126,61,27917,2,0,B|179:72|179:72|231:39,1,107.999996704102,2|0,3:2|0:2,0:2:0:0:
224,43,28295,2,0,B|179:72|179:72|126:61,1,107.999996704102,2|0,1:2|0:2,0:2:0:0:
186,152,28671,5,2,0:0:0:0:
186,152,29993,5,8,0:2:0:0:
53,85,30181,5,2,0:2:0:0:
140,21,30370,1,2,0:3:0:0:
100,154,30558,2,0,L|64:254,1,90,2|0,0:2|0:2,0:2:0:0:
42,375,30936,2,0,P|85:325|163:336,1,135,2|0,0:2|0:2,0:2:0:0:
192,379,31313,2,0,L|216:258,1,90,2|0,0:2|0:2,0:2:0:0:
198,150,31691,1,2,0:2:0:0:
198,150,31880,1,2,0:3:0:0:
277,77,32068,1,2,0:2:0:0:
277,77,32257,1,2,0:3:0:0:
428,150,32446,2,0,B|391:138|391:138|352:231,1,135,2|0,0:2|0:2,0:2:0:0:
358,299,32822,2,0,P|321:254|274:256,1,90,2|0,0:2|0:2,0:2:0:0:
432,380,33200,5,2,0:2:0:0:
508,317,33341,1,2,0:3:0:0:
463,176,33563,2,0,L|476:69,1,90,2|0,0:2|0:2,0:2:0:0:
383,23,33908,1,2,0:2:0:0:
383,23,34096,1,2,0:3:0:0:
294,83,34285,1,2,0:2:0:0:
294,83,34474,1,2,0:3:0:0:
174,26,34710,1,2,0:2:0:0:
126,128,34898,1,2,0:3:0:0:
147,24,35087,1,2,0:2:0:0:
156,132,35276,1,2,0:3:0:0:
38,63,35464,2,0,P|7:114|45:177,1,135,2|0,0:2|0:2,0:2:0:0:
73,187,35842,2,0,L|36:273,1,90,2|0,0:2|0:2,0:2:0:0:
154,376,36219,6,0,B|118:352|118:352|55:367,1,90,2|0,0:2|0:2,0:2:0:0:
209,311,36597,2,0,L|169:204,1,90,2|0,0:2|0:2,0:2:0:0:
349,368,36974,2,0,P|352:312|434:296,1,135,2|0,0:2|0:2,0:2:0:0:
488,340,37351,1,2,0:2:0:0:
512,212,37540,1,2,0:3:0:0:
408,183,37729,1,2,0:2:0:0:
353,62,37918,1,2,0:3:0:0:
237,130,38106,2,0,L|258:246,1,90,2|0,0:2|0:2,0:2:0:0:
478,338,38483,2,0,B|451:299|451:299|347:317,1,135,2|0,0:2|0:2,0:2:0:0:
307,364,38860,2,0,L|328:248,1,90,2|0,0:2|0:2,0:2:0:0:
408,186,39238,5,2,0:2:0:0:
388,86,39427,1,2,0:3:0:0:
290,97,39616,2,0,L|203:72,1,90,2|0,0:2|0:2,0:2:0:0:
72,55,39993,1,2,0:2:0:0:
72,55,40182,1,2,0:3:0:0:
145,131,40370,1,2,0:2:0:0:
145,131,40559,1,2,0:3:0:0:
88,230,40747,5,2,0:2:0:0:
88,230,40936,2,0,L|228:260,1,135.000005149842,2|0,0:2|0:2,0:2:0:0:
379,292,41502,1,2,0:2:0:0:
379,292,41880,1,2,0:2:0:0:
88,230,42257,5,2,3:2:0:0:
90,241,43012,5,2,0:2:0:0:
88,230,43766,5,2,0:2:0:0:
90,241,44521,5,2,0:2:0:0:
88,230,45276,5,2,0:3:0:0:
468,322,46031,1,2,0:3:0:0:
88,36,46785,1,2,0:3:0:0:
309,376,47540,1,2,0:3:0:0:
136,223,47917,5,0,3:2:0:0:
190,84,48106,1,0,3:2:0:0:
21,69,48295,6,0,P|79:128|38:201,1,180,6|2,3:2|0:3,0:2:0:0:
214,381,48672,2,0,L|259:206,1,180,2|2,1:2|0:3,0:2:0:0:
160,25,49049,5,2,3:2:0:0:
371,309,49238,1,2,0:3:0:0:
400,17,49427,5,2,1:2:0:0:
158,238,49614,1,2,0:3:0:0:
452,117,49804,5,2,3:2:0:0:
452,117,49992,1,2,0:3:0:0:
493,294,50181,5,2,1:2:0:0:
493,294,50369,1,2,0:3:0:0:
452,117,50559,5,2,3:2:0:0:
452,117,50747,1,2,0:3:0:0:
493,294,50936,5,2,1:2:0:0:
493,294,51125,1,2,0:3:0:0:
239,76,51314,6,0,P|195:131|100:100,1,180,2|2,3:2|0:3,0:2:0:0:
20,367,51691,2,0,P|68:313|185:338,1,180,2|2,1:2|0:3,0:2:0:0:
421,363,52068,5,2,3:2:0:0:
197,60,52257,1,2,0:3:0:0:
247,374,52446,5,2,1:2:0:0:
312,88,52634,1,2,0:3:0:0:
72,211,52823,5,2,3:2:0:0:
72,211,53012,1,2,0:3:0:0:
113,34,53200,5,2,1:2:0:0:
113,34,53389,1,2,0:3:0:0:
72,211,53578,5,2,3:2:0:0:
72,211,53767,1,2,0:3:0:0:
113,34,53955,5,2,1:2:0:0:
113,34,54144,1,2,0:3:0:0:
161,266,54332,6,0,L|333:197,1,180,2|2,3:2|0:3,0:2:0:0:
504,50,54710,2,0,L|468:238,1,180,2|2,1:2|0:3,0:2:0:0:
347,384,55086,5,2,3:2:0:0:
231,78,55275,1,2,0:3:0:0:
268,330,55464,5,2,1:2:0:0:
413,53,55652,1,2,0:3:0:0:
208,217,55841,5,2,3:2:0:0:
208,217,56030,1,2,0:3:0:0:
30,176,56218,5,2,1:2:0:0:
30,176,56407,1,2,0:3:0:0:
208,217,56596,5,2,3:2:0:0:
208,217,56785,1,2,0:3:0:0:
30,176,56973,5,2,1:2:0:0:
30,176,57162,1,2,0:3:0:0:
170,36,57351,6,0,P|232:70|301:-1,1,180,2|2,3:2|0:3,0:2:0:0:
506,7,57728,2,0,L|473:191,1,180,2|2,1:2|0:3,0:2:0:0:
497,384,58106,5,2,3:2:0:0:
174,182,58294,1,2,0:3:0:0:
401,377,58483,5,2,1:2:0:0:
272,95,58671,1,2,0:3:0:0:
249,356,58860,5,2,0:2:0:0:
249,356,59049,1,2,0:3:0:0:
166,286,59238,5,2,0:2:0:0:
166,286,59427,1,2,0:3:0:0:
249,356,59615,5,2,0:2:0:0:
249,356,59803,1,2,0:3:0:0:
166,286,59992,5,2,0:2:0:0:
166,286,60181,1,2,0:3:0:0:
245,138,60370,6,0,P|300:182|260:285,1,180,6|2,3:2|0:3,0:2:0:0:
6,185,60747,2,0,L|94:15,1,180,2|2,1:2|0:3,0:2:0:0:
61,316,61124,5,2,3:2:0:0:
206,28,61313,1,2,0:3:0:0:
214,224,61502,5,2,1:2:0:0:
422,47,61690,1,2,0:3:0:0:
357,230,61879,5,2,3:2:0:0:
357,230,62068,1,2,0:3:0:0:
490,355,62256,5,2,1:2:0:0:
490,355,62445,1,2,0:3:0:0:
357,230,62634,5,2,3:2:0:0:
357,230,62823,1,2,0:3:0:0:
490,355,63011,5,2,1:2:0:0:
490,355,63200,1,2,0:3:0:0:
222,354,63389,6,0,L|274:170,1,180,2|2,3:2|0:3,0:2:0:0:
45,115,63766,2,0,P|19:202|90:247,1,180,2|2,1:2|0:3,0:2:0:0:
138,4,64143,5,2,3:2:0:0:
4,335,64332,1,2,0:3:0:0:
40,7,64521,5,2,1:2:0:0:
181,234,64709,1,2,0:3:0:0:
274,62,64898,5,2,3:2:0:0:
274,62,65087,1,2,0:3:0:0:
444,120,65275,5,2,1:2:0:0:
444,120,65464,1,2,0:3:0:0:
274,62,65653,5,2,3:2:0:0:
274,62,65842,1,2,0:3:0:0:
444,120,66030,5,2,1:2:0:0:
444,120,66219,1,2,0:3:0:0:
287,257,66408,6,0,P|358:258|401:351,1,180,2|2,3:2|0:3,0:2:0:0:
116,355,66785,2,0,L|198:184,1,180,2|2,1:2|0:3,0:2:0:0:
236,381,67162,5,2,3:2:0:0:
260,81,67351,1,2,0:3:0:0:
316,345,67540,5,2,1:2:0:0:
50,201,67728,1,2,0:3:0:0:
283,216,67917,5,2,3:2:0:0:
283,216,68106,1,2,0:3:0:0:
136,113,68294,5,2,1:2:0:0:
136,113,68483,1,2,0:3:0:0:
283,216,68672,5,2,3:2:0:0:
283,216,68861,1,2,0:3:0:0:
136,113,69049,5,2,1:2:0:0:
136,113,69238,1,2,0:3:0:0:
261,4,69427,6,0,L|386:136,1,180,2|2,3:2|0:3,0:2:0:0:
482,322,69804,2,0,P|457:242|529:155,1,180,2|2,1:2|0:3,0:2:0:0:
361,311,70181,5,2,3:2:0:0:
478,54,70370,1,2,0:3:0:0:
422,384,70559,5,2,1:2:0:0:
323,102,70747,1,2,0:3:0:0:
222,276,70936,5,2,0:2:0:0:
222,276,71125,1,2,0:3:0:0:
152,181,71314,5,2,0:2:0:0:
152,181,71502,1,2,0:3:0:0:
92,325,71690,5,2,0:2:0:0:
92,325,71880,1,2,0:3:0:0:
186,77,72069,5,2,0:2:0:0:
356,212,72257,1,2,0:3:0:0:
387,77,72445,5,2,3:2:0:0:
387,77,72634,1,2,0:2:0:0:
512,111,72823,2,0,L|493:-11,1,90,2|0,3:2|0:2,0:2:0:0:
435,199,73200,2,0,L|454:321,1,90,2|0,3:2|0:2,0:2:0:0:
359,379,73578,1,2,3:2:0:0:
359,379,73766,1,2,0:2:0:0:
222,317,73955,2,0,L|345:293,1,90,2|0,3:2|0:2,0:2:0:0:
164,221,74332,2,0,P|125:214|81:258,1,90,2|0,3:2|0:2,0:2:0:0:
24,366,74710,2,0,P|63:373|107:329,1,90,2|0,3:2|0:2,0:2:0:0:
25,182,75087,2,0,L|81:82,1,90,2|0,3:2|0:2,0:2:0:0:
218,29,75464,6,0,P|182:66|185:119,1,90,2|0,3:2|0:2,0:2:0:0:
260,195,75842,1,2,3:2:0:0:
260,195,76031,1,2,0:2:0:0:
359,82,76219,2,0,L|262:96,1,90,2|0,3:2|0:2,0:2:0:0:
96,71,76597,1,2,3:2:0:0:
96,71,76785,1,2,0:2:0:0:
16,142,76974,1,2,3:2:0:0:
16,142,77163,1,2,0:2:0:0:
115,270,77351,2,0,L|93:161,1,90,2|0,3:2|0:2,0:2:0:0:
218,296,77729,2,0,L|196:405,1,90,2|0,3:2|0:2,0:2:0:0:
314,269,78106,1,2,3:2:0:0:
314,269,78295,1,2,0:2:0:0:
431,358,78483,6,0,P|426:312|471:262,1,90,2|0,3:2|0:2,0:2:0:0:
495,147,78861,2,0,L|395:187,1,90,2|0,3:2|0:2,0:2:0:0:
250,188,79238,2,0,L|324:248,1,90,2|0,3:2|0:2,0:2:0:0:
325,286,79521,1,2,0:2:0:0:
353,318,79615,2,0,L|259:326,1,90,2|0,3:2|0:2,0:2:0:0:
154,364,79993,1,2,3:2:0:0:
154,364,80181,1,2,0:2:0:0:
113,197,80370,2,0,P|76:222|68:277,1,90,2|0,3:2|0:2,0:2:0:0:
221,169,80747,2,0,P|209:126|173:101,1,90,2|0,3:2|0:2,0:2:0:0:
320,208,81125,1,2,3:2:0:0:
320,208,81314,1,2,0:2:0:0:
374,105,81502,5,2,3:2:0:0:
477,193,81691,2,0,L|508:96,1,90,2|0,0:2|3:2,0:2:0:0:
426,288,82068,1,2,0:2:0:0:
359,123,82257,2,0,L|258:103,1,90,2|0,3:2|0:2,0:2:0:0:
145,51,82634,1,2,3:2:0:0:
145,51,82823,1,2,0:2:0:0:
145,51,84521,6,0,P|132:109|187:168,1,135.000005149842
364,118,84898,1,2,1:2:0:0:
442,238,85087,1,2,0:3:0:0:
270,354,85275,2,0,L|304:243,1,107.999996704102,2|0,3:2|0:2,0:2:0:0:
302,250,85653,2,0,L|270:354,1,107.999996704102,2|0,1:2|0:2,0:2:0:0:
256,176,86030,5,2,3:2:0:0:
233,78,86219,1,2,0:3:0:0:
67,227,86408,1,2,1:2:0:0:
102,131,86596,1,2,0:3:0:0:
186,313,86785,2,0,L|152:211,1,90,2|0,3:2|0:0,0:0:0:0:
384,289,87162,2,0,L|350:391,1,90,2|0,1:2|0:0,0:0:0:0:
242,72,87539,6,0,P|226:130|286:182,1,135.000005149842,2|0,3:2|0:2,0:2:0:0:
418,208,87917,1,2,1:2:0:0:
418,208,88106,1,2,0:3:0:0:
476,28,88294,2,0,L|375:74,1,107.999996704102,2|0,3:2|0:2,0:2:0:0:
378,73,88672,2,0,L|475:27,1,107.999996704102,2|0,1:2|0:2,0:2:0:0:
246,265,89049,5,2,3:2:0:0:
224,242,89238,1,2,0:3:0:0:
388,158,89427,1,2,1:2:0:0:
235,80,89615,1,2,0:3:0:0:
350,253,89804,2,0,P|396:249|440:279,1,90,2|0,3:2|0:2,0:2:0:0:
456,310,90087,1,2,0:2:0:0:
506,301,90181,2,0,L|513:205,1,90,2|0,1:2|0:2,0:2:0:0:
358,26,90559,5,2,3:2:0:0:
221,122,90747,1,2,0:3:0:0:
0,45,90936,1,2,1:2:0:0:
96,182,91124,1,2,0:3:0:0:
40,377,91314,2,0,P|79:348|145:363,1,107.999996704102,2|0,3:2|0:2,0:2:0:0:
136,356,91691,2,0,P|84:347|40:377,1,107.999996704102,2|0,1:2|0:2,0:2:0:0:
229,319,92068,5,2,3:2:0:0:
229,319,92257,1,2,0:3:0:0:
96,182,92446,1,2,1:2:0:0:
195,77,92634,1,2,0:3:0:0:
277,167,92823,2,0,L|433:105,1,135,2|0,3:2|0:0,0:0:0:0:
494,67,93200,2,0,L|488:138,1,45,2|0,1:2|0:0,0:0:0:0:
379,316,93578,6,0,P|375:248|430:213,1,135.000005149842,2|0,3:2|0:2,0:2:0:0:
339,56,93955,2,0,P|271:60|236:5,1,135.000005149842,2|0,1:2|0:2,0:2:0:0:
152,212,94332,2,0,B|205:223|205:223|257:190,1,107.999996704102,2|0,3:2|0:2,0:2:0:0:
250,194,94710,2,0,B|205:223|205:223|152:212,1,107.999996704102,2|0,1:2|0:2,0:2:0:0:
186,99,95087,5,2,0:0:0:0:
186,99,96408,5,8,0:2:0:0:
69,79,96596,5,2,0:2:0:0:
108,179,96785,1,2,0:3:0:0:
35,266,96974,2,0,L|71:366,1,90,2|0,0:2|0:2,0:2:0:0:
176,312,97351,2,0,P|244:314|286:363,1,135,2|0,0:2|0:2,0:2:0:0:
332,384,97729,2,0,L|296:284,1,90,2|0,0:2|0:2,0:2:0:0:
261,170,98106,1,2,0:2:0:0:
261,170,98295,1,2,0:3:0:0:
176,114,98483,1,2,0:2:0:0:
176,114,98672,1,2,0:3:0:0:
45,183,98860,2,0,P|82:136|42:51,1,135,2|0,0:2|0:2,0:2:0:0:
6,7,99237,2,0,L|101:25,1,90,2|0,0:2|0:2,0:2:0:0:
227,86,99615,5,2,0:2:0:0:
303,23,99755,1,2,0:3:0:0:
399,146,99977,2,0,L|292:159,1,90,2|0,0:2|0:2,0:2:0:0:
196,219,100322,1,2,0:2:0:0:
196,219,100510,1,2,0:3:0:0:
273,291,100699,1,2,0:2:0:0:
273,291,100888,1,2,0:3:0:0:
367,235,101125,1,2,0:2:0:0:
415,337,101313,1,2,0:3:0:0:
392,234,101502,1,2,0:2:0:0:
383,342,101691,1,2,0:3:0:0:
497,269,101879,2,0,P|528:218|490:155,1,135,2|0,0:2|0:2,0:2:0:0:
462,145,102256,2,0,L|499:59,1,90,2|0,0:2|0:2,0:2:0:0:
306,46,102634,6,0,B|352:139,1,90,2|0,0:2|0:2,0:2:0:0:
190,96,103012,2,0,L|109:35,1,90,2|0,0:2|0:2,0:2:0:0:
34,240,103389,2,0,P|37:184|119:168,1,135,2|0,0:2|0:2,0:2:0:0:
152,220,103766,2,0,L|113:103,1,90,2|0,0:2|0:2,0:2:0:0:
42,4,104144,1,2,0:2:0:0:
33,98,104333,1,2,0:3:0:0:
118,41,104521,2,0,L|232:46,1,90,2|0,0:2|0:2,0:2:0:0:
381,99,104899,2,0,B|344:84|344:84|285:176,1,135,2|0,0:2|0:2,0:2:0:0:
320,222,105275,2,0,L|221:164,1,90,2|0,0:2|0:2,0:2:0:0:
371,321,105653,5,2,0:2:0:0:
470,262,105842,1,2,0:3:0:0:
417,147,106031,2,0,L|318:89,1,90,2|0,0:2|0:2,0:2:0:0:
232,34,106408,1,2,0:2:0:0:
232,34,106597,1,2,0:3:0:0:
168,113,106785,1,2,0:2:0:0:
168,113,106974,1,2,0:3:0:0:
392,312,108672,5,2,3:2:0:0:
390,323,109427,5,2,0:2:0:0:
392,312,110181,5,2,0:2:0:0:
390,323,110936,5,2,0:2:0:0:
390,323,111691,5,2,0:3:0:0:
452,70,112446,1,2,0:3:0:0:
50,318,113200,1,2,0:3:0:0:
115,8,113955,1,2,0:3:0:0:
283,140,114332,5,0,3:2:0:0:
200,251,114521,1,0,3:2:0:0:
26,182,114710,6,0,P|70:127|162:174,1,180,4|2,3:2|0:3,0:2:0:0:
338,40,115087,2,0,L|291:222,1,180,0|2,1:2|0:3,0:2:0:0:
91,367,115464,5,2,3:2:0:0:
382,303,115653,1,2,0:3:0:0:
458,96,115842,5,2,1:2:0:0:
218,366,116030,1,2,0:3:0:0:
75,119,116219,5,2,3:2:0:0:
75,119,116408,1,2,0:3:0:0:
252,160,116596,5,2,1:2:0:0:
252,160,116785,1,2,0:3:0:0:
49,113,116974,5,2,3:2:0:0:
277,165,117163,1,2,0:3:0:0:
44,133,117351,5,2,1:2:0:0:
271,185,117540,1,2,0:3:0:0:
499,247,117729,6,0,P|444:291|475:386,1,180,2|2,3:2|0:3,0:2:0:0:
182,355,118105,2,0,P|230:301|347:326,1,180,2|2,1:2|0:3,0:2:0:0:
459,105,118483,5,2,3:2:0:0:
125,50,118672,1,2,0:3:0:0:
27,296,118861,5,2,1:2:0:0:
361,241,119050,1,2,0:3:0:0:
209,58,119238,5,2,3:2:0:0:
209,58,119427,1,2,0:3:0:0:
250,235,119615,5,2,1:2:0:0:
250,235,119804,1,2,0:3:0:0:
203,32,119993,5,2,3:2:0:0:
255,260,120182,1,2,0:3:0:0:
223,27,120370,5,2,1:2:0:0:
275,254,120559,1,2,0:3:0:0:
86,364,120747,6,0,P|163:321|248:374,1,180,2|2,3:2|0:3,0:2:0:0:
401,173,121125,2,0,L|365:361,1,180,0|2,1:2|0:3,0:2:0:0:
188,174,121502,5,2,3:2:0:0:
507,100,121691,1,2,0:3:0:0:
351,370,121879,5,2,1:2:0:0:
107,276,122068,1,2,0:3:0:0:
42,83,122257,5,2,3:2:0:0:
42,83,122445,1,2,0:3:0:0:
222,58,122634,5,2,1:2:0:0:
222,58,122822,1,2,0:3:0:0:
15,87,123012,5,2,3:2:0:0:
247,54,123200,1,2,0:3:0:0:
18,108,123389,5,2,1:2:0:0:
248,75,123578,1,2,0:3:0:0:
483,51,123767,6,0,P|448:112|511:189,1,180,2|2,3:2|0:3,0:2:0:0:
308,323,124143,2,0,L|341:139,1,180,2|2,1:2|0:3,0:2:0:0:
103,16,124520,5,2,3:2:0:0:
181,311,124709,1,2,0:3:0:0:
468,371,124898,5,2,1:2:0:0:
324,51,125086,1,2,0:3:0:0:
339,246,125276,5,2,0:2:0:0:
339,246,125465,1,2,0:3:0:0:
278,155,125653,5,2,0:2:0:0:
278,155,125841,1,2,0:3:0:0:
339,246,126030,5,2,0:2:0:0:
339,246,126219,1,2,0:3:0:0:
278,155,126407,5,2,0:2:0:0:
278,155,126596,1,2,0:3:0:0:
460,93,126785,5,6,3:2:0:0:
291,316,126974,1,2,0:3:0:0:
65,255,127162,5,2,1:2:0:0:
7,16,127351,1,2,0:3:0:0:
185,223,127540,6,0,L|218:142,1,67.5000025749208,2|0,3:2|0:2,0:2:0:0:
396,273,127729,2,0,L|361:188,1,67.5000025749208,2|0,0:3|0:2,0:2:0:0:
178,22,127917,6,0,P|225:27|256:58,1,67.5000025749208,2|0,1:2|0:2,0:2:0:0:
474,77,128106,2,0,P|427:88|406:115,1,67.5000025749208,2|0,0:3|0:2,0:2:0:0:
278,354,128295,6,0,L|271:265,1,67.5000025749208,2|0,3:2|0:2,0:2:0:0:
299,226,128483,2,0,L|310:313,1,67.5000025749208,2|0,0:3|0:2,0:2:0:0:
95,135,128672,6,0,L|103:224,1,67.5000025749208,2|0,1:2|0:2,0:2:0:0:
74,263,128860,2,0,L|64:171,1,67.5000025749208,2|0,0:3|0:2,0:2:0:0:
309,333,129049,6,0,L|300:238,1,67.5000025749208,2|0,3:2|0:2,0:2:0:0:
327,187,129238,2,0,L|336:272,1,67.5000025749208,2|0,0:3|0:2,0:2:0:0:
66,173,129427,6,0,L|74:263,1,67.5000025749208,2|0,1:2|0:2,0:2:0:0:
48,319,129616,2,0,L|38:226,1,67.5000025749208,2|0,0:3|0:2,0:2:0:0:
206,70,129804,5,2,3:2:0:0:
477,19,129993,1,2,0:3:0:0:
148,5,130181,5,2,1:2:0:0:
19,215,130370,1,2,0:3:0:0:
202,373,130559,6,0,P|176:355|121:359,1,67.5000025749208,2|0,3:2|0:2,0:2:0:0:
385,272,130748,2,0,P|355:306|351:337,1,67.5000025749208,2|0,0:3|0:2,0:2:0:0:
197,154,130936,6,0,P|221:190|208:234,1,67.5000025749208,2|0,1:2|0:2,0:2:0:0:
347,61,131125,2,0,P|313:95|311:137,1,67.5000025749208,2|0,0:3|0:2,0:2:0:0:
84,59,131314,6,0,B|175:68,1,67.5000025749208,2|0,3:2|0:2,0:2:0:0:
212,38,131502,2,0,L|120:28,1,67.5000025749208,2|0,0:3|0:2,0:2:0:0:
303,242,131691,6,0,L|208:234,1,67.5000025749208,2|0,1:2|0:2,0:2:0:0:
175,263,131879,2,0,L|269:271,1,67.5000025749208,2|0,0:3|0:2,0:2:0:0:
345,91,132068,6,0,L|423:99,1,67.5000025749208,2|0,3:2|0:2,0:2:0:0:
473,70,132256,2,0,L|384:61,1,67.5000025749208,2|0,0:3|0:2,0:2:0:0:
303,242,132446,6,0,L|222:236,1,67.5000025749208,2|0,1:2|0:2,0:2:0:0:
175,263,132634,2,0,L|248:270,1,67.5000025749208,2|0,0:3|0:2,0:2:0:0:
30,339,132822,5,2,3:2:0:0:
0,66,133012,1,2,0:3:0:0:
289,0,133200,5,2,1:2:0:0:
259,288,133389,1,2,0:3:0:0:
505,384,133578,6,0,P|465:362|426:371,1,67.5000025749208,2|0,3:2|0:2,0:2:0:0:
309,219,133766,2,0,P|269:197|227:208,1,67.5000025749208,2|0,0:3|0:2,0:2:0:0:
89,384,133955,6,0,P|49:362|5:372,1,67.5000025749208,2|0,1:2|0:2,0:2:0:0:
315,198,134144,2,0,P|275:176|232:190,1,67.5000025749208,2|0,0:3|0:2,0:2:0:0:
58,28,134332,6,0,L|48:118,1,67.5000025749208,2|0,3:2|0:2,0:2:0:0:
79,155,134520,2,0,L|86:68,1,67.5000025749208,2|0,0:3|0:2,0:2:0:0:
153,230,134710,6,0,L|145:318,1,67.5000025749208,2|0,1:2|0:2,0:2:0:0:
177,360,134898,2,0,L|184:270,1,67.5000025749208,2|0,0:3|0:2,0:2:0:0:
400,239,135087,6,0,L|408:331,1,67.5000025749208,2|0,3:2|0:2,0:2:0:0:
379,367,135275,2,0,L|369:269,1,67.5000025749208,2|0,0:3|0:2,0:2:0:0:
470,25,135464,6,0,L|481:128,1,67.5000025749208,2|0,1:2|0:2,0:2:0:0:
449,153,135653,2,0,L|438:65,1,67.5000025749208,2|0,0:3|0:2,0:2:0:0:
244,0,135841,5,2,3:2:0:0:
39,201,136031,1,2,0:3:0:0:
237,81,136219,5,2,1:2:0:0:
482,204,136408,1,2,0:3:0:0:
240,360,136597,6,0,L|204:272,1,67.5000025749208,2|0,3:2|0:2,0:2:0:0:
414,136,136785,2,0,P|374:114|337:126,1,67.5000025749208,2|0,0:3|0:2,0:2:0:0:
418,339,136974,6,0,L|379:252,1,67.5000025749208,2|0,1:2|0:2,0:2:0:0:
125,198,137163,2,0,P|163:176|200:182,1,67.5000025749208,2|0,0:3|0:2,0:2:0:0:
315,305,137351,5,2,0:2:0:0:
315,305,137540,1,2,0:3:0:0:
288,197,137729,5,2,0:2:0:0:
288,197,137917,1,2,0:3:0:0:
249,33,138106,5,2,0:2:0:0:
249,33,138295,1,2,0:3:0:0:
146,167,138484,5,2,0:2:0:0:
7,340,138672,1,2,0:3:0:0:
21,192,138860,6,0,P|41:214|25:186,1,90,2|0,0:2|0:2,0:2:0:0:
151,331,139238,2,0,P|131:309|147:337,1,90,2|0,0:2|0:2,0:2:0:0:
