osu file format v14

[General]
AudioFilename: audio.mp3
AudioLeadIn: 0
PreviewTime: 138798
Countdown: 0
SampleSet: Normal
StackLeniency: 0.7
Mode: 1
LetterboxInBreaks: 0
WidescreenStoryboard: 0

[Editor]
DistanceSpacing: 1.8
BeatDivisor: 2
GridSize: 8
TimelineZoom: 1

[Metadata]
Title:The Wolf
TitleUnicode:The Wolf
Artist:LEO
ArtistUnicode:LEO
Creator:YuzukiEba
Version:Muzukashii
Source:
Tags:Dream pop wolf chill out Ovoui
BeatmapID:1304428
BeatmapSetID:618817

[Difficulty]
HPDrainRate:5
CircleSize:2
OverallDifficulty:5
ApproachRate:5
SliderMultiplier:1.4
SliderTickRate:1

[Events]
//Background and Video events
0,0,"1495967066_tmp_princess_mononoke_by_chaoyuanxu-d6vxaoh.png",0,0
//Break Periods
//Storyboard Layer 0 (Background)
//Storyboard Layer 1 (Fail)
//Storyboard Layer 2 (Pass)
//Storyboard Layer 3 (Foreground)
//Storyboard Layer 4 (Overlay)
//Storyboard Sound Samples

[TimingPoints]
3,722.89156626506,4,1,0,30,1,0
11569,-100,4,1,0,40,0,0
23135,-100,4,1,0,50,0,0
69400,-100,4,1,0,60,0,0
138798,-100,4,1,0,60,0,1
161930,-100,4,1,0,60,0,0
185063,-100,4,1,0,40,0,0
190846,-100,4,1,0,30,0,0
193737,-100,4,1,0,20,0,0

[HitObjects]
256,200,3,5,0,0:0:0:0:
256,192,725,1,2,0:0:0:0:
256,192,1810,1,0,0:0:0:0:
256,192,2171,1,2,0:0:0:0:
256,192,2533,1,0,0:0:0:0:
256,192,2894,1,0,0:0:0:0:
256,192,3617,1,2,0:0:0:0:
256,192,4701,1,0,0:0:0:0:
256,192,5063,1,2,0:0:0:0:
256,192,5424,1,0,0:0:0:0:
256,192,5786,1,0,0:0:0:0:
256,192,6509,1,2,0:0:0:0:
256,192,7593,1,0,0:0:0:0:
256,192,7954,1,2,0:0:0:0:
256,192,8316,1,2,0:0:0:0:
256,192,8677,1,0,0:0:0:0:
256,192,9400,1,2,0:0:0:0:
256,192,10484,1,0,0:0:0:0:
256,192,10846,1,2,0:0:0:0:
256,192,11207,1,0,0:0:0:0:
256,192,11569,1,0,0:0:0:0:
256,192,12292,1,2,0:0:0:0:
256,192,13376,1,2,0:0:0:0:
256,192,13737,1,2,0:0:0:0:
256,192,14099,1,0,0:0:0:0:
256,192,14460,1,0,0:0:0:0:
256,192,15183,1,2,0:0:0:0:
256,192,15906,1,0,0:0:0:0:
256,192,16268,1,2,0:0:0:0:
256,192,16629,1,2,0:0:0:0:
256,192,16990,1,0,0:0:0:0:
256,192,17352,1,0,0:0:0:0:
256,192,18075,1,2,0:0:0:0:
256,192,18798,1,0,0:0:0:0:
256,192,19159,1,2,0:0:0:0:
256,192,19521,1,2,0:0:0:0:
256,192,19882,1,0,0:0:0:0:
256,192,20243,1,0,0:0:0:0:
256,192,20966,1,2,0:0:0:0:
256,192,21689,1,0,0:0:0:0:
256,192,22051,1,2,0:0:0:0:
256,192,22412,1,2,0:0:0:0:
256,192,22774,1,0,0:0:0:0:
256,192,23135,1,0,0:0:0:0:
256,192,23858,1,2,0:0:0:0:
256,192,24942,1,0,0:0:0:0:
256,192,25304,1,2,0:0:0:0:
256,192,25665,1,0,0:0:0:0:
256,192,26027,1,0,0:0:0:0:
256,192,26388,1,2,0:0:0:0:
256,192,26749,1,2,0:0:0:0:
256,192,27834,1,0,0:0:0:0:
256,192,28195,1,2,0:0:0:0:
256,192,28557,1,2,0:0:0:0:
256,192,28918,1,0,0:0:0:0:
256,192,29280,1,0,0:0:0:0:
256,192,29641,1,2,0:0:0:0:
256,192,30725,1,0,0:0:0:0:
256,192,31087,1,2,0:0:0:0:
256,192,31448,1,0,0:0:0:0:
256,192,31810,1,0,0:0:0:0:
256,192,32171,1,2,0:0:0:0:
256,192,32533,1,2,0:0:0:0:
256,192,33256,1,0,0:0:0:0:
256,192,33617,1,0,0:0:0:0:
256,192,33978,1,2,0:0:0:0:
256,192,34159,1,2,0:0:0:0:
256,192,34340,1,2,0:0:0:0:
256,192,34701,1,0,0:0:0:0:
256,192,35424,1,2,0:0:0:0:
256,192,36147,1,2,0:0:0:0:
256,192,36509,1,0,0:0:0:0:
256,192,36870,1,2,0:0:0:0:
256,192,37231,1,0,0:0:0:0:
256,192,37593,1,0,0:0:0:0:
256,192,38316,1,2,0:0:0:0:
256,192,38677,1,0,0:0:0:0:
256,192,39400,1,0,0:0:0:0:
256,192,39762,1,2,0:0:0:0:
256,192,40123,1,0,0:0:0:0:
256,192,40484,1,0,0:0:0:0:
256,192,41207,1,2,0:0:0:0:
256,192,41930,1,2,0:0:0:0:
256,192,42292,1,0,0:0:0:0:
256,192,42653,1,2,0:0:0:0:
256,192,43015,1,0,0:0:0:0:
256,192,43376,1,0,0:0:0:0:
256,192,43737,1,2,0:0:0:0:
256,192,44099,1,2,0:0:0:0:
256,192,44822,1,0,0:0:0:0:
256,192,45183,1,0,0:0:0:0:
256,192,45545,1,2,0:0:0:0:
256,192,45725,1,2,0:0:0:0:
256,192,45906,1,2,0:0:0:0:
256,192,46268,1,0,0:0:0:0:
256,192,46629,1,0,0:0:0:0:
256,192,46990,1,2,0:0:0:0:
256,192,48075,1,0,0:0:0:0:
256,192,48436,1,2,0:0:0:0:
256,192,48798,1,0,0:0:0:0:
256,192,49159,1,0,0:0:0:0:
256,192,49521,1,0,0:0:0:0:
256,192,49882,1,2,0:0:0:0:
256,192,50966,1,0,0:0:0:0:
256,192,51328,1,2,0:0:0:0:
256,192,51689,1,0,0:0:0:0:
256,192,52051,1,0,0:0:0:0:
256,192,52412,1,2,0:0:0:0:
256,192,52774,1,2,0:0:0:0:
256,192,53496,1,2,0:0:0:0:
256,192,53858,1,0,0:0:0:0:
256,192,54219,1,2,0:0:0:0:
256,192,54581,1,0,0:0:0:0:
256,192,54942,1,0,0:0:0:0:
256,192,55665,1,2,0:0:0:0:
256,184,56388,1,0,0:0:0:0:
256,184,56749,1,2,0:0:0:0:
256,184,57111,1,0,0:0:0:0:
256,184,57292,1,0,0:0:0:0:
256,184,57472,1,0,0:0:0:0:
256,184,57834,1,0,0:0:0:0:
256,184,58195,1,0,0:0:0:0:
256,184,58557,1,2,0:0:0:0:
256,192,59641,1,0,0:0:0:0:
256,192,60002,1,2,0:0:0:0:
256,192,60364,1,0,0:0:0:0:
256,192,60725,1,0,0:0:0:0:
256,192,61087,1,2,0:0:0:0:
256,192,61448,1,2,0:0:0:0:
256,192,62171,1,0,0:0:0:0:
256,192,62533,1,0,0:0:0:0:
256,192,62894,1,2,0:0:0:0:
256,192,63256,1,0,0:0:0:0:
256,192,63617,1,0,0:0:0:0:
256,192,63978,1,2,0:0:0:0:
256,192,64340,1,2,0:0:0:0:
256,192,65424,1,0,0:0:0:0:
256,192,65786,1,2,0:0:0:0:
256,192,66147,1,0,0:0:0:0:
256,192,66509,1,0,0:0:0:0:
256,192,66870,1,0,0:0:0:0:
256,192,67231,1,2,0:0:0:0:
256,192,67954,1,0,0:0:0:0:
256,192,68316,1,0,0:0:0:0:
256,192,68677,1,2,0:0:0:0:
256,192,68858,1,2,0:0:0:0:
256,192,69039,1,2,0:0:0:0:
256,192,69400,1,0,0:0:0:0:
256,192,69762,1,2,0:0:0:0:
256,192,70123,1,2,0:0:0:0:
256,192,71207,1,0,0:0:0:0:
256,192,71569,1,2,0:0:0:0:
256,192,71930,1,0,0:0:0:0:
256,192,72292,1,0,0:0:0:0:
256,192,72653,1,2,0:0:0:0:
256,192,73015,1,2,0:0:0:0:
256,192,74099,1,0,0:0:0:0:
256,192,74460,1,2,0:0:0:0:
256,192,74822,1,0,0:0:0:0:
256,192,75183,1,0,0:0:0:0:
256,192,75906,1,2,0:0:0:0:
256,192,76629,1,0,0:0:0:0:
256,192,76990,1,0,0:0:0:0:
256,192,77352,1,2,0:0:0:0:
256,192,77713,1,0,0:0:0:0:
256,192,78075,1,0,0:0:0:0:
256,192,78798,1,2,0:0:0:0:
256,192,79521,1,0,0:0:0:0:
256,192,79882,1,0,0:0:0:0:
256,192,80243,1,2,0:0:0:0:
256,192,80605,1,0,0:0:0:0:
256,192,80786,1,0,0:0:0:0:
256,192,80966,1,0,0:0:0:0:
256,192,81328,1,2,0:0:0:0:
256,192,81689,1,2,0:0:0:0:
256,192,82412,1,2,0:0:0:0:
256,192,82774,1,0,0:0:0:0:
256,192,83135,1,2,0:0:0:0:
256,192,83496,1,0,0:0:0:0:
256,192,83858,1,0,0:0:0:0:
256,192,84219,1,2,0:0:0:0:
256,192,84581,1,2,0:0:0:0:
256,192,85665,1,0,0:0:0:0:
256,192,86027,1,2,0:0:0:0:
256,192,86388,1,0,0:0:0:0:
256,192,86749,1,2,0:0:0:0:
256,192,87111,1,0,0:0:0:0:
256,192,87472,1,2,0:0:0:0:
256,192,88195,1,2,0:0:0:0:
256,192,88557,1,0,0:0:0:0:
256,192,88918,1,2,0:0:0:0:
256,192,89280,1,0,0:0:0:0:
256,192,89641,1,0,0:0:0:0:
256,192,90364,1,2,0:0:0:0:
256,192,91087,1,0,0:0:0:0:
256,192,91448,1,0,0:0:0:0:
256,192,91810,1,2,0:0:0:0:
256,192,91990,1,2,0:0:0:0:
256,192,92171,1,2,0:0:0:0:
256,192,92533,1,0,0:0:0:0:
256,192,92894,1,0,0:0:0:0:
256,192,93256,1,2,0:0:0:0:
256,192,94340,1,0,0:0:0:0:
256,192,94701,1,2,0:0:0:0:
256,192,95063,1,0,0:0:0:0:
256,192,95424,1,0,0:0:0:0:
256,192,96147,1,2,0:0:0:0:
256,192,97231,1,0,0:0:0:0:
256,192,97593,1,2,0:0:0:0:
256,192,97954,1,0,0:0:0:0:
256,192,98316,1,0,0:0:0:0:
256,192,98677,1,2,0:0:0:0:
256,192,99039,1,2,0:0:0:0:
256,192,100123,1,0,0:0:0:0:
256,192,100484,1,2,0:0:0:0:
256,192,100846,1,0,0:0:0:0:
256,192,101207,1,0,0:0:0:0:
256,192,101569,1,0,0:0:0:0:
256,192,101930,1,2,0:0:0:0:
256,192,102653,1,0,0:0:0:0:
256,192,103015,1,2,0:0:0:0:
256,192,103376,1,0,0:0:0:0:
256,192,103557,1,0,0:0:0:0:
256,192,103737,1,0,0:0:0:0:
256,192,104099,1,2,0:0:0:0:
256,192,104460,1,0,0:0:0:0:
256,192,104822,1,2,0:0:0:0:
256,192,105906,1,0,0:0:0:0:
256,192,106268,1,2,0:0:0:0:
256,192,106629,1,0,0:0:0:0:
256,192,106990,1,0,0:0:0:0:
256,192,107352,1,2,0:0:0:0:
256,192,107713,1,2,0:0:0:0:
256,192,108436,1,2,0:0:0:0:
256,192,108798,1,0,0:0:0:0:
256,192,109159,1,2,0:0:0:0:
256,192,109521,1,0,0:0:0:0:
256,192,109882,1,0,0:0:0:0:
256,192,110605,1,2,0:0:0:0:
256,192,111328,1,2,0:0:0:0:
256,192,111689,1,0,0:0:0:0:
256,192,112051,1,2,0:0:0:0:
256,192,112412,1,0,0:0:0:0:
256,192,112774,1,0,0:0:0:0:
256,192,113135,1,2,0:0:0:0:
256,192,113496,1,2,0:0:0:0:
256,192,114219,1,0,0:0:0:0:
256,192,114581,1,0,0:0:0:0:
256,192,114942,1,2,0:0:0:0:
256,192,115123,1,2,0:0:0:0:
256,192,115304,1,2,0:0:0:0:
256,192,115665,1,0,0:0:0:0:
256,192,116027,1,0,0:0:0:0:
256,192,116388,1,2,0:0:0:0:
256,192,117472,1,0,0:0:0:0:
256,192,117834,1,2,0:0:0:0:
256,192,118195,1,0,0:0:0:0:
256,192,118557,1,2,0:0:0:0:
256,192,118918,1,0,0:0:0:0:
256,192,119280,1,2,0:0:0:0:
256,192,120364,1,0,0:0:0:0:
256,192,120725,1,2,0:0:0:0:
256,192,121087,1,0,0:0:0:0:
256,192,121448,1,0,0:0:0:0:
256,192,121810,1,0,0:0:0:0:
256,192,122171,1,2,0:0:0:0:
256,192,122894,1,2,0:0:0:0:
256,192,123256,1,0,0:0:0:0:
256,192,123617,1,2,0:0:0:0:
256,192,123978,1,0,0:0:0:0:
256,192,124340,1,0,0:0:0:0:
256,192,124701,1,0,0:0:0:0:
256,192,125063,1,2,0:0:0:0:
256,192,125786,1,0,0:0:0:0:
256,192,126147,1,0,0:0:0:0:
256,192,126509,1,2,0:0:0:0:
264,192,126870,1,0,0:0:0:0:
264,200,127051,1,0,0:0:0:0:
264,192,127231,1,0,0:0:0:0:
264,192,127954,1,2,0:0:0:0:
256,184,128677,1,2,0:0:0:0:
264,184,129039,1,0,0:0:0:0:
264,184,129400,1,2,0:0:0:0:
264,184,129762,1,2,0:0:0:0:
264,184,130123,1,0,0:0:0:0:
264,184,130846,1,2,0:0:0:0:
264,192,131930,1,0,0:0:0:0:
264,192,132292,1,2,0:0:0:0:
264,192,132653,1,0,0:0:0:0:
264,192,132834,1,0,0:0:0:0:
264,192,133015,1,0,0:0:0:0:
264,192,133376,1,2,0:0:0:0:
264,192,133737,1,2,0:0:0:0:
256,192,134822,1,0,0:0:0:0:
256,192,135183,1,2,0:0:0:0:
256,192,135545,1,0,0:0:0:0:
256,192,135906,1,0,0:0:0:0:
256,192,136268,1,0,0:0:0:0:
256,192,136629,1,2,0:0:0:0:
256,192,137352,1,0,0:0:0:0:
256,192,137713,1,0,0:0:0:0:
256,192,138075,1,2,0:0:0:0:
256,192,138256,1,2,0:0:0:0:
256,192,138436,1,2,0:0:0:0:
256,192,138798,1,0,0:0:0:0:
256,192,139159,1,2,0:0:0:0:
256,192,139521,1,2,0:0:0:0:
256,192,140605,1,0,0:0:0:0:
256,192,140966,1,2,0:0:0:0:
256,192,141328,1,0,0:0:0:0:
256,192,141689,1,0,0:0:0:0:
256,192,142051,1,0,0:0:0:0:
256,192,142412,1,2,0:0:0:0:
256,192,143496,1,0,0:0:0:0:
256,192,143858,1,2,0:0:0:0:
256,192,144219,1,0,0:0:0:0:
256,192,144400,1,0,0:0:0:0:
256,192,144581,1,0,0:0:0:0:
256,192,144942,1,2,0:0:0:0:
256,192,145304,1,2,0:0:0:0:
256,192,146388,1,0,0:0:0:0:
256,192,146749,1,2,0:0:0:0:
256,192,147111,1,0,0:0:0:0:
256,192,147472,1,0,0:0:0:0:
256,192,147834,1,0,0:0:0:0:
256,192,148195,1,2,0:0:0:0:
256,192,148918,1,0,0:0:0:0:
256,192,149280,1,2,0:0:0:0:
256,192,149641,1,2,0:0:0:0:
256,192,149822,1,2,0:0:0:0:
256,192,150002,1,2,0:0:0:0:
256,192,150364,1,0,0:0:0:0:
256,192,151087,1,2,0:0:0:0:
256,192,152171,1,0,0:0:0:0:
256,192,152533,1,2,0:0:0:0:
256,192,152894,1,0,0:0:0:0:
256,192,153256,1,0,0:0:0:0:
256,192,153617,1,0,0:0:0:0:
256,192,153978,1,2,0:0:0:0:
256,192,155063,1,0,0:0:0:0:
256,192,155424,1,2,0:0:0:0:
256,192,155786,1,0,0:0:0:0:
256,192,156147,1,2,0:0:0:0:
256,192,156509,1,0,0:0:0:0:
256,192,156870,1,2,0:0:0:0:
256,192,157593,1,2,0:0:0:0:
256,192,157954,1,0,0:0:0:0:
256,192,158316,1,2,0:0:0:0:
256,192,158677,1,0,0:0:0:0:
256,192,158858,1,0,0:0:0:0:
256,192,159039,1,0,0:0:0:0:
256,192,159762,1,2,0:0:0:0:
256,192,160484,1,0,0:0:0:0:
256,192,160846,1,0,0:0:0:0:
256,192,161207,1,2,0:0:0:0:
256,192,161388,1,2,0:0:0:0:
256,192,161569,1,2,0:0:0:0:
256,192,161930,1,0,0:0:0:0:
256,192,162292,1,2,0:0:0:0:
256,192,162653,1,2,0:0:0:0:
256,192,163737,1,0,0:0:0:0:
256,192,164099,1,2,0:0:0:0:
256,192,164460,1,0,0:0:0:0:
256,192,164822,1,0,0:0:0:0:
256,192,165183,1,2,0:0:0:0:
256,192,165545,1,2,0:0:0:0:
256,192,166629,1,0,0:0:0:0:
256,192,166990,1,2,0:0:0:0:
256,192,167352,1,0,0:0:0:0:
256,192,167533,1,0,0:0:0:0:
256,192,167713,1,0,0:0:0:0:
256,192,168075,1,0,0:0:0:0:
256,192,168436,1,2,0:0:0:0:
256,192,169159,1,2,0:0:0:0:
256,192,169521,1,0,0:0:0:0:
256,192,169882,1,2,0:0:0:0:
256,192,170243,1,0,0:0:0:0:
256,192,170605,1,0,0:0:0:0:
264,192,170966,1,0,0:0:0:0:
256,192,171328,1,2,0:0:0:0:
256,192,172051,1,0,0:0:0:0:
256,192,172412,1,2,0:0:0:0:
256,192,172774,1,0,0:0:0:0:
256,192,172954,1,0,0:0:0:0:
256,192,173135,1,0,0:0:0:0:
256,192,173496,1,2,0:0:0:0:
256,192,173858,1,0,0:0:0:0:
256,192,174219,1,2,0:0:0:0:
256,192,175304,1,0,0:0:0:0:
256,192,175665,1,2,0:0:0:0:
256,192,176027,1,0,0:0:0:0:
256,192,176388,1,0,0:0:0:0:
256,192,176749,1,0,0:0:0:0:
256,192,177111,1,2,0:0:0:0:
256,192,178195,1,0,0:0:0:0:
256,192,178557,1,2,0:0:0:0:
256,192,178918,1,0,0:0:0:0:
256,192,179099,1,0,0:0:0:0:
256,192,179280,1,0,0:0:0:0:
256,192,179641,1,2,0:0:0:0:
256,192,180002,1,2,0:0:0:0:
256,192,181087,1,0,0:0:0:0:
256,192,181448,1,2,0:0:0:0:
256,192,181810,1,0,0:0:0:0:
256,192,182171,1,0,0:0:0:0:
256,192,182533,1,2,0:0:0:0:
256,192,182894,1,2,0:0:0:0:
256,192,183617,1,0,0:0:0:0:
256,192,183978,1,0,0:0:0:0:
256,192,184340,1,2,0:0:0:0:
256,192,184521,1,2,0:0:0:0:
256,192,184701,1,2,0:0:0:0:
256,192,185063,1,0,0:0:0:0:
256,192,185786,1,2,0:0:0:0:
256,192,186870,1,0,0:0:0:0:
256,192,187231,1,2,0:0:0:0:
256,192,187593,1,0,0:0:0:0:
256,192,187954,1,0,0:0:0:0:
256,192,188677,1,2,0:0:0:0:
256,192,189762,1,0,0:0:0:0:
256,192,190123,1,2,0:0:0:0:
256,192,190484,1,0,0:0:0:0:
256,192,190846,1,0,0:0:0:0:
256,192,191569,1,2,0:0:0:0:
256,192,192653,1,0,0:0:0:0:
256,192,193015,1,0,0:0:0:0:
256,192,193376,1,0,0:0:0:0:
256,192,193737,1,0,0:0:0:0:
256,192,194460,1,2,0:0:0:0:
256,192,195545,1,0,0:0:0:0:
256,192,195906,1,2,0:0:0:0:
256,192,196268,1,0,0:0:0:0:
256,192,196629,1,0,0:0:0:0:
256,192,197352,1,2,0:0:0:0:
256,192,198436,1,0,0:0:0:0:
256,192,198798,1,0,0:0:0:0:
256,192,199159,1,0,0:0:0:0:
256,192,199521,1,0,0:0:0:0:
256,192,200243,1,2,0:0:0:0:
256,192,200605,1,0,0:0:0:0:
256,192,202412,1,2,0:0:0:0:
256,192,202774,1,2,0:0:0:0:
256,192,203135,1,0,0:0:0:0:
256,192,205304,1,0,0:0:0:0:
256,192,205665,1,2,0:0:0:0:
256,192,206027,1,0,0:0:0:0:
256,192,208195,1,2,0:0:0:0:
256,192,208557,1,0,0:0:0:0:
256,192,211087,1,2,0:0:0:0:
256,192,211448,1,2,0:0:0:0:
256,192,211810,1,0,0:0:0:0:
256,192,213256,1,2,0:0:0:0:
256,192,213617,1,0,0:0:0:0:
256,192,216509,1,0,0:0:0:0:
256,192,217593,1,2,0:0:0:0:
