osu file format v14

[General]
AudioFilename: audio.mp3
AudioLeadIn: 0
PreviewTime: 138798
Countdown: 0
SampleSet: Normal
StackLeniency: 0.7
Mode: 1
LetterboxInBreaks: 0
WidescreenStoryboard: 0

[Editor]
DistanceSpacing: 1.8
BeatDivisor: 1
GridSize: 8
TimelineZoom: 1

[Metadata]
Title:The Wolf
TitleUnicode:The Wolf
Artist:LEO
ArtistUnicode:LEO
Creator:YuzukiEba
Version:Kantan
Source:
Tags:Dream pop wolf chill out Ovoui
BeatmapID:1304427
BeatmapSetID:618817

[Difficulty]
HPDrainRate:8
CircleSize:5
OverallDifficulty:3
ApproachRate:5
SliderMultiplier:1.4
SliderTickRate:1

[Events]
//Background and Video events
0,0,"1495967066_tmp_princess_mononoke_by_chaoyuanxu-d6vxaoh.png",0,0
//Break Periods
//Storyboard Layer 0 (Background)
//Storyboard Layer 1 (Fail)
//Storyboard Layer 2 (Pass)
//Storyboard Layer 3 (Foreground)
//Storyboard Sound Samples

[TimingPoints]
3,722.89156626506,4,1,0,30,1,0
11569,-100,4,1,0,35,0,0
23135,-100,4,1,0,50,0,0
69400,-100,4,1,0,60,0,0
138798,-100,4,1,0,60,0,1
161930,-100,4,1,0,60,0,0
185063,-100,4,1,0,40,0,0
190846,-100,4,1,0,30,0,0
193737,-100,4,1,0,20,0,0

[HitObjects]
248,192,3,5,0,0:0:0:0:
256,192,725,1,8,0:0:0:0:
256,192,2894,1,0,0:0:0:0:
256,184,3617,1,2,0:0:0:0:
240,216,5786,1,0,0:0:0:0:
240,216,6509,1,2,0:0:0:0:
208,192,8677,1,0,0:0:0:0:
272,192,9400,1,2,0:0:0:0:
256,184,10846,1,2,0:0:0:0:
296,200,11569,1,0,0:0:0:0:
240,192,12292,5,2,0:0:0:0:
256,192,13737,1,2,0:0:0:0:
320,160,14460,1,0,0:0:0:0:
256,192,15183,1,2,0:0:0:0:
256,192,16629,1,2,0:0:0:0:
256,208,17352,1,0,0:0:0:0:
400,160,18075,1,2,0:0:0:0:
256,200,19521,1,2,0:0:0:0:
256,192,20243,1,0,0:0:0:0:
256,192,20966,1,2,0:0:0:0:
256,192,22412,1,2,0:0:0:0:
256,192,23135,1,0,0:0:0:0:
248,192,25304,1,2,0:0:0:0:
256,200,26027,1,0,0:0:0:0:
256,192,26749,1,2,0:0:0:0:
256,184,28195,1,2,0:0:0:0:
256,200,28918,1,0,0:0:0:0:
256,192,31087,1,2,0:0:0:0:
256,192,31810,1,0,0:0:0:0:
256,192,33256,1,0,0:0:0:0:
168,184,33978,1,2,0:0:0:0:
256,200,34701,1,0,0:0:0:0:
256,192,37593,1,0,0:0:0:0:
216,184,38316,1,2,0:0:0:0:
256,192,40484,1,0,0:0:0:0:
120,208,42653,1,2,0:0:0:0:
256,192,43376,1,0,0:0:0:0:
256,200,44822,1,0,0:0:0:0:
248,184,46268,1,0,0:0:0:0:
264,192,48436,1,2,0:0:0:0:
264,192,49159,1,0,0:0:0:0:
256,184,51328,1,0,0:0:0:0:
216,184,52774,1,2,0:0:0:0:
256,192,54942,1,0,0:0:0:0:
256,200,56388,1,0,0:0:0:0:
280,208,57834,1,0,0:0:0:0:
232,184,58557,1,2,0:0:0:0:
352,200,60725,1,0,0:0:0:0:
160,184,62894,1,2,0:0:0:0:
272,192,63617,1,0,0:0:0:0:
120,176,65786,1,2,0:0:0:0:
256,208,66509,1,0,0:0:0:0:
256,192,67954,1,0,0:0:0:0:
264,184,69400,1,0,0:0:0:0:
208,120,70123,1,2,0:0:0:0:
256,192,72292,1,0,0:0:0:0:
232,176,73015,1,0,0:0:0:0:
256,192,74460,1,2,0:0:0:0:
256,192,75183,1,0,0:0:0:0:
184,152,77352,1,2,0:0:0:0:
256,192,78075,1,0,0:0:0:0:
184,160,79521,1,0,0:0:0:0:
184,160,80243,1,2,0:0:0:0:
256,192,80966,1,0,0:0:0:0:
256,192,83135,1,2,0:0:0:0:
256,192,83858,1,0,0:0:0:0:
184,160,84581,1,2,0:0:0:0:
256,192,86749,1,0,0:0:0:0:
176,160,87472,1,2,0:0:0:0:
256,192,89641,1,0,0:0:0:0:
256,192,90364,1,2,0:0:0:0:
256,192,91087,1,0,0:0:0:0:
256,200,92533,1,0,0:0:0:0:
176,160,94701,1,2,0:0:0:0:
264,192,95424,1,0,0:0:0:0:
176,160,97593,1,2,0:0:0:0:
264,192,98316,1,0,0:0:0:0:
176,160,100484,1,2,0:0:0:0:
256,192,101207,1,0,0:0:0:0:
256,192,102653,1,0,0:0:0:0:
256,192,104099,1,0,0:0:0:0:
120,216,104822,1,2,0:0:0:0:
256,192,106268,1,2,0:0:0:0:
272,192,106990,1,0,0:0:0:0:
120,216,107713,1,2,0:0:0:0:
272,192,109882,1,0,0:0:0:0:
120,216,110605,1,2,0:0:0:0:
272,192,112774,1,0,0:0:0:0:
120,216,114942,1,2,0:0:0:0:
272,192,115665,1,0,0:0:0:0:
120,216,117834,1,2,0:0:0:0:
272,192,118557,1,0,0:0:0:0:
120,216,120725,1,2,0:0:0:0:
272,192,121448,1,0,0:0:0:0:
128,216,123617,1,2,0:0:0:0:
272,192,124340,1,0,0:0:0:0:
256,192,125786,1,0,0:0:0:0:
272,192,127231,1,0,0:0:0:0:
128,216,127954,1,2,0:0:0:0:
272,192,130123,1,0,0:0:0:0:
128,216,130846,1,2,0:0:0:0:
272,192,133015,1,0,0:0:0:0:
128,216,133737,1,2,0:0:0:0:
272,192,135906,1,0,0:0:0:0:
128,216,138075,1,2,0:0:0:0:
272,192,138798,1,0,0:0:0:0:
128,216,140966,1,2,0:0:0:0:
272,192,141689,1,0,0:0:0:0:
128,216,142412,1,2,0:0:0:0:
272,192,144581,1,0,0:0:0:0:
128,216,145304,1,2,0:0:0:0:
272,192,147472,1,0,0:0:0:0:
128,216,148195,1,2,0:0:0:0:
272,192,150364,1,0,0:0:0:0:
128,216,151087,1,2,0:0:0:0:
272,192,153256,1,0,0:0:0:0:
128,216,153978,1,2,0:0:0:0:
272,192,155424,1,2,0:0:0:0:
272,192,156147,1,0,0:0:0:0:
128,216,156870,1,2,0:0:0:0:
272,192,159039,1,0,0:0:0:0:
128,216,161207,1,2,0:0:0:0:
272,184,161930,1,0,0:0:0:0:
128,216,164099,1,2,0:0:0:0:
272,184,164822,1,0,0:0:0:0:
272,184,166990,1,2,0:0:0:0:
272,184,167713,1,0,0:0:0:0:
128,216,169882,1,2,0:0:0:0:
272,184,170605,1,0,0:0:0:0:
128,216,172774,1,2,0:0:0:0:
272,184,173496,1,0,0:0:0:0:
256,192,174219,1,2,0:0:0:0:
272,184,176388,1,0,0:0:0:0:
128,216,177111,1,2,0:0:0:0:
272,184,179280,1,0,0:0:0:0:
128,216,180002,1,2,0:0:0:0:
272,184,182171,1,0,0:0:0:0:
128,216,182894,1,2,0:0:0:0:
272,184,185063,1,0,0:0:0:0:
256,208,185786,1,0,0:0:0:0:
272,184,187954,1,0,0:0:0:0:
64,200,188677,1,0,0:0:0:0:
272,184,190846,1,0,0:0:0:0:
64,200,191569,1,0,0:0:0:0:
272,184,193737,1,0,0:0:0:0:
64,200,194460,1,0,0:0:0:0:
256,192,196629,1,2,0:0:0:0:
256,192,197352,1,2,0:0:0:0:
256,192,199521,1,2,0:0:0:0:
256,192,200243,1,2,0:0:0:0:
256,200,202412,5,2,0:0:0:0:
256,192,203135,1,2,0:0:0:0:
256,192,205304,5,2,0:0:0:0:
256,192,208195,5,2,0:0:0:0:
256,192,211087,5,2,0:0:0:0:
256,192,213978,1,2,0:0:0:0:
256,192,217593,1,2,0:0:0:0:
