osu file format v14

[General]
AudioFilename: audio.mp3
AudioLeadIn: 0
PreviewTime: 138798
Countdown: 0
SampleSet: Normal
StackLeniency: 0.7
Mode: 1
LetterboxInBreaks: 0
WidescreenStoryboard: 0

[Editor]
DistanceSpacing: 1.8
BeatDivisor: 2
GridSize: 8
TimelineZoom: 1

[Metadata]
Title:The Wolf
TitleUnicode:The Wolf
Artist:LEO
ArtistUnicode:LEO
Creator:YuzukiEba
Version:Futsuu
Source:
Tags:Dream pop wolf chill out Ovoui
BeatmapID:1304426
BeatmapSetID:618817

[Difficulty]
HPDrainRate:7
CircleSize:5
OverallDifficulty:4
ApproachRate:5
SliderMultiplier:1.4
SliderTickRate:1

[Events]
//Background and Video events
0,0,"1495967066_tmp_princess_mononoke_by_chaoyuanxu-d6vxaoh.png",0,0
//Break Periods
//Storyboard Layer 0 (Background)
//Storyboard Layer 1 (Fail)
//Storyboard Layer 2 (Pass)
//Storyboard Layer 3 (Foreground)
//Storyboard Sound Samples

[TimingPoints]
3,722.89156626506,4,1,0,30,1,0
11569,-100,4,1,0,35,0,0
23135,-100,4,1,0,50,0,0
69400,-100,4,1,0,60,0,0
138798,-100,4,1,0,60,0,1
161930,-100,4,1,0,60,0,0
185063,-100,4,1,0,40,0,0
190846,-100,4,1,0,30,0,0
193737,-100,4,1,0,20,0,0

[HitObjects]
248,184,3,5,0,0:0:0:0:
256,192,725,1,2,0:0:0:0:
256,192,1810,1,2,0:0:0:0:
256,184,2171,1,2,0:0:0:0:
256,192,2894,1,0,0:0:0:0:
248,192,3617,1,2,0:0:0:0:
248,192,4701,1,0,0:0:0:0:
248,192,5063,1,2,0:0:0:0:
248,200,5786,1,0,0:0:0:0:
256,184,6509,1,2,0:0:0:0:
240,200,7593,1,2,0:0:0:0:
240,200,7954,1,2,0:0:0:0:
256,176,8677,1,0,0:0:0:0:
256,176,9400,1,2,0:0:0:0:
240,192,10484,1,0,0:0:0:0:
256,184,10846,1,2,0:0:0:0:
240,200,11207,1,0,0:0:0:0:
240,200,11569,1,0,0:0:0:0:
256,184,12292,1,2,0:0:0:0:
248,192,13737,1,2,0:0:0:0:
248,192,14099,1,0,0:0:0:0:
248,192,14460,1,0,0:0:0:0:
248,192,15183,1,2,0:0:0:0:
208,208,16629,1,2,0:0:0:0:
208,208,16990,1,2,0:0:0:0:
208,208,17352,1,0,0:0:0:0:
240,192,18075,1,2,0:0:0:0:
256,192,19521,1,2,0:0:0:0:
256,192,19882,1,0,0:0:0:0:
248,192,20243,1,0,0:0:0:0:
256,192,20966,1,2,0:0:0:0:
256,192,22051,1,2,0:0:0:0:
256,192,22412,1,2,0:0:0:0:
256,184,23135,1,0,0:0:0:0:
256,184,23858,1,2,0:0:0:0:
240,176,24942,1,0,0:0:0:0:
240,176,25304,1,2,0:0:0:0:
240,176,26027,1,0,0:0:0:0:
248,192,26749,1,2,0:0:0:0:
256,176,27834,1,2,0:0:0:0:
256,176,28195,1,0,0:0:0:0:
256,176,28918,1,0,0:0:0:0:
256,176,29641,1,2,0:0:0:0:
240,184,30725,1,0,0:0:0:0:
240,184,31087,1,2,0:0:0:0:
240,184,31810,1,0,0:0:0:0:
248,176,32533,1,2,0:0:0:0:
240,176,33256,1,0,0:0:0:0:
240,176,33978,1,2,0:0:0:0:
240,176,34340,1,2,0:0:0:0:
240,176,34701,1,0,0:0:0:0:
232,176,35424,1,2,0:0:0:0:
240,176,36509,1,0,0:0:0:0:
240,176,36870,1,2,0:0:0:0:
248,176,37593,1,0,0:0:0:0:
248,176,38316,1,2,0:0:0:0:
248,184,39400,1,0,0:0:0:0:
248,184,39762,1,2,0:0:0:0:
280,184,40123,1,0,0:0:0:0:
240,192,40484,1,0,0:0:0:0:
240,192,41207,1,2,0:0:0:0:
304,192,42292,1,0,0:0:0:0:
216,192,42653,1,2,0:0:0:0:
152,160,43376,1,0,0:0:0:0:
288,160,44099,1,2,0:0:0:0:
184,176,44822,1,0,0:0:0:0:
184,176,45183,1,0,0:0:0:0:
128,160,45545,1,2,0:0:0:0:
216,200,46268,1,0,0:0:0:0:
128,208,46990,1,2,0:0:0:0:
240,184,48075,1,2,0:0:0:0:
240,184,48436,1,0,0:0:0:0:
280,160,49159,1,0,0:0:0:0:
280,160,49882,1,2,0:0:0:0:
280,160,50966,1,0,0:0:0:0:
280,160,51328,1,2,0:0:0:0:
256,184,52051,1,0,0:0:0:0:
248,184,52774,1,2,0:0:0:0:
248,184,53858,1,2,0:0:0:0:
248,184,54219,1,2,0:0:0:0:
256,192,54942,1,0,0:0:0:0:
256,192,55665,1,2,0:0:0:0:
176,176,56388,1,0,0:0:0:0:
176,176,56749,1,0,0:0:0:0:
176,176,57111,1,2,0:0:0:0:
176,176,57834,1,0,0:0:0:0:
264,184,58557,1,2,0:0:0:0:
256,192,59641,1,2,0:0:0:0:
256,192,60002,1,0,0:0:0:0:
168,184,60725,1,0,0:0:0:0:
168,184,61448,1,2,0:0:0:0:
176,176,62533,1,0,0:0:0:0:
176,176,62894,1,2,0:0:0:0:
176,176,63617,1,0,0:0:0:0:
240,184,64340,1,2,0:0:0:0:
256,192,65424,1,2,0:0:0:0:
256,192,65786,1,0,0:0:0:0:
256,192,66509,1,0,0:0:0:0:
256,192,67231,1,2,0:0:0:0:
256,184,67954,1,0,0:0:0:0:
256,184,68316,1,0,0:0:0:0:
256,184,68677,1,2,0:0:0:0:
256,184,69400,1,0,0:0:0:0:
256,184,70123,1,2,0:0:0:0:
256,184,71207,1,0,0:0:0:0:
256,184,71569,1,2,0:0:0:0:
256,184,72292,1,0,0:0:0:0:
256,184,73737,1,2,0:0:0:0:
256,184,74099,1,0,0:0:0:0:
256,184,74460,1,2,0:0:0:0:
256,184,75183,1,0,0:0:0:0:
256,184,75906,1,2,0:0:0:0:
256,184,76990,1,0,0:0:0:0:
256,184,77352,1,2,0:0:0:0:
256,184,78075,1,0,0:0:0:0:
256,184,78798,1,2,0:0:0:0:
256,184,79521,1,0,0:0:0:0:
256,184,79882,1,0,0:0:0:0:
256,184,80243,1,2,0:0:0:0:
256,184,80966,1,0,0:0:0:0:
256,184,81689,1,2,0:0:0:0:
256,184,82774,1,0,0:0:0:0:
256,184,83135,1,2,0:0:0:0:
256,192,83858,1,0,0:0:0:0:
256,192,84219,1,2,0:0:0:0:
256,192,84581,1,2,0:0:0:0:
256,192,85665,1,0,0:0:0:0:
256,192,86027,1,2,0:0:0:0:
256,192,86749,1,0,0:0:0:0:
256,192,87472,1,2,0:0:0:0:
256,192,88557,1,0,0:0:0:0:
256,192,88918,1,2,0:0:0:0:
256,192,89641,1,0,0:0:0:0:
256,192,90364,1,2,0:0:0:0:
256,192,91087,1,0,0:0:0:0:
256,192,91448,1,0,0:0:0:0:
256,192,91810,1,2,0:0:0:0:
256,192,92533,1,0,0:0:0:0:
256,192,92894,1,2,0:0:0:0:
256,192,93256,1,2,0:0:0:0:
256,192,94340,1,0,0:0:0:0:
264,192,94701,1,2,0:0:0:0:
264,192,95424,1,0,0:0:0:0:
264,192,96147,1,2,0:0:0:0:
264,192,97231,1,0,0:0:0:0:
264,192,97593,1,0,0:0:0:0:
264,192,98316,1,0,0:0:0:0:
264,192,99039,1,2,0:0:0:0:
264,192,100123,1,2,0:0:0:0:
264,192,100484,1,2,0:0:0:0:
264,192,101569,1,0,0:0:0:0:
264,192,101930,1,2,0:0:0:0:
264,192,102653,1,0,0:0:0:0:
264,192,103015,1,0,0:0:0:0:
264,192,103376,1,2,0:0:0:0:
264,192,104099,1,0,0:0:0:0:
264,192,104822,1,2,0:0:0:0:
264,192,105906,1,0,0:0:0:0:
264,192,106268,1,2,0:0:0:0:
264,192,106990,1,0,0:0:0:0:
264,192,107713,1,2,0:0:0:0:
264,192,108798,1,0,0:0:0:0:
264,192,109159,1,2,0:0:0:0:
264,192,109882,1,0,0:0:0:0:
264,192,110605,1,2,0:0:0:0:
264,192,111689,1,0,0:0:0:0:
264,192,112051,1,2,0:0:0:0:
264,192,112774,1,0,0:0:0:0:
264,192,113496,1,2,0:0:0:0:
264,192,114219,1,0,0:0:0:0:
264,192,114581,1,0,0:0:0:0:
264,192,114942,1,2,0:0:0:0:
264,192,115665,1,0,0:0:0:0:
264,192,116388,1,2,0:0:0:0:
264,192,117472,1,0,0:0:0:0:
264,192,117834,1,2,0:0:0:0:
264,192,118557,1,0,0:0:0:0:
264,192,119280,1,2,0:0:0:0:
264,192,120364,1,0,0:0:0:0:
264,192,120725,1,2,0:0:0:0:
264,192,121448,1,0,0:0:0:0:
264,192,122171,1,2,0:0:0:0:
264,192,123256,1,0,0:0:0:0:
264,192,123617,1,2,0:0:0:0:
264,192,124340,1,0,0:0:0:0:
264,192,125063,1,2,0:0:0:0:
264,192,125786,1,0,0:0:0:0:
264,192,126509,1,2,0:0:0:0:
264,192,126870,1,0,0:0:0:0:
264,192,127231,1,0,0:0:0:0:
264,192,127954,1,2,0:0:0:0:
264,192,129039,1,0,0:0:0:0:
264,192,129400,1,2,0:0:0:0:
264,192,130123,1,0,0:0:0:0:
264,192,130846,1,2,0:0:0:0:
264,192,131569,1,2,0:0:0:0:
264,192,131930,1,0,0:0:0:0:
264,192,132292,1,2,0:0:0:0:
264,192,133015,1,0,0:0:0:0:
264,192,133737,1,2,0:0:0:0:
264,192,134822,1,0,0:0:0:0:
264,192,135183,1,2,0:0:0:0:
264,192,135906,1,0,0:0:0:0:
264,192,136629,1,2,0:0:0:0:
264,192,137352,1,0,0:0:0:0:
264,192,137713,1,0,0:0:0:0:
264,192,138075,1,2,0:0:0:0:
264,192,138798,1,0,0:0:0:0:
264,192,139521,1,2,0:0:0:0:
264,192,140605,1,0,0:0:0:0:
264,192,140966,1,2,0:0:0:0:
264,192,141689,1,0,0:0:0:0:
264,192,142412,1,2,0:0:0:0:
264,192,143135,1,2,0:0:0:0:
264,192,143496,1,0,0:0:0:0:
264,192,143858,1,2,0:0:0:0:
264,192,144581,1,0,0:0:0:0:
256,192,145304,1,2,0:0:0:0:
256,192,146388,1,0,0:0:0:0:
256,192,146749,1,2,0:0:0:0:
256,192,147472,1,0,0:0:0:0:
256,192,148195,1,2,0:0:0:0:
256,192,148918,1,0,0:0:0:0:
256,192,149280,1,0,0:0:0:0:
256,192,149641,1,2,0:0:0:0:
256,192,150364,1,0,0:0:0:0:
256,192,151087,1,2,0:0:0:0:
256,192,152171,1,0,0:0:0:0:
256,192,152533,1,2,0:0:0:0:
256,192,153256,1,0,0:0:0:0:
256,192,153978,1,2,0:0:0:0:
256,192,154701,1,2,0:0:0:0:
256,192,155063,1,0,0:0:0:0:
256,192,155424,1,2,0:0:0:0:
256,192,156147,1,0,0:0:0:0:
256,192,156870,1,2,0:0:0:0:
256,192,157954,1,0,0:0:0:0:
256,192,158316,1,2,0:0:0:0:
256,192,159039,1,0,0:0:0:0:
256,192,159762,1,2,0:0:0:0:
256,192,160484,1,0,0:0:0:0:
256,192,160846,1,2,0:0:0:0:
256,192,161207,1,2,0:0:0:0:
256,192,161930,1,0,0:0:0:0:
256,192,162653,1,2,0:0:0:0:
256,192,163737,1,0,0:0:0:0:
256,192,164099,1,2,0:0:0:0:
256,192,164822,1,0,0:0:0:0:
256,192,165545,1,2,0:0:0:0:
256,200,166268,1,2,0:0:0:0:
256,192,166629,1,0,0:0:0:0:
256,192,166990,1,2,0:0:0:0:
256,192,167713,1,0,0:0:0:0:
256,192,168436,1,2,0:0:0:0:
256,192,169521,1,0,0:0:0:0:
256,192,169882,1,2,0:0:0:0:
256,192,170605,1,0,0:0:0:0:
256,192,171328,1,2,0:0:0:0:
256,192,172051,1,0,0:0:0:0:
256,192,172412,1,0,0:0:0:0:
256,192,172774,1,2,0:0:0:0:
256,192,173496,1,0,0:0:0:0:
256,192,174219,1,2,0:0:0:0:
256,192,175304,1,0,0:0:0:0:
256,192,175665,1,2,0:0:0:0:
256,192,176388,1,0,0:0:0:0:
256,192,177111,1,2,0:0:0:0:
256,192,177834,1,2,0:0:0:0:
256,192,178195,1,0,0:0:0:0:
256,192,178557,1,2,0:0:0:0:
256,192,179280,1,0,0:0:0:0:
256,192,180002,1,2,0:0:0:0:
256,192,181087,1,0,0:0:0:0:
256,192,181448,1,2,0:0:0:0:
256,192,182171,1,0,0:0:0:0:
256,192,182533,1,2,0:0:0:0:
256,192,182894,1,2,0:0:0:0:
256,192,183617,1,0,0:0:0:0:
256,192,183978,1,0,0:0:0:0:
256,192,184340,1,2,0:0:0:0:
256,192,185063,1,0,0:0:0:0:
256,192,185786,1,2,0:0:0:0:
256,192,186870,1,0,0:0:0:0:
256,192,187231,1,2,0:0:0:0:
256,192,187593,1,0,0:0:0:0:
256,192,187954,1,0,0:0:0:0:
256,192,188677,1,2,0:0:0:0:
256,192,189762,1,0,0:0:0:0:
256,192,190123,1,2,0:0:0:0:
256,192,190484,1,0,0:0:0:0:
256,192,190846,1,0,0:0:0:0:
256,192,191569,1,2,0:0:0:0:
256,192,192653,1,0,0:0:0:0:
256,192,193015,1,2,0:0:0:0:
256,192,193376,1,0,0:0:0:0:
256,192,193737,1,0,0:0:0:0:
256,192,194460,1,2,0:0:0:0:
256,192,195545,1,0,0:0:0:0:
256,192,195906,1,2,0:0:0:0:
256,192,196629,1,0,0:0:0:0:
256,192,197352,1,0,0:0:0:0:
256,192,198798,1,0,0:0:0:0:
256,192,199159,1,2,0:0:0:0:
256,192,199521,1,0,0:0:0:0:
256,192,200243,1,2,0:0:0:0:
256,192,200605,1,2,0:0:0:0:
256,192,202412,1,2,0:0:0:0:
256,192,202774,1,2,0:0:0:0:
256,192,203135,1,0,0:0:0:0:
256,192,204942,1,0,0:0:0:0:
256,192,205304,1,2,0:0:0:0:
256,192,205665,1,2,0:0:0:0:
256,192,206027,1,0,0:0:0:0:
256,192,208195,1,0,0:0:0:0:
256,192,208557,1,0,0:0:0:0:
256,192,211087,1,0,0:0:0:0:
256,192,211448,1,0,0:0:0:0:
256,192,211810,1,2,0:0:0:0:
256,192,213256,1,2,0:0:0:0:
256,192,213617,1,2,0:0:0:0:
256,192,216509,1,0,0:0:0:0:
256,192,217593,1,2,0:0:0:0:
