osu file format v14

[General]
AudioFilename: DANGEROUS.mp3
AudioLeadIn: 0
PreviewTime: 147737
Countdown: 0
SampleSet: Normal
StackLeniency: 0.8
Mode: 0
LetterboxInBreaks: 0
WidescreenStoryboard: 1

[Editor]
Bookmarks: 21191,73555,130282
DistanceSpacing: 1
BeatDivisor: 4
GridSize: 32
TimelineZoom: 2.100001

[Metadata]
Title:DANGEROUS
TitleUnicode:DANGEROUS
Artist:LEFT BOY
ArtistUnicode:LEFT BOY
Creator:Bonsai
Version:NORMAL
Source:
Tags:Big Data Oliver Remix austrian Österreichisch Ferdinand Hip Hop Feb Priti chicks giraffe zebras tiger turtle
BeatmapID:973735
BeatmapSetID:452693

[Difficulty]
HPDrainRate:3
CircleSize:3.5
OverallDifficulty:4
ApproachRate:5
SliderMultiplier:1.55
SliderTickRate:1

[Events]
//Background and Video events
Video,1445,"DangerousSmallTree.avi"
0,0,"Kueken.png",0,0
//Break Periods
2,56100,63627
2,86845,89809
2,108464,115991
2,128100,129082
2,161027,163991
//Storyboard Layer 0 (Background)
//Storyboard Layer 1 (Fail)
//Storyboard Layer 2 (Pass)
//Storyboard Layer 3 (Foreground)
//Storyboard Sound Samples

[TimingPoints]
3737,545.454545454546,4,2,1,80,1,0
21191,-100,4,1,1,80,0,0
24873,-100,4,1,1,5,0,0
25555,-100,4,1,1,80,0,0
38646,-100,4,1,1,80,0,1
46282,-100,4,1,1,80,0,0
46827,-200,4,1,1,80,0,0
47373,-200,4,1,1,5,0,0
47646,-200,4,1,1,80,0,0
47918,-100,4,1,1,80,0,1
55009,-100,4,1,1,80,0,0
64827,-117.647058823529,4,1,1,40,0,0
73555,-117.647058823529,4,1,1,60,0,0
75191,-100,4,1,1,80,0,0
81464,-200,4,1,1,80,0,0
81600,-200,4,1,1,20,0,0
81737,-200,4,1,1,80,0,0
82146,-200,4,1,1,40,0,0
82282,-100,4,1,1,80,0,0
83509,-100,4,1,1,40,0,0
83646,-100,4,1,1,80,0,0
86100,-100,4,1,1,80,0,0
86646,-100,4,1,1,40,0,0
91009,-100,4,1,1,80,0,1
99464,-100,4,1,1,80,0,0
100827,-100,4,1,1,80,0,1
107373,-200,4,1,1,80,0,0
117191,-117.647058823529,4,3,1,80,0,0
121555,-100,4,3,1,80,0,0
130009,-100,4,3,1,40,0,0
130146,-100,4,3,1,60,0,0
130282,-100,4,3,1,80,0,0
147737,-100,4,1,1,80,0,1
160827,-100,4,1,1,80,0,0
165191,-100,4,1,1,80,0,1
182100,-100,4,2,1,40,0,0

[Colours]
Combo1 : 1,134,205
Combo2 : 15,135,12
Combo3 : 221,221,0
Combo4 : 155,89,0

[HitObjects]
256,192,16555,12,0,19009,0:2:0:0:
106,191,21191,6,0,P|181:173|256:192,1,155,2|10,0:2|1:2,0:0:0:0:
294,301,22146,2,0,P|256:308|218:300,2,77.5,2|2|0,3:2|3:2|1:2,0:0:0:0:
321,273,22827,2,0,P|342:241|374:220,1,77.5,10|0,0:2|3:2,0:0:0:0:
413,219,23237,6,0,B|429:163|429:163|413:108,1,116.25,2|2,1:3|0:3,0:0:0:0:
381,36,23918,2,0,L|303:36,2,77.5,10|2|2,0:2|0:3|0:3,0:0:0:0:
381,346,25555,6,0,P|306:328|232:347,1,155,2|10,0:2|0:2,0:0:0:0:
178,292,26373,1,2,3:2:0:0:
123,237,26646,2,0,P|141:162|123:87,1,155,2|10,0:2|0:2,0:0:0:0:
22,29,27600,6,0,P|8:84|21:141,1,116.25,2|2,0:3|0:3,0:0:0:0:
76,195,28282,1,8,0:2:0:0:
130,249,28555,2,2,L|225:249,1,77.5,2|2,0:1|0:3,0:2:0:0:
388,82,29646,5,2,3:2:0:0:
388,82,29918,2,0,L|293:82,1,77.5,2|0,0:2|3:2,0:0:0:0:
255,137,30464,2,0,L|350:137,1,77.5,10|0,0:2|3:2,0:0:0:0:
410,137,31009,1,2,0:2:0:0:
355,191,31282,1,2,3:2:0:0:
300,245,31555,1,10,0:2:0:0:
190,135,32100,6,0,L|190:296,1,155,2|10,0:3|0:2,0:0:0:0:
190,367,32918,1,2,0:3:0:0:
112,367,33191,2,0,P|74:360|36:368,2,77.5,2|2|10,0:3|3:3|0:2,0:0:0:0:
114,212,34282,6,0,P|153:145|218:105,1,155,2|10,0:2|0:2,0:0:0:0:
336,203,35373,2,0,P|305:251|256:281,1,116.25,2|0,0:2|0:3,0:0:0:0:
217,281,35918,2,0,L|217:197,1,77.5,10|2,0:2|3:2,0:0:0:0:
142,179,36464,6,0,B|105:167|105:167|68:179,2,77.5,2|2|10,0:3|0:3|0:2,0:0:0:0:
217,203,37282,1,2,0:3:0:0:
290,179,37555,1,2,0:3:0:0:
290,179,38646,6,2,P|247:133|148:174,1,155,4|10,1:1|0:2,0:2:0:0:
219,203,39464,1,2,3:2:0:0:
277,253,39737,2,0,P|324:247|358:210,1,77.5,2|2,0:2|3:2,0:0:0:0:
361,152,40282,2,0,P|405:176|422:245,1,116.25,10|2,0:2|0:3,0:0:0:0:
412,273,40827,6,0,L|467:328,2,77.5,2|2|10,0:3|0:3|0:2,0:0:0:0:
334,273,41646,1,2,0:3:0:0:
256,273,41918,1,2,0:3:0:0:
178,273,42191,1,2,0:3:0:0:
100,273,42464,2,0,B|64:237|64:237|64:185|64:185|24:145,1,155,10|0,0:2|0:2,0:0:0:0:
27,70,43282,5,2,3:2:0:0:
104,70,43555,2,0,P|137:89|157:122,1,77.5,10|0,0:2|3:2,0:0:0:0:
157,199,44100,2,0,P|177:231|210:251,1,77.5,2|0,0:2|3:2,0:0:0:0:
288,251,44646,1,10,0:2:0:0:
365,251,44918,2,0,P|345:197|293:173,1,116.25,2|2,3:2|0:3,0:0:0:0:
254,173,45464,5,2,0:3:0:0:
199,118,45737,1,8,0:2:0:0:
144,63,46009,1,2,0:3:0:0:
198,9,46282,1,2,0:3:0:0:
448,146,47918,6,4,P|439:183|448:220,1,77.5,12|2,0:1|3:2,0:0:0:0:
502,275,48464,2,0,P|451:297|397:277,1,116.25,2|2,0:3|3:3,0:0:0:0:
375,246,49009,2,0,L|282:245,1,77.5,10|2,0:2|3:2,0:0:0:0:
219,245,49555,6,0,B|207:281|207:281|219:318,2,77.5,2|2|10,0:3|0:3|0:2,0:0:0:0:
245,172,50373,1,2,0:2:0:0:
269,98,50646,2,0,B|280:61|280:61|269:24,1,77.5,2|2,0:3|3:2,0:0:0:0:
196,59,51191,2,2,B|120:84|120:33|45:59,1,155,8|2,0:2|0:3,0:2:0:0:
45,136,52009,6,0,P|64:169|97:189,1,77.5,2|8,3:2|0:2,0:0:0:0:
135,189,52418,2,0,P|186:167|240:187,2,116.25,2|2|2,3:2|0:2|0:2,0:0:0:0:
135,227,53373,6,0,L|135:345,2,116.25,10|2|2,0:2|0:3|0:3,0:0:0:0:
135,149,54464,1,8,0:2:0:0:
135,71,54737,1,2,3:3:0:0:
57,71,55009,1,2,0:3:0:0:
349,98,64827,6,0,P|413:84|478:98,2,131.750002512932,0|0|0,3:2|3:2|3:2,0:0:0:0:
256,192,66464,1,0,3:2:0:0:
162,285,67009,2,0,P|98:299|34:286,2,131.750002512932,0|0|0,3:2|3:2|3:2,0:0:0:0:
256,192,68645,1,0,3:2:0:0:
256,192,68918,12,4,71373,3:3:0:0:
125,288,73555,5,0,3:2:0:0:
256,288,74100,1,0,3:2:0:0:
387,288,74646,2,0,L|477:197,1,98.8125018846989,0|0,3:2|3:2,0:0:0:0:
484,190,75191,1,8,0:2:0:0:
387,125,75600,6,0,P|332:111|275:124,1,116.25,2|2,0:3|0:3,0:0:0:0:
209,165,76282,2,0,P|216:127|208:89,1,77.5,10|2,0:2|0:2,0:0:0:0:
130,89,76827,1,2,0:3:0:0:
130,166,77100,1,2,3:2:0:0:
129,242,77373,2,2,P|169:189|209:242,1,155,10|0,0:2|0:3,0:2:0:0:
209,320,78191,5,2,3:2:0:0:
286,320,78464,2,0,L|414:191,1,155,10|2,0:2|0:2,0:0:0:0:
450,155,79282,1,2,3:2:0:0:
395,100,79555,2,0,L|298:3,1,116.25,10|2,0:2|0:3,0:0:0:0:
274,17,80100,6,0,L|196:16,2,77.5,2|2|8,0:3|0:3|0:2,0:0:0:0:
328,71,80918,1,2,0:3:0:0:
382,125,81191,1,2,0:3:0:0:
206,374,82282,6,0,L|206:206,1,155,0|10,0:2|0:2,0:0:0:0:
260,164,83100,1,2,3:0:0:0:
315,110,83373,2,0,P|337:161|317:215,2,116.25,2|2|2,0:2|0:2|3:2,0:0:0:0:
238,89,84464,6,0,L|154:89,1,77.5,2|2,0:3|0:3,0:0:0:0:
85,109,85009,1,10,0:2:0:0:
10,129,85282,2,0,B|-1:165|-1:165|10:202,2,77.5,2|2|2,0:3|0:3|3:3,0:0:0:0:
85,148,86100,2,2,P|160:166|235:147,1,155,10|0,0:2|2:2,0:2:0:0:
365,81,91009,6,0,L|256:191,1,155,4|10,0:1|0:2,0:0:0:0:
201,245,91827,1,0,3:2:0:0:
256,299,92100,2,0,B|320:363|320:363,2,77.5,2|2|0,0:2|3:2|2:2,0:0:0:0:
256,299,93191,6,0,B|312:243|312:243|387:243,1,155,2|10,0:3|0:2,0:0:0:0:
465,243,94009,1,2,0:3:0:0:
465,165,94282,2,0,B|465:127|465:127|438:96,1,77.5,2|2,0:3|3:3,0:0:0:0:
388,38,94827,2,0,L|388:212,1,155,10|0,0:2|0:2,0:0:0:0:
332,248,95646,5,2,3:2:0:0:
254,248,95918,2,0,L|191:185,1,77.5,10|0,0:2|3:2,0:0:0:0:
121,193,96464,2,0,L|58:130,1,77.5,2|0,0:2|3:2,0:0:0:0:
13,82,97009,2,0,P|65:59|118:80,1,116.25,10|2,0:2|0:3,0:0:0:0:
234,80,97827,5,2,0:3:0:0:
234,2,98100,1,10,0:2:0:0:
311,2,98373,1,2,0:3:0:0:
311,79,98646,2,0,L|383:151,2,77.5,2|2|10,0:3|3:3|0:2,0:0:0:0:
256,192,99464,12,4,100827,0:1:0:0:
25,194,101782,6,0,P|77:216|129:193,1,116.25,2|2,0:3|0:3,0:0:0:0:
206,193,102464,1,10,0:2:0:0:
283,193,102737,1,2,0:3:0:0:
360,193,103009,2,0,L|448:105,1,116.25,2|2,0:3|3:3,0:0:0:0:
443,72,103555,2,0,P|368:53|293:71,1,155,10|0,0:2|0:2,0:0:0:0:
293,149,104373,5,2,3:2:0:0:
293,226,104646,2,0,P|256:235|218:226,1,77.5,10|0,0:2|3:2,0:0:0:0:
218,149,105191,1,2,0:2:0:0:
218,71,105464,1,2,3:2:0:0:
140,71,105737,1,10,0:2:0:0:
294,71,106282,6,0,P|326:51|346:17,1,77.5,2|2,0:3|0:3,0:0:0:0:
423,17,106827,1,10,0:2:0:0:
423,94,107100,2,0,L|423:226,2,116.25,2|0|0,0:3|2:2|2:2,0:0:0:0:
193,146,117191,6,0,B|178:192|178:192|193:239,4,98.8125018846989,0|0|0|0|0,3:2|3:2|3:2|3:2|3:2,0:0:0:0:
318,240,119373,2,0,B|334:192|334:192|319:146,4,98.8125018846989,0|0|0|0|0,3:2|3:2|3:2|3:2|3:2,0:0:0:0:
178,192,121555,5,0,0:0:0:0:
178,308,121964,1,0,0:0:0:0:
76,249,122373,1,0,0:0:0:0:
76,132,122782,1,0,0:0:0:0:
178,74,123191,2,0,L|258:74,1,77.5
334,74,123737,5,0,0:0:0:0:
436,133,124146,1,0,0:0:0:0:
436,250,124555,2,0,L|436:377,2,116.25
436,172,125646,1,0,0:0:0:0:
512,28,130282,6,0,P|437:10|362:29,1,155,2|2,0:0|0:0,0:0:0:0:
256,140,131373,1,2,0:0:0:0:
149,251,131918,1,2,3:0:0:0:
258,360,132464,6,0,P|333:378|408:359,2,155,2|2|2,0:0|0:0|0:0,0:0:0:0:
149,251,134100,1,2,3:0:0:0:
304,251,134646,6,0,B|376:251|376:251|436:191,2,155,2|2|2,0:0|0:0|0:0,0:0:0:0:
304,95,136282,1,2,0:0:0:0:
149,95,136827,6,0,P|74:77|0:96,1,155,2|2,0:0|0:0,0:0:0:0:
76,230,137918,6,2,B|110:212|110:212|145:230|145:230|180:212|180:212|214:230|214:230|249:212|249:212|306:240|365:212,1,310,2|2,0:0|0:0,3:2:0:0:
304,68,139555,1,2,0:0:0:0:
249,212,140100,1,2,0:0:0:0:
304,356,140646,1,2,3:0:0:0:
148,356,141191,6,0,P|74:374|0:356,1,155,2|2,0:0|0:0,0:0:0:0:
74,220,142282,1,2,0:0:0:0:
148,83,142827,1,2,3:0:0:0:
256,192,143373,6,0,B|256:243|256:243|290:295|290:295|290:347,2,155,2|2|2,0:1|0:0|0:0,0:0:0:0:
256,36,145009,1,2,0:0:0:0:
411,36,145555,6,0,P|429:110|411:185,1,155,2|2,0:0|0:0,0:0:0:0:
320,320,146646,6,2,B|285:338|285:338|250:320|250:320|216:338|216:338|181:320|181:320|146:338|146:338|112:320|112:320,1,232.5,0|0,0:0|0:2,2:2:0:0:
47,279,147737,6,0,P|67:226|45:173,1,116.25,4|0,0:1|0:2,0:0:0:0:
17,146,148282,1,14,0:2:0:0:
17,68,148555,1,2,3:2:0:0:
94,68,148827,2,0,P|126:48|146:14,1,77.5,2|0,0:2|0:2,0:0:0:0:
223,14,149373,2,0,P|242:47|275:67,1,77.5,14|0,0:2|3:2,0:0:0:0:
352,67,149918,6,0,B|352:146|352:146|300:188,1,116.25,2|2,0:2|0:2,0:0:0:0:
295,196,150464,2,0,L|350:252,1,77.5,12|0,0:2|3:2,0:0:0:0:
349,328,151009,1,2,0:3:0:0:
271,328,151282,1,2,0:3:0:0:
193,328,151555,2,2,P|154:273|113:326,1,155,14|0,0:2|0:1,0:2:0:0:
35,326,152373,5,2,3:2:0:0:
35,248,152646,2,0,P|55:196|107:172,1,116.25,14|2,0:2|0:2,0:0:0:0:
146,172,153191,2,0,L|146:82,1,77.5,2|0,0:2|0:2,0:0:0:0:
223,94,153737,2,0,L|223:171,1,77.5,14|0,0:2|3:2,0:0:0:0:
300,171,154282,6,0,P|332:151|352:117,1,77.5,2|0,0:2|0:2,0:0:0:0:
351,39,154827,2,0,P|388:30|425:40,1,77.5,14|0,0:2|0:2,0:0:0:0:
427,118,155373,2,0,L|497:69,2,77.5,2|2|12,0:3|0:3|0:2,0:0:0:0:
427,273,156464,6,0,P|376:295|322:275,1,116.25,4|0,0:1|0:2,0:0:0:0:
321,236,157009,2,0,L|243:236,1,77.5,14|0,0:2|3:2,0:0:0:0:
174,199,157555,2,0,P|165:236|174:273,2,77.5,2|0|14,0:2|0:2|0:2,0:0:0:0:
244,160,158373,5,0,3:2:0:0:
244,82,158646,1,2,0:2:0:0:
175,43,158918,2,0,P|137:33|100:42,1,77.5,2|12,0:2|0:2,0:0:0:0:
100,81,159327,2,0,P|109:118|99:155,1,77.5,2|0,0:2|0:0,0:0:0:0:
99,194,159737,5,2,0:3:0:0:
168,233,160009,1,2,1:3:0:0:
237,272,160282,2,2,P|312:254|387:273,1,155,14|0,0:2|3:2,0:2:0:0:
144,160,165191,6,0,B|181:149|181:149|217:160,1,77.5,4|0,0:1|3:2,0:0:0:0:
255,171,165600,2,8,L|279:96,1,77.5,2|0,0:3|0:2,0:0:0:0:
352,120,166146,2,0,B|335:174|335:174|352:230,1,116.25,2|2,0:3|0:3,0:0:0:0:
373,306,166828,1,12,0:2:0:0:
226,255,167373,6,0,L|151:231,1,77.5,2|2,0:3|0:3,0:0:0:0:
116,215,167782,2,0,L|95:140,2,77.5,2|2|0,0:3|0:3|0:2,0:0:0:0:
97,249,168464,2,0,P|86:285|95:323,1,77.5,2|2,0:3|0:3,0:0:0:0:
150,378,169010,1,12,0:2:0:0:
259,268,169555,6,0,B|259:232|259:232|282:196|282:196|282:159,1,116.25,2|0,0:3|0:2,0:0:0:0:
282,120,170100,2,0,L|405:120,1,116.25,2|0,0:3|0:2,0:0:0:0:
437,120,170646,1,2,0:3:0:0:
437,197,170918,2,0,P|447:233|438:271,1,77.5,2|12,0:2|0:2,0:0:0:0:
282,271,171737,6,0,L|211:200,1,77.5,2|2,0:3|0:3,0:0:0:0:
199,188,172146,2,0,L|199:80,2,77.5,2|2|0,0:3|0:3|0:2,0:0:0:0:
171,215,172827,1,2,0:2:0:0:
93,215,173100,1,2,0:2:0:0:
38,160,173373,1,14,0:2:0:0:
38,82,173646,1,2,3:2:0:0:
115,82,173918,6,0,L|226:82,1,77.5,4|0,0:1|3:2,0:0:0:0:
220,54,174327,2,0,L|331:54,1,77.5,2|2,0:3|0:3,0:0:0:0:
297,131,174873,2,0,B|297:187|297:187|254:229,1,116.25,2|2,0:3|0:3,0:0:0:0:
199,284,175555,1,12,0:2:0:0:
353,284,176100,6,0,L|434:284,1,77.5,2|2,0:3|0:3,0:0:0:0:
469,284,176509,2,0,L|469:365,2,77.5,0|2|0,0:3|0:3|0:2,0:0:0:0:
469,245,177191,2,0,P|479:208|470:170,1,77.5,2|2,0:2|0:3,0:0:0:0:
470,92,177737,1,12,0:2:0:0:
367,207,178282,6,0,B|331:207|331:207|295:183|295:183|258:183,1,116.25,2|0,0:3|0:2,0:0:0:0:
219,183,178827,2,0,L|219:61,1,116.25,2|0,0:2|0:2,0:0:0:0:
219,27,179373,1,2,0:3:0:0:
141,27,179646,2,0,P|130:63|139:101,1,77.5,2|12,0:2|0:2,0:0:0:0:
249,210,180464,6,0,L|189:150,1,77.5,2|2,0:3|0:3,0:0:0:0:
166,127,180873,2,0,L|111:182,2,77.5,2|2|0,0:3|0:3|0:2,0:0:0:0:
193,99,181555,6,2,B|247:44|247:44|302:99|302:99|357:44|357:44|412:99|412:99|357:153|357:153|412:208|412:208|357:263|357:263|302:208|302:208|247:263|247:263|193:208,1,775,2|2,0:2|3:3,0:2:0:0:
