osu file format v14

[General]
AudioFilename: DANGEROUS.mp3
AudioLeadIn: 0
PreviewTime: 147737
Countdown: 0
SampleSet: Normal
StackLeniency: 0.4
Mode: 0
LetterboxInBreaks: 0
WidescreenStoryboard: 1

[Editor]
Bookmarks: 21191,73555,130282
DistanceSpacing: 0.5
BeatDivisor: 4
GridSize: 16
TimelineZoom: 2.8

[Metadata]
Title:DANGEROUS
TitleUnicode:DANGEROUS
Artist:LEFT BOY
ArtistUnicode:LEFT BOY
Creator:Bonsai
Version:HARD
Source:
Tags:Big Data Oliver Remix austrian Österreichisch Ferdinand Hip Hop Feb Priti chicks giraffe zebras tiger turtle
BeatmapID:990564
BeatmapSetID:452693

[Difficulty]
HPDrainRate:4
CircleSize:4
OverallDifficulty:6.5
ApproachRate:7.5
SliderMultiplier:1.5
SliderTickRate:1

[Events]
//Background and Video events
Video,1445,"DangerousSmallTree.avi"
0,0,"Zebras.png",0,0
//Break Periods
2,56300,64002
2,86845,90184
2,108464,116366
2,128100,129457
2,161027,164366
//Storyboard Layer 0 (Background)
//Storyboard Layer 1 (Fail)
//Storyboard Layer 2 (Pass)
//Storyboard Layer 3 (Foreground)
//Storyboard Sound Samples

[TimingPoints]
3737,545.454545454546,4,2,1,80,1,0
21191,-100,4,1,1,80,0,0
24873,-100,4,1,1,5,0,0
25555,-100,4,1,1,80,0,0
38373,-166.666666666667,4,1,1,80,0,0
38646,-100,4,1,1,80,0,1
46282,-100,4,1,1,80,0,0
46827,-166.666666666667,4,1,1,80,0,0
47373,-166.666666666667,4,1,1,5,0,0
47646,-166.666666666667,4,1,1,80,0,0
47918,-100,4,1,1,80,0,1
51191,-133.333333333333,4,1,1,80,0,1
51737,-100,4,1,1,80,0,1
55009,-100,4,1,1,80,0,0
64827,-133.333333333333,4,1,1,40,0,0
73555,-166.666666666667,4,1,1,60,0,0
75191,-100,4,1,1,80,0,0
77373,-93.4579439252336,4,1,1,80,0,0
77918,-100,4,1,1,80,0,0
81737,-166.666666666667,4,1,1,80,0,0
82146,-166.666666666667,4,1,1,40,0,0
82282,-100,4,1,1,80,0,0
83509,-100,4,1,1,40,0,0
83646,-100,4,1,1,80,0,0
86100,-93.4579439252336,4,1,1,80,0,0
86646,-100,4,1,1,40,0,0
91009,-100,4,1,1,80,0,1
92646,-166.666666666667,4,1,1,80,0,0
93055,-100,4,1,1,40,0,0
93191,-100,4,1,1,80,0,1
96600,-100,4,1,1,80,0,1
96737,-100,4,1,1,80,0,1
99464,-100,4,1,1,40,0,0
99600,-100,4,1,1,80,0,0
100827,-100,4,1,1,80,0,1
107373,-166.666666666667,4,1,1,80,0,0
117191,-125,4,3,1,80,0,0
121555,-111.111111111111,4,3,1,80,0,0
130009,-100,4,3,1,40,0,0
130146,-100,4,3,1,60,0,0
130282,-100,4,3,1,80,0,0
143373,-80,4,3,1,80,0,0
143782,-100,4,3,1,80,0,0
147737,-100,4,1,1,80,0,1
151555,-93.4579439252336,4,1,1,80,0,1
152100,-100,4,1,1,80,0,1
152441,-100,4,1,1,5,0,1
152509,-100,4,1,1,80,0,1
155509,-100,4,1,1,40,0,1
155646,-100,4,1,1,80,0,1
160146,-100,4,1,1,40,0,1
160282,-93.4579439252336,4,1,1,80,0,1
160827,-100,4,1,1,80,0,0
165191,-100,4,1,1,80,0,1
182100,-100,4,3,1,40,0,0
184759,-100,4,1,1,40,0,0

[Colours]
Combo1 : 1,134,205
Combo2 : 209,137,211
Combo3 : 221,221,0
Combo4 : 155,89,0

[HitObjects]
256,192,16555,12,0,19009,0:2:0:0:
72,192,21191,6,0,P|126:179|180:192,1,112.5,2|0,0:2|3:2,0:0:0:0:
233,245,21737,1,10,1:2:0:0:
180,80,22146,2,0,L|180:33,1,37.5,2|0,3:2|1:2,0:0:0:0:
254,42,22418,2,0,P|253:78|270:111,1,75,2|0,3:2|1:2,0:0:0:0:
346,112,22827,5,10,0:2:0:0:
394,112,22964,1,0,3:2:0:0:
442,112,23100,1,2,3:2:0:0:
490,112,23237,6,0,B|490:164|490:164|474:180,1,75,2|2,1:3|0:3,0:0:0:0:
420,233,23646,1,2,0:3:0:0:
297,200,23918,2,0,B|260:192|260:192|224:200,1,75,10|2,0:2|0:3,0:0:0:0:
100,233,24464,2,0,L|90:182,2,37.5,2|0|0,0:3|2:0|2:2,0:0:0:0:
389,357,25555,6,0,P|397:320|388:284,1,75,2|0,0:2|3:2,0:0:0:0:
342,198,26100,2,0,P|332:162|341:125,1,75,10|0,0:2|3:2,0:0:0:0:
378,60,26509,1,2,3:2:0:0:
378,60,26646,6,0,P|341:51|305:60,1,75,0|0,0:2|3:2,0:0:0:0:
263,85,27055,1,2,0:2:0:0:
219,107,27191,2,0,P|183:116|146:107,1,75,10|0,0:2|3:2,0:0:0:0:
93,54,27600,6,0,L|93:135,1,75,2|2,0:3|0:3,0:0:0:0:
93,204,28009,2,0,L|130:204,1,37.5,2|0,0:3|3:2,0:0:0:0:
205,204,28282,1,10,0:2:0:0:
318,166,28555,2,0,P|327:202|318:238,2,75,2|2|0,0:1|0:3|2:2,0:0:0:0:
354,349,29646,5,0,3:2:0:0:
336,349,29782,1,0,2:2:0:0:
318,349,29918,2,0,P|282:357|246:348,1,75,2|0,0:2|3:2,0:0:0:0:
208,257,30464,2,0,P|245:248|281:257,1,75,10|0,0:2|3:2,0:0:0:0:
330,256,30873,1,2,3:2:0:0:
379,256,31009,5,0,0:2:0:0:
330,172,31282,1,2,3:2:0:0:
460,175,31555,1,10,0:2:0:0:
460,175,31827,6,0,L|497:111,1,37.5,0|0,3:2|3:2,0:0:0:0:
512,75,32100,2,0,P|476:83|440:74,1,75,2|2,0:3|0:3,0:0:0:0:
364,73,32509,1,2,3:2:0:0:
364,73,32646,2,0,P|328:81|292:72,1,75,10|2,0:2|0:3,0:0:0:0:
216,71,33055,1,2,3:2:0:0:
216,71,33191,6,0,L|216:127,1,37.5,0|0,0:2|3:2,0:0:0:0:
236,152,33464,2,0,L|236:208,1,37.5,2|0,0:3|0:2,0:0:0:0:
255,234,33737,2,0,P|291:226|327:235,1,75,10|0,0:2|2:2,0:2:0:0:
295,358,34282,5,2,0:2:0:0:
295,358,34418,1,0,3:2:0:0:
295,358,34555,1,0,3:2:0:0:
167,358,34827,2,0,P|135:338|116:306,1,75,10|0,0:2|3:2,0:0:0:0:
116,230,35236,1,2,3:2:0:0:
116,230,35373,5,0,0:2:0:0:
201,277,35646,1,2,3:2:0:0:
201,149,35918,1,10,0:2:0:0:
286,230,36191,5,0,3:2:0:0:
334,230,36328,1,0,3:2:0:0:
382,230,36464,2,0,P|417:219|445:194,1,75,2|2,0:3|0:3,0:0:0:0:
445,67,37009,2,0,P|417:41|381:31,1,75,10|0,0:2|0:2,0:0:0:0:
332,31,37418,1,2,3:2:0:0:
332,79,37555,6,0,L|332:158,1,75,2|0,0:3|2:2,0:0:0:0:
332,154,38373,6,2,L|273:154,1,44.999998626709,0|4,2:2|1:1,0:0:0:0:
189,153,38918,5,2,3:2:0:0:
252,264,39191,2,0,P|288:273|324:265,1,75,10|0,0:2|3:2,0:0:0:0:
291,197,39600,1,2,3:2:0:0:
291,197,39737,6,0,P|254:187|218:195,1,75,0|0,0:2|3:2,0:0:0:0:
178,258,40146,1,2,0:2:0:0:
178,258,40282,2,0,P|144:208|172:136,1,112.5,10|2,0:2|0:3,0:0:0:0:
71,259,40964,5,2,0:3:0:0:
71,259,41100,1,2,0:3:0:0:
161,349,41373,1,10,0:2:0:0:
288,349,41646,1,2,0:3:0:0:
377,259,41918,2,0,B|385:223|385:223|377:186,2,75,2|2|10,0:3|0:3|0:2,0:0:0:0:
429,43,43009,6,0,P|397:61|377:93,1,75,0|2,0:2|3:2,0:0:0:0:
292,167,43555,2,0,L|292:92,1,75,10|0,0:2|3:2,0:0:0:0:
292,43,43964,1,2,3:2:0:0:
292,43,44100,6,0,L|201:43,1,75,0|0,0:2|3:2,0:0:0:0:
168,46,44509,1,2,0:2:0:0:
168,46,44646,1,10,0:2:0:0:
70,46,44918,2,0,P|61:82|72:118,1,75,2|0,3:2|0:3,0:0:0:0:
169,118,45464,5,2,0:3:0:0:
217,118,45600,1,2,0:3:0:0:
265,118,45737,2,2,L|329:182,1,75,10|2,0:2|0:3,0:3:0:0:
352,205,46146,1,2,0:3:0:0:
386,239,46282,2,0,L|304:239,1,75,2|0,0:3|2:2,0:0:0:0:
262,239,46691,1,0,2:2:0:0:
262,239,46827,6,2,B|223:250|223:227|174:239,1,89.9999972534181,0|0,2:2|0:2,0:2:0:0:
173,239,47646,6,2,L|128:239,1,44.999998626709,0|12,2:2|0:1,0:2:0:0:
0,239,48191,5,2,3:2:0:0:
99,159,48464,2,0,P|62:150|27:160,1,75,2|0,0:2|3:2,0:0:0:0:
127,82,49009,2,0,P|135:45|125:10,1,75,10|0,0:2|3:2,0:0:0:0:
204,110,49555,5,2,0:3:0:0:
252,110,49691,1,2,0:3:0:0:
300,110,49827,1,2,0:3:0:0:
204,194,50100,2,0,L|116:194,1,75,10|2,0:2|0:3,0:0:0:0:
94,228,50509,1,2,3:3:0:0:
59,262,50646,2,0,P|94:252|130:260,1,75,2|2,0:3|0:3,0:0:0:0:
180,368,51191,6,2,P|186:340|178:313,2,56.2500021457673,10|0|0,0:2|3:2|0:2,0:2:0:0:
272,262,52009,6,0,P|307:252|343:260,1,75,2|8,3:2|0:2,0:0:0:0:
378,295,52418,2,0,L|378:220,3,75,2|2|2|2,3:2|3:2|3:2|0:2,0:0:0:0:
377,170,53373,2,0,P|414:179|449:169,1,75,10|2,0:2|3:2,0:0:0:0:
449,94,53782,6,0,L|355:94,1,75,2|2,0:3|0:3,0:0:0:0:
321,94,54191,1,2,0:3:0:0:
230,3,54464,1,10,0:2:0:0:
139,93,54737,6,0,L|101:93,1,37.5,2|2,3:3|3:3,0:0:0:0:
83,167,55009,2,0,L|166:167,1,75,2|0,0:3|2:2,0:0:0:0:
176,167,55418,1,0,2:3:0:0:
195,167,55555,1,0,2:2:0:0:
258,206,55827,1,0,2:2:0:0:
347,167,56100,5,2,2:2:0:0:
115,210,64827,6,0,P|113:183|115:155,1,56.2500021457673,0|2,3:2|2:2,0:0:0:0:
167,104,65373,1,2,3:2:0:0:
240,104,65646,1,2,2:2:0:0:
291,155,65918,2,0,P|294:183|291:213,1,56.2500021457673,2|2,3:2|2:2,0:0:0:0:
220,231,66464,2,0,P|216:203|218:175,1,56.2500021457673,2|2,3:2|2:2,0:0:0:0:
274,281,67009,6,0,B|333:297|333:263|392:281,1,112.500004291535,2|2,3:2|3:2,0:0:0:0:
452,305,67827,2,0,P|457:267|406:211,1,112.500004291535,2|2,3:2|3:2,0:0:0:0:
256,281,68917,5,2,3:2:0:0:
256,192,69055,12,4,71373,3:3:0:0:
391,213,73555,6,0,L|302:213,1,89.9999972534181,0|0,3:2|3:2,0:0:0:0:
211,213,74646,2,0,L|211:283,1,67.4999979400635,0|0,3:2|3:2,0:0:0:0:
215,285,75191,6,0,P|178:276|143:286,1,75,8|0,0:2|3:2,0:0:0:0:
108,321,75600,6,0,L|108:242,1,75,2|2,0:3|0:3,0:0:0:0:
108,197,76009,2,0,L|145:197,1,37.5,2|0,0:3|3:3,0:3:0:0:
168,154,76282,2,0,P|178:118|169:81,1,75,10|2,0:2|0:3,0:0:0:0:
149,37,76691,1,2,3:3:0:0:
197,37,76827,2,0,L|253:37,1,37.5,2|0,0:3|3:2,0:0:0:0:
278,57,77100,2,0,L|334:57,1,37.5,2|0,3:3|0:2,0:0:0:0:
367,57,77373,6,2,L|367:217,1,160.499995101929,10|0,0:2|0:2,0:2:0:0:
370,295,78055,5,2,3:2:0:0:
370,295,78191,1,2,3:2:0:0:
292,217,78464,2,0,P|241:199|189:217,1,112.5,10|2,0:2|3:2,0:0:0:0:
168,290,79009,5,2,0:2:0:0:
245,350,79282,1,2,3:2:0:0:
322,290,79555,1,10,0:2:0:0:
245,189,79827,5,2,3:2:0:0:
245,140,79964,1,2,0:3:0:0:
245,91,80100,2,0,L|341:91,1,75,2|2,0:3|0:3,0:0:0:0:
320,140,80510,1,2,3:3:0:0:
320,188,80646,2,0,L|395:188,1,75,10|2,0:2|0:3,0:0:0:0:
395,139,81055,1,2,3:3:0:0:
395,90,81191,1,2,0:3:0:0:
474,93,81464,5,2,2:2:0:0:
473,92,81737,2,0,P|481:124|473:156,1,67.4999979400635,2|0,2:2|2:2,0:0:0:0:
455,202,82282,5,0,0:2:0:0:
357,202,82555,1,2,3:2:0:0:
406,318,82827,1,10,0:2:0:0:
308,318,83100,1,2,3:2:0:0:
259,202,83373,6,0,P|255:183|258:165,1,37.5,2|0,0:2|2:2,0:0:0:0:
290,220,83646,2,0,P|305:230|316:245,1,37.5,2|0,3:2|0:2,0:0:0:0:
252,239,83918,2,0,P|216:248|180:240,1,75,10|2,0:2|3:2,0:0:0:0:
129,189,84327,1,2,0:3:0:0:
129,189,84464,5,2,0:3:0:0:
128,316,84737,1,2,0:3:0:0:
1,316,85009,1,10,0:2:0:0:
1,316,85146,2,0,L|1:225,1,75,2|2,1:3|3:3,0:0:0:0:
1,189,85555,2,0,L|41:189,1,37.5,2|0,0:3|3:2,0:0:0:0:
87,189,85827,1,2,3:3:0:0:
183,92,86100,6,2,P|259:69|333:92,1,160.499995101929,10|0,0:2|2:2,0:2:0:0:
295,88,91009,6,0,P|259:97|222:87,1,75,4|0,0:1|2:2,0:0:0:0:
146,190,91555,6,0,P|182:180|218:189,1,75,10|2,0:2|3:2,0:0:0:0:
254,256,91964,1,2,3:2:0:0:
254,256,92100,2,0,P|218:265|181:256,1,75,0|2,0:2|3:2,0:0:0:0:
109,259,92509,1,2,0:2:0:0:
109,259,92646,6,2,B|115:291|115:291|109:324,1,67.4999979400635,2|0,2:2|2:2,0:1:0:0:
97,372,93191,6,0,L|161:372,2,37.5,2|2|2,0:3|0:3|0:3,0:0:0:0:
198,293,93737,2,0,L|235:293,1,37.5,10|2,0:2|3:2,0:0:0:0:
284,293,94009,1,2,0:3:0:0:
332,293,94146,1,2,3:2:0:0:
380,293,94282,6,0,L|380:330,1,37.5,2|2,0:3|3:2,0:0:0:0:
380,379,94555,1,2,0:3:0:0:
474,293,94827,2,0,P|494:221|478:148,1,150,10|0,0:2|0:2,0:0:0:0:
370,218,95646,5,2,3:2:0:0:
267,143,95918,2,0,L|267:218,1,75,10|0,0:2|3:2,0:0:0:0:
144,255,96464,6,0,L|144:217,1,37.5,2|0,0:2|2:2,0:0:0:0:
96,178,96737,2,0,L|96:216,1,37.5,2|0,3:2|0:2,0:0:0:0:
47,178,97009,2,0,P|34:123|47:69,1,112.5,10|2,0:2|0:2,0:0:0:0:
96,12,97555,5,2,0:3:0:0:
156,123,97827,1,2,0:3:0:0:
272,70,98100,2,0,P|291:66|309:69,1,37.5,10|0,0:2|3:2,0:0:0:0:
361,122,98373,1,2,0:3:0:0:
245,175,98646,6,0,P|226:179|208:176,1,37.5,2|2,0:3|3:3,0:0:0:0:
156,123,98919,1,2,3:3:0:0:
245,24,99191,2,0,L|245:122,1,75,10|0,0:2|2:2,0:0:0:0:
256,192,99600,12,4,100827,0:1:0:0:
335,156,101373,6,0,P|344:191|335:227,1,75,10|0,0:2|2:2,0:0:0:0:
311,272,101782,2,0,L|236:272,1,75,2|2,0:3|0:3,0:0:0:0:
239,275,102191,6,2,L|239:167,1,75,2|10,0:3|0:2,0:1:0:0:
239,71,102737,2,0,L|183:71,1,37.5,2|2,0:3|0:2,0:0:0:0:
126,74,103009,1,2,0:3:0:0:
126,74,103146,2,0,P|116:38|125:2,1,75,2|0,3:3|3:3,0:0:0:0:
49,1,103555,2,0,P|44:57|62:110,1,112.5,10|2,0:2|3:3,0:0:0:0:
127,146,104100,1,0,0:2:0:0:
249,111,104373,6,0,L|308:92,1,37.5,2|0,3:2|3:2,0:0:0:0:
351,134,104646,2,0,P|360:169|351:205,1,75,10|0,0:2|3:2,0:0:0:0:
254,288,105191,5,2,0:2:0:0:
351,288,105464,1,2,3:2:0:0:
253,204,105737,2,0,P|246:150|276:103,1,112.5,10|2,0:2|0:3,0:0:0:0:
312,75,106282,6,0,P|294:79|276:76,1,37.5,2|0,0:3|0:3,0:0:0:0:
230,58,106555,1,2,0:3:0:0:
184,40,106691,1,2,3:3:0:0:
138,22,106827,1,10,0:2:0:0:
138,119,107100,2,0,P|131:155|107:183,1,75,2|0,0:3|2:2,0:0:0:0:
106,189,107509,6,0,L|106:243,1,44.999998626709,0|0,2:2|2:2,0:0:0:0:
106,261,107918,1,0,2:2:0:0:
159,229,117191,6,0,L|159:143,1,60,2|0,3:3|3:3,0:3:0:0:
198,169,117600,2,0,L|198:92,1,60,2|0,3:3|3:3,0:3:0:0:
237,109,118009,2,0,L|313:109,1,60,2|0,3:3|3:3,0:3:0:0:
297,69,118418,2,0,L|363:69,1,60,2|0,3:3|3:3,0:3:0:0:
401,73,118827,1,2,3:3:0:0:
401,73,119100,1,2,3:3:0:0:
401,151,119373,6,0,L|401:237,1,60,2|0,3:3|3:3,0:3:0:0:
362,211,119782,2,0,L|362:288,1,60,2|0,3:3|3:3,0:3:0:0:
323,271,120191,2,0,L|247:271,1,60,2|0,3:3|3:3,0:3:0:0:
263,311,120600,2,0,L|197:311,1,60,2|0,3:3|3:3,0:3:0:0:
167,314,121009,1,2,3:3:0:0:
167,314,121282,1,2,3:3:0:0:
167,226,121555,5,0,0:0:0:0:
228,164,121827,1,0,0:0:0:0:
228,164,121964,1,0,0:0:0:0:
290,226,122237,1,0,0:0:0:0:
290,226,122374,1,0,0:0:0:0:
351,164,122646,1,0,0:0:0:0:
351,164,122782,1,0,0:0:0:0:
288,101,123055,1,0,0:0:0:0:
288,101,123192,1,0,0:0:0:0:
349,39,123464,1,0,0:0:0:0:
411,101,123737,5,0,0:0:0:0:
349,162,124009,1,0,0:0:0:0:
349,162,124146,1,0,0:0:0:0:
287,100,124418,1,0,0:0:0:0:
287,100,124555,2,0,L|232:45,1,67.4999979400635,2|0,0:0|0:0,0:0:0:0:
188,102,124964,2,0,L|247:161,1,67.4999979400635,2|0,0:0|0:0,0:0:0:0:
268,181,125374,1,2,0:0:0:0:
207,242,125646,1,2,0:0:0:0:
336,206,130282,5,2,0:0:0:0:
336,211,130691,2,0,L|302:244,1,37.5,0|2,0:0|0:0,0:0:0:0:
256,290,130964,1,0,0:0:0:0:
176,210,131237,2,0,L|202:236,1,37.5,0|2,0:0|0:0,0:0:0:0:
256,137,131646,6,2,L|256:61,1,75,0|2,0:2|3:0,0:2:0:0:
256,13,132055,1,0,0:0:0:0:
332,137,132464,5,2,0:0:0:0:
256,232,132737,1,0,0:0:0:0:
256,232,132873,2,0,L|256:188,1,37.5,0|2,0:0|0:0,0:0:0:0:
256,137,133146,1,0,0:0:0:0:
143,137,133419,2,0,L|183:137,1,37.5,0|2,0:0|0:0,0:0:0:0:
148,244,133827,6,2,L|81:311,1,75,0|2,0:2|3:0,0:2:0:0:
60,331,134236,1,0,0:0:0:0:
225,244,134646,6,0,L|273:292,2,56.25,2|0|0,0:0|0:0|0:0,0:0:0:0:
172,191,135191,2,0,L|145:217,1,37.5,2|0,0:0|0:0,0:0:0:0:
225,138,135601,2,0,L|196:109,1,37.5,0|2,0:0|0:0,0:0:0:0:
279,191,136009,2,0,L|372:191,1,75,0|2,0:0|0:0,0:0:0:0:
402,191,136418,1,0,0:0:0:0:
279,267,136827,5,2,0:0:0:0:
184,191,137100,1,0,0:0:0:0:
184,191,137236,2,0,L|228:191,1,37.5,0|2,0:0|0:0,0:0:0:0:
279,191,137509,1,0,0:0:0:0:
279,78,137782,1,2,0:0:0:0:
279,78,137918,6,2,L|279:118,4,37.5,2|0|0|0|2,0:0|0:0|0:0|0:0|0:0,0:2:0:0:
279,29,138600,6,2,P|228:17|165:32,1,112.5,0|2,0:0|0:0,0:2:0:0:
225,164,139418,2,0,L|225:201,1,37.5,0|2,0:0|0:0,0:0:0:0:
225,276,139691,1,0,0:0:0:0:
313,202,139964,2,0,L|357:202,1,37.5,0|2,0:0|0:0,0:0:0:0:
456,235,140373,6,2,P|464:198|454:163,1,75,0|2,0:2|3:0,0:2:0:0:
428,121,140782,1,0,0:0:0:0:
428,309,141191,5,2,0:0:0:0:
350,235,141464,1,0,0:0:0:0:
350,235,141600,2,0,L|312:235,1,37.5,0|2,0:0|0:0,0:0:0:0:
263,235,141873,1,0,0:0:0:0:
178,309,142146,2,0,L|215:309,1,37.5,0|2,0:0|0:0,0:0:0:0:
107,344,142555,6,2,P|98:307|108:272,1,75,0|2,0:2|3:0,0:2:0:0:
132,230,142964,1,0,0:0:0:0:
132,32,143373,6,2,B|99:21|99:21|66:32,2,70.3125,2|0|0,0:0|0:0|0:0,0:1:0:0:
176,51,143918,2,0,L|176:91,1,37.5,2|0,0:0|0:0,0:0:0:0:
101,172,144327,2,0,L|101:134,1,37.5,0|2,0:0|0:0,0:0:0:0:
176,218,144737,2,0,L|176:293,1,75,0|2,0:0|0:0,0:0:0:0:
176,341,145146,1,0,0:0:0:0:
344,341,145555,5,2,0:0:0:0:
344,243,145828,1,0,0:0:0:0:
344,243,145964,2,0,L|344:205,1,37.5,0|2,0:0|0:0,0:0:0:0:
344,156,146237,1,0,0:0:0:0:
441,156,146510,1,0,0:0:0:0:
441,156,146646,6,2,L|484:156,3,37.5,0|0|0|0,0:0|0:0|0:0|0:0,0:2:0:0:
478,107,147191,1,2,0:0:0:0:
443,72,147327,1,2,0:0:0:0:
394,72,147464,1,2,0:0:0:0:
359,106,147600,1,2,0:0:0:0:
359,154,147737,6,0,P|304:167|250:154,1,112.5,4|0,0:1|0:2,0:0:0:0:
250,105,148282,1,12,0:2:0:0:
250,232,148555,1,2,3:2:0:0:
122,232,148827,5,0,0:3:0:0:
122,104,149100,1,2,0:2:0:0:
11,40,149373,1,12,0:2:0:0:
11,167,149646,1,2,3:2:0:0:
122,104,149918,6,0,P|159:95|195:104,1,75,0|2,0:2|0:2,0:0:0:0:
229,172,150327,1,2,0:2:0:0:
229,172,150464,2,0,P|193:180|157:171,1,75,12|2,0:2|0:2,0:0:0:0:
81,170,150873,1,2,0:2:0:0:
81,170,151009,5,2,0:3:0:0:
140,247,151282,1,2,0:3:0:0:
229,172,151555,2,0,P|305:148|379:172,1,160.499995101929,14|0,0:2|0:2,0:0:0:0:
440,222,152237,5,2,3:2:0:0:
440,222,152373,1,2,3:2:0:0:
317,259,152646,2,0,L|245:345,1,112.5,14|2,0:2|0:2,0:0:0:0:
170,345,153191,6,0,P|161:308|170:272,1,75,0|2,0:2|0:2,0:0:0:0:
203,133,153737,2,0,P|212:170|203:206,1,75,12|2,0:2|3:2,0:0:0:0:
173,276,154146,1,2,3:2:0:0:
173,276,154282,6,0,L|94:276,1,75,0|2,0:2|0:2,0:0:0:0:
26,276,154691,1,2,0:2:0:0:
26,276,154828,2,0,L|26:201,1,75,8|2,0:2|0:2,0:0:0:0:
30,129,155237,1,2,0:2:0:0:
30,129,155373,1,2,0:3:0:0:
157,129,155646,5,2,0:2:0:0:
157,129,155918,2,2,B|235:153|235:106|313:129,1,150,14|4,0:2|0:1,0:2:0:0:
426,166,156737,5,2,3:2:0:0:
426,293,157009,2,0,P|423:330|403:362,1,75,12|2,0:2|3:2,0:0:0:0:
304,248,157555,6,0,P|285:244|267:247,1,37.5,2|0,0:2|2:0,0:0:0:0:
322,279,157828,2,0,P|332:294|347:305,1,37.5,2|0,0:2|2:0,0:0:0:0:
341,241,158100,2,0,P|350:205|342:169,1,75,12|2,0:2|3:2,0:0:0:0:
314,127,158509,1,2,3:2:0:0:
291,84,158646,5,2,0:3:0:0:
180,152,158918,1,2,0:3:0:0:
243,259,159191,1,14,0:2:0:0:
243,259,159327,2,0,P|215:284|179:294,1,75,0|2,0:0|0:3,0:0:0:0:
130,294,159737,5,2,0:3:0:0:
107,252,159873,1,2,3:3:0:0:
82,209,160009,1,2,3:3:0:0:
192,143,160282,6,2,P|268:119|342:143,1,160.499995101929,12|0,0:2|3:2,0:2:0:0:
168,88,165191,6,0,L|168:29,2,37.5,4|0|0,0:1|3:2|3:2,0:0:0:0:
168,120,165600,2,0,L|236:120,1,37.5,2|12,0:3|0:2,0:0:0:0:
254,120,165873,1,2,0:3:0:0:
351,120,166146,6,0,L|351:177,1,37.5,2|0,0:3|0:2,0:0:0:0:
350,303,166555,2,0,P|341:266|349:230,1,75,2|12,0:3|0:2,0:0:0:0:
351,157,166964,1,2,0:3:0:0:
206,232,167373,6,0,L|136:232,2,37.5,2|0|0,0:3|3:2|0:2,0:0:0:0:
254,232,167782,2,0,L|254:176,1,37.5,2|12,0:3|0:2,0:0:0:0:
254,145,168055,1,2,0:3:0:0:
126,145,168327,1,2,0:3:0:0:
126,145,168464,6,2,P|117:108|126:72,1,75,2|0,0:2|0:2,0:2:0:0:
253,72,169009,2,2,P|262:109|253:145,1,75,14|0,0:2|3:2,0:2:0:0:
126,232,169555,6,0,B|99:240|99:240|73:232,2,56.25,2|2|2,0:3|0:3|0:3,0:0:0:0:
173,219,170100,2,0,L|173:172,1,37.5,12|0,0:2|0:2,0:0:0:0:
173,309,170509,2,0,L|173:346,1,37.5,2|0,0:3|0:2,0:0:0:0:
270,264,170918,6,2,P|307:255|343:264,1,75,2|12,0:2|0:2,0:2:0:0:
386,284,171327,1,2,0:3:0:0:
386,114,171737,6,0,L|386:44,2,37.5,2|0|0,0:3|3:2|0:2,0:0:0:0:
386,162,172146,2,0,L|442:162,1,37.5,2|12,0:3|0:2,0:0:0:0:
473,162,172419,1,2,0:3:0:0:
473,34,172691,1,2,0:3:0:0:
473,34,172827,6,2,P|470:52|474:70,3,37.5,2|2|2|2,0:2|3:2|0:2|3:2,0:2:0:0:
398,69,173373,2,2,P|400:51|396:33,3,37.5,14|2|2|2,0:2|0:2|3:2|3:2,0:2:0:0:
325,54,173918,6,0,L|240:54,1,75,4|0,0:1|3:2,0:0:0:0:
201,54,174327,2,0,L|202:96,1,37.5,2|12,0:3|0:2,0:0:0:0:
201,140,174600,1,2,0:3:0:0:
325,140,174873,6,0,L|325:203,1,37.5,2|0,0:3|0:2,0:0:0:0:
201,232,175282,2,0,P|237:240|273:231,1,75,2|12,0:3|0:2,0:0:0:0:
325,177,175691,1,2,0:3:0:0:
460,310,176100,6,0,L|506:356,2,37.5,2|0|0,0:3|3:2|0:2,0:0:0:0:
460,261,176509,2,0,L|460:217,1,37.5,2|12,0:3|0:2,0:0:0:0:
460,175,176782,1,2,0:3:0:0:
370,86,177054,1,2,0:3:0:0:
370,86,177191,6,2,P|333:94|297:86,1,75,2|0,0:2|0:2,0:2:0:0:
183,27,177737,2,2,P|146:18|110:27,1,75,14|0,0:2|3:2,0:2:0:0:
110,155,178282,6,0,B|83:163|83:163|57:155,2,56.25,2|2|2,0:3|0:3|0:3,0:0:0:0:
157,142,178827,2,0,L|157:208,1,37.5,12|0,0:2|0:2,0:0:0:0:
157,330,179237,2,0,L|157:292,1,37.5,2|0,0:3|0:2,0:0:0:0:
302,330,179646,6,2,P|338:338|374:329,1,75,2|12,0:2|0:2,0:2:0:0:
419,312,180054,1,2,0:3:0:0:
254,224,180464,6,0,L|196:224,2,37.5,2|0|0,0:3|3:0|0:2,0:0:0:0:
302,224,180873,2,0,L|302:159,1,37.5,2|12,0:3|0:2,0:0:0:0:
302,137,181145,1,2,0:3:0:0:
429,137,181418,1,2,0:3:0:0:
429,137,181555,6,2,P|426:155|430:173,3,37.5,2|2|2|2,0:2|3:2|0:2|2:2,0:2:0:0:
445,208,182100,6,0,P|447:226|443:244,15,37.5,2|2|2|2|2|2|2|2|2|2|2|2|2|2|2|2,2:2|2:2|2:2|2:2|2:2|2:2|2:2|2:2|2:2|2:2|2:2|2:2|2:2|2:2|2:2|2:2,0:2:0:0:
429,279,184282,6,2,B|382:279|382:279|355:251|355:251|310:251,1,131.25,2|0,3:1|2:1,0:1:0:0:
