osu file format v14

[General]
AudioFilename: DANGEROUS.mp3
AudioLeadIn: 0
PreviewTime: 147737
Countdown: 0
SampleSet: None
StackLeniency: 0.7
Mode: 0
LetterboxInBreaks: 0
WidescreenStoryboard: 0

[Editor]
Bookmarks: 21191,73555,86646,107373,130282,173918
DistanceSpacing: 1.4
BeatDivisor: 4
GridSize: 4
TimelineZoom: 2.5

[Metadata]
Title:DANGEROUS
TitleUnicode:DANGEROUS
Artist:LEFT BOY
ArtistUnicode:LEFT BOY
Creator:Bonsai
Version:FEB'S INSANE
Source:
Tags:Big Data Oliver Remix austrian Österreichisch Ferdinand Hip Hop Feb Priti chicks giraffe zebras tiger turtle
BeatmapID:990565
BeatmapSetID:452693

[Difficulty]
HPDrainRate:6
CircleSize:3
OverallDifficulty:8
ApproachRate:9
SliderMultiplier:1.1
SliderTickRate:1

[Events]
//Background and Video events
Video,1445,"DangerousSmallTree.avi"
0,0,"Giraffe1.png",0,0
//Break Periods
2,56300,64227
2,71573,72955
2,86845,90409
2,108464,116591
//Storyboard Layer 0 (Background)
//Storyboard Layer 1 (Fail)
//Storyboard Layer 2 (Pass)
//Storyboard Layer 3 (Foreground)
//Storyboard Sound Samples

[TimingPoints]
3737,545.454545454546,4,2,1,80,1,0
21191,-100,4,1,1,80,0,0
24737,-200,4,1,1,80,0,0
25282,-200,4,2,1,20,0,0
25418,-100,4,1,1,5,0,0
25555,-100,4,1,1,80,0,0
29100,-200,4,1,1,80,0,0
29646,-100,4,1,1,80,0,0
37827,-200,4,1,1,80,0,0
38373,-200,4,1,1,80,0,0
38646,-100,4,1,1,80,0,1
42464,-133.333333333333,4,1,1,80,0,1
42941,-133.333333333333,4,1,1,5,0,1
43009,-100,4,1,1,80,0,1
46282,-100,4,1,1,80,0,0
46827,-200,4,1,1,80,0,0
47373,-200,4,2,1,20,0,0
47646,-200,4,1,1,5,0,0
47918,-100,4,1,1,80,0,1
51191,-133.333333333333,4,1,1,80,0,1
51668,-133.333333333333,4,1,1,10,0,1
51737,-100,4,1,1,80,0,1
55009,-100,4,1,1,80,0,0
64827,-133.333333333333,4,1,1,40,0,0
73555,-200,4,1,1,60,0,0
75191,-100,4,1,1,80,0,0
77373,-114.942528735632,4,1,1,80,0,0
77850,-93.4579439252336,4,1,1,5,0,0
77918,-100,4,1,1,80,0,0
82146,-100,4,1,1,40,0,0
82282,-100,4,1,1,80,0,0
86646,-100,4,1,1,40,0,0
91009,-100,4,1,1,80,0,1
92646,-105.263157894737,4,1,1,80,0,0
93055,-100,4,1,1,40,0,0
93191,-100,4,1,1,80,0,1
94827,-133.333333333333,4,1,1,80,0,1
95305,-100,4,1,1,5,0,1
95373,-100,4,1,1,80,0,1
96600,-100,4,1,1,80,0,1
96737,-100,4,1,1,80,0,1
100691,-100,4,1,1,5,0,0
100827,-100,4,1,1,80,0,1
103555,-133.333333333333,4,1,1,80,0,1
104032,-100,4,1,1,5,0,1
104100,-100,4,1,1,80,0,1
107373,-200,4,1,1,80,0,0
117191,-125,4,3,1,80,0,0
121555,-125,4,3,1,80,0,0
125782,-125,4,3,1,60,0,0
130009,-100,4,3,1,40,0,0
130214,-100,4,3,1,60,0,0
130282,-100,4,3,1,80,0,0
134646,-71.4285714285714,4,3,1,80,0,0
135191,-100,4,3,1,80,0,0
138941,-100,4,3,1,5,0,0
139009,-100,4,3,1,80,0,0
143373,-66.6666666666667,4,3,1,80,0,0
143782,-100,4,3,1,80,0,0
147737,-100,4,1,1,80,0,1
151964,-100,4,1,1,40,0,1
152100,-100,4,1,1,80,0,1
152441,-100,4,1,1,5,0,1
152509,-100,4,1,1,80,0,1
155509,-100,4,1,1,40,0,1
155646,-100,4,1,1,80,0,1
160282,-80,4,1,1,80,0,1
160759,-80,4,1,1,5,0,1
160827,-100,4,1,1,80,0,0
165191,-85.4700854700855,4,1,1,80,0,1
169555,-68.0272108843537,4,1,1,80,0,1
170509,-85.4700854700855,4,1,1,80,0,1
178282,-68.0272108843537,4,1,1,80,0,1
179237,-85.4700854700855,4,1,1,80,0,1
181827,-100,4,1,1,80,0,1
182100,-100,4,3,1,50,0,1
184282,-66.6666666666667,4,1,1,50,0,0
184759,-100,4,1,1,40,0,0

[Colours]
Combo1 : 1,134,205
Combo2 : 15,135,12
Combo3 : 221,221,0
Combo4 : 155,89,0

[HitObjects]
256,192,16555,12,0,19009,0:0:0:0:
136,120,21191,6,0,P|184:132|236:96,1,110,2|10,0:3|1:2,0:0:0:0:
232,101,22282,2,0,L|236:168,1,55,2|0,1:3|3:0,0:0:0:0:
216,76,22691,1,2,1:3:0:0:
324,200,22827,2,0,P|360:188|380:168,1,55,10|0,0:2|3:2,0:0:0:0:
341,58,23237,1,2,1:3:0:0:
341,58,23373,6,0,L|375:61,1,27.5,2|0,0:3|0:2,0:0:0:0:
235,155,23646,2,0,L|187:162,1,27.5,2|0,0:2|2:0,0:0:0:0:
328,248,23918,2,0,L|368:252,1,27.5,8|0,0:2|2:0,0:0:0:0:
228,340,24191,2,0,L|196:352,1,27.5,2|0,0:2|2:0,0:0:0:0:
208,248,24464,1,2,0:3:0:0:
438,263,24737,6,0,P|437:229|420:200,1,68.75,2|0,2:2|2:0,0:0:0:0:
360,128,25555,6,0,P|404:148|460:104,1,110,2|10,0:3|0:2,0:0:0:0:
453,119,26646,2,0,L|525:127,1,55,2|0,0:3|3:3,0:3:0:0:
376,36,27055,1,2,0:3:0:0:
304,152,27191,2,0,P|280:146|256:120,1,55,10|0,0:2|3:2,0:0:0:0:
218,30,27600,1,2,1:3:0:0:
218,30,27737,6,0,L|220:-2,1,27.5,2|0,0:3|0:2,0:0:0:0:
92,152,28009,2,0,L|64:144,1,27.5,2|0,0:2|3:0,0:0:0:0:
188,216,28282,2,0,L|224:208,1,27.5,8|0,0:2|2:0,0:0:0:0:
135,72,28555,2,0,L|87:56,1,27.5,2|0,0:2|2:0,0:0:0:0:
293,142,28827,2,0,L|330:135,1,27.5,2|0,0:3|2:0,0:0:0:0:
256,326,29100,6,0,P|228:318|204:298,1,55,0|0,2:2|3:2,0:0:0:0:
148,289,29918,6,0,L|266:265,1,110,2|10,0:3|0:2,0:0:0:0:
255,267,31009,2,0,P|224:245|207:225,1,55,2|0,0:3|3:2,0:0:0:0:
281,159,31418,1,2,0:3:0:0:
116,243,31555,2,0,L|53:235,1,55,10|0,0:2|3:2,0:0:0:0:
168,152,31964,1,0,3:3:0:0:
168,152,32100,6,0,L|164:116,1,27.5,2|0,0:3|3:2,0:0:0:0:
344,212,32373,2,0,L|329:247,1,27.5,2|0,0:2|0:2,0:0:0:0:
280,131,32646,2,0,L|275:105,1,27.5,8|0,0:2|2:0,0:0:0:0:
407,55,32918,2,0,L|387:102,1,27.5,2|0,0:2|2:2,0:0:0:0:
211,214,33191,6,0,L|176:205,2,27.5,2|0|2,0:3|2:2|3:2,0:0:0:0:
324,204,33600,1,2,1:3:0:0:
192,324,33737,1,2,1:3:0:0:
174,341,34009,1,2,2:2:0:0:
56,346,34282,6,0,P|95:370|161:352,1,110,2|10,0:3|0:2,0:0:0:0:
45,291,35373,2,0,L|58:361,1,55,2|0,0:3|3:2,0:0:0:0:
157,203,35782,1,2,0:3:0:0:
303,265,35918,2,0,P|335:245|350:222,1,55,10|0,0:2|3:2,0:0:0:0:
320,139,36327,1,2,1:3:0:0:
320,139,36464,6,0,L|284:133,1,27.5,2|0,1:3|1:2,1:0:0:0:
437,268,36737,2,0,L|474:262,1,27.5,2|0,0:2|2:2,0:0:0:0:
265,341,37009,2,0,P|247:359|240:369,1,27.5,8|0,0:2|2:0,0:0:0:0:
317,197,37282,2,0,P|311:175|303:164,1,27.5,2|0,0:2|2:2,0:0:0:0:
226,106,37555,1,2,0:3:0:0:
437,268,37827,6,2,P|449:241|449:206,1,55,0|0,2:2|2:1,0:2:0:0:
456,308,38646,6,2,P|483:258|484:198,1,110,4|10,1:1|0:2,0:2:0:0:
485,205,39464,1,0,3:2:0:0:
335,323,39737,2,0,L|270:310,1,55,2|0,0:3|3:2,0:0:0:0:
98,309,40146,1,2,0:3:0:0:
169,258,40282,2,0,P|185:229|189:190,1,55,10|0,0:2|2:2,0:0:0:0:
119,55,40691,1,2,0:3:0:0:
119,55,40827,6,0,L|89:52,1,27.5,2|0,0:3|0:2,0:0:0:0:
220,116,41100,2,0,L|256:112,1,27.5,2|0,0:2|2:0,0:0:0:0:
29,193,41373,2,0,P|22:204|18:217,1,27.5,8|0,0:2|2:2,0:0:0:0:
169,262,41646,2,0,P|158:253|146:246,1,27.5,2|0,0:2|2:0,0:0:0:0:
52,352,41918,2,0,P|63:343|71:333,1,27.5,2|0,0:3|2:0,0:0:0:0:
120,160,42191,2,0,P|107:144|94:133,1,27.5,2|0,0:2|3:2,0:0:0:0:
203,255,42464,6,0,P|233:238|247:203,1,72.1875027537347,8|0,1:2|0:0,0:2:0:0:
246,204,43009,6,0,L|249:319,1,110,2|10,0:3|0:2,0:0:0:0:
248,313,43827,1,0,3:2:0:0:
339,178,44100,2,0,P|333:157|312:117,1,55,2|0,0:3|3:2,0:0:0:0:
247,77,44509,1,2,0:3:0:0:
433,134,44646,2,0,L|497:123,1,55,10|0,0:2|3:2,0:0:0:0:
487,124,45055,1,2,0:3:0:0:
447,263,45191,6,0,P|462:280|467:293,1,27.5,2|0,0:3|0:2,0:0:0:0:
321,213,45464,2,0,P|344:222|354:229,1,27.5,2|0,0:2|3:0,0:0:0:0:
194,220,45737,2,0,P|208:212|230:208,1,27.5,8|0,0:2|2:0,0:0:0:0:
129,317,46009,2,0,P|129:302|135:281,1,27.5,2|0,0:2|3:0,0:0:0:0:
31,118,46282,1,2,0:3:0:0:
57,135,46827,6,2,P|97:128|126:97,1,82.5,0|0,2:2|2:2,0:2:0:0:
125,98,47918,6,0,B|113:174|113:174|128:210,1,110,8|2,0:2|0:3,0:0:0:0:
125,204,48737,1,0,3:2:0:0:
57,135,48873,1,2,3:3:0:0:
214,161,49009,2,0,P|243:147|258:129,1,55,10|0,0:2|3:2,0:0:0:0:
212,38,49418,1,2,0:3:0:0:
212,38,49555,6,0,L|201:6,1,27.5,2|0,0:3|0:2,0:0:0:0:
282,199,49827,2,0,L|295:234,1,27.5,2|0,0:2|2:0,0:0:0:0:
354,149,50100,2,0,L|367:185,1,27.5,8|0,0:2|2:0,0:0:0:0:
424,95,50373,2,0,L|438:132,1,27.5,2|0,0:2|3:2,0:0:0:0:
202,114,50646,2,0,P|189:97|180:54,1,55,2|2,0:3|3:2,0:0:0:0:
179,65,51055,1,2,0:3:0:0:
248,244,51191,6,2,P|246:291|231:315,1,72.1875027537347,8|0,0:2|2:0,0:2:0:0:
233,311,51737,6,0,L|223:198,1,110,2|8,0:3|0:2,0:0:0:0:
88,223,52418,2,0,L|125:228,1,27.5,2|0,3:2|2:2,0:0:0:0:
207,184,52691,1,2,3:2:0:0:
33,118,52827,2,0,L|64:110,1,27.5,2|0,0:3|3:2,0:0:0:0:
134,45,53100,1,2,2:2:0:0:
190,171,53237,1,2,0:2:0:0:
278,73,53373,2,0,P|266:60|259:20,1,55,8|2,0:2|3:2,0:0:0:0:
405,109,53782,1,2,0:3:0:0:
356,219,53918,6,0,P|378:212|389:203,1,27.5,2|0,0:3|0:2,0:0:0:0:
224,225,54191,2,0,P|250:229|262:228,1,27.5,2|0,0:2|2:0,0:0:0:0:
143,133,54464,2,0,P|151:152|158:162,1,27.5,8|0,0:2|2:0,0:0:0:0:
186,30,54737,5,2,3:2:0:0:
153,118,54873,1,2,3:2:0:0:
56,131,55009,1,2,0:2:0:0:
178,13,55282,5,2,2:2:0:0:
140,102,55418,1,2,2:2:0:0:
35,117,55555,1,2,2:2:0:0:
162,0,55827,5,2,2:2:0:0:
130,247,56100,1,0,3:2:0:0:
91,337,64827,6,0,L|136:333,1,41.2500015735627,2|2,3:3|2:2,0:0:0:0:
252,298,65373,2,0,L|211:290,1,41.2500015735627,0|2,3:3|2:2,0:0:0:0:
81,255,65918,2,0,L|126:251,1,41.2500015735627,0|2,3:3|2:2,0:0:0:0:
242,216,66464,2,0,L|201:208,1,41.2500015735627,0|2,3:2|2:2,0:0:0:0:
91,337,67009,6,0,L|136:333,1,41.2500015735627,0|2,3:2|2:0,0:0:0:0:
252,298,67555,2,0,L|211:290,1,41.2500015735627,0|2,3:2|2:2,0:0:0:0:
81,255,68100,2,0,L|126:251,1,41.2500015735627,0|2,3:2|2:2,0:0:0:0:
242,216,68646,1,0,3:2:0:0:
176,367,68918,1,2,2:3:0:0:
176,367,69191,6,0,L|226:360,1,41.2500015735627,0|2,3:3|2:0,3:0:0:0:
356,292,69737,2,0,L|312:282,1,41.2500015735627,0|2,3:0|2:0,3:0:0:0:
160,197,70282,2,0,L|209:191,1,41.2500015735627,0|2,3:0|2:0,3:0:0:0:
358,111,70827,2,0,L|313:101,1,41.2500015735627,0|2,3:0|2:0,3:0:0:0:
148,56,71373,5,4,3:3:0:0:
179,344,73555,5,0,3:2:0:0:
184,366,73964,1,0,2:2:0:0:
152,256,74100,2,0,L|107:251,1,41.25,0|0,3:2|2:0,0:0:0:0:
269,229,74646,2,0,L|297:221,1,27.5,0|0,3:2|2:2,0:0:0:0:
348,150,75055,1,0,3:2:0:0:
196,256,75191,2,0,P|227:265|265:303,1,82.5,8|2,0:2|0:3,0:0:0:0:
262,299,75737,5,2,0:3:0:0:
176,369,75873,1,2,0:3:0:0:
359,338,76009,2,0,L|395:333,1,27.5,2|0,0:2|3:2,0:0:0:0:
456,248,76282,2,0,P|423:235|398:215,1,55,8|2,0:2|0:2,0:0:0:0:
284,55,76827,2,0,L|281:93,1,27.5,2|0,0:3|3:2,0:0:0:0:
369,29,77100,1,2,3:2:0:0:
333,160,77237,1,2,0:3:0:0:
206,163,77373,6,2,L|118:155,1,83.7375007027531,8|0,0:2|2:0,0:2:0:0:
109,168,77918,6,0,L|201:175,1,82.5,2|0,0:3|2:0,0:0:0:0:
140,279,78464,2,0,P|158:288|203:340,1,82.5,10|0,0:2|3:2,0:0:0:0:
44,309,79009,2,0,P|55:326|64:361,1,55,2|0,0:3|3:2,0:0:0:0:
0,232,79418,1,2,3:3:0:0:
155,262,79555,2,0,L|216:255,1,55,10|0,0:2|3:2,0:0:0:0:
265,341,79964,1,2,0:3:0:0:
295,202,80100,5,2,0:3:0:0:
228,145,80237,1,0,0:2:0:0:
329,222,80373,2,0,L|364:214,1,27.5,2|0,0:2|3:2,0:0:0:0:
430,137,80646,2,0,L|395:131,1,27.5,8|0,0:2|2:0,0:0:0:0:
330,256,80918,2,0,L|361:247,1,27.5,2|0,0:2|3:2,0:0:0:0:
433,105,81191,1,2,0:3:0:0:
317,281,82282,6,0,L|226:275,1,82.5,2|0,0:3|2:0,0:0:0:0:
400,244,82827,2,0,P|386:215|351:171,1,82.5,10|0,0:2|2:0,0:0:0:0:
223,152,83373,2,0,P|250:141|269:116,1,55,2|0,0:3|3:2,0:0:0:0:
295,31,83782,1,2,0:3:0:0:
190,161,83918,2,0,L|102:149,1,82.5,10|2,0:2|0:3,0:0:0:0:
37,41,84464,5,2,0:3:0:0:
81,163,84600,1,2,0:3:0:0:
184,56,84737,2,0,L|149:50,1,27.5,2|0,0:2|2:0,0:0:0:0:
217,164,85009,2,0,L|180:159,1,27.5,8|0,0:2|3:2,0:0:0:0:
314,100,85282,2,0,L|281:94,1,27.5,2|0,0:2|3:2,0:0:0:0:
356,210,85555,2,0,L|319:203,1,27.5,0|0,0:2|3:2,0:0:0:0:
376,304,85827,1,2,3:2:0:0:
458,242,85964,1,2,0:3:0:0:
276,308,86100,6,2,P|320:332|348:396,1,110,8|0,0:2|2:2,0:2:0:0:
221,85,91009,6,4,L|339:93,1,110,4|10,0:1|0:2,0:1:0:0:
330,92,91827,1,0,3:2:0:0:
206,187,92100,2,0,L|141:174,1,55,2|0,0:3|3:2,0:0:0:0:
62,210,92509,1,2,0:3:0:0:
229,275,92646,6,2,B|251:278|251:278|277:270|277:270|304:275,1,78.3749979071618,2|0,2:2|2:2,0:1:0:0:
421,236,93190,5,2,0:3:0:0:
375,350,93327,1,2,0:3:0:0:
485,335,93464,2,0,L|523:329,1,27.5,2|0,0:2|0:0,0:0:0:0:
353,375,93736,2,0,L|319:371,1,27.5,8|0,0:2|3:2,0:0:0:0:
154,362,94009,2,0,L|183:344,1,27.5,2|0,0:2|3:2,0:0:0:0:
233,239,94281,2,0,L|200:233,1,27.5,2|0,0:3|3:2,0:0:0:0:
42,225,94554,2,0,L|70:206,1,27.5,2|0,0:2|3:2,0:0:0:0:
153,123,94827,6,0,P|125:92|118:62,1,72.1875027537347,8|0,0:2|2:0,0:2:0:0:
119,64,95372,6,0,L|108:177,1,110,2|10,0:3|0:2,0:0:0:0:
108,173,96190,1,0,3:2:0:0:
230,93,96464,2,0,P|226:69|214:41,1,55,2|0,0:3|3:2,0:0:0:0:
214,41,96872,1,2,0:3:0:0:
374,143,97009,2,0,L|438:132,1,55,10|0,0:2|3:0,0:0:0:0:
481,56,97418,1,2,0:3:0:0:
481,56,97555,6,0,L|457:37,1,27.5,2|0,0:3|0:2,0:0:0:0:
443,227,97827,2,0,P|466:236|476:243,1,27.5,2|0,0:2|2:0,0:0:0:0:
353,345,98100,2,0,P|367:337|389:333,1,27.5,8|0,0:2|3:2,0:0:0:0:
262,239,98372,2,0,P|273:247|288:267,1,27.5,2|0,0:2|2:0,0:0:0:0:
152,317,98646,2,0,P|124:311|96:296,1,55,2|2,0:3|3:2,0:0:0:0:
136,176,99055,2,0,L|140:208,2,27.5,2|0|0,0:3|0:0|0:0,0:0:0:0:
256,192,99464,12,0,100691,2:2:0:0:
103,258,100827,6,0,P|126:265|170:311,1,82.5,4|0,0:1|1:3,0:0:0:0:
80,173,101373,2,0,P|95:165|134:156,1,55,10|0,0:2|2:2,0:0:0:0:
227,179,101782,1,2,0:3:0:0:
167,304,101918,5,2,0:3:0:0:
89,273,102055,1,2,0:3:0:0:
227,179,102191,2,0,L|264:169,1,27.5,2|0,0:2|2:2,0:0:0:0:
186,323,102464,2,0,P|175:314|166:303,1,27.5,8|0,0:2|2:0,0:0:0:0:
80,173,102737,2,0,P|64:177|48:184,1,27.5,2|0,0:2|3:2,0:0:0:0:
257,263,103009,2,0,L|291:278,2,27.5,2|0|2,0:3|3:2|2:0,0:0:0:0:
150,218,103418,1,2,3:3:0:0:
316,279,103555,6,0,P|336:235|330:208,1,72.1875027537347,8|0,0:2|2:0,0:0:0:0:
331,213,104100,6,0,L|419:225,1,82.5,2|0,0:3|3:3,0:3:0:0:
280,121,104646,2,0,P|317:101|360:91,1,82.5,10|0,0:2|2:0,0:0:0:0:
159,173,105191,2,0,P|157:148|167:113,1,55,2|0,0:3|3:2,0:0:0:0:
213,39,105600,1,2,0:3:0:0:
243,216,105737,2,0,P|263:218|296:233,1,55,10|0,0:2|2:2,0:0:0:0:
367,282,106146,1,2,0:3:0:0:
224,352,106282,5,2,0:3:0:0:
128,308,106418,1,2,0:3:0:0:
233,328,106555,2,0,P|241:314|246:294,1,27.5,2|0,0:2|0:2,0:0:0:0:
184,176,106827,2,0,P|172:195|172:211,1,27.5,8|0,0:2|2:2,0:0:0:0:
354,172,107100,2,0,P|347:149|339:138,1,27.5,2|0,0:2|2:0,0:0:0:0:
176,278,117191,5,0,3:2:0:0:
176,278,117464,2,0,L|204:273,1,22
196,256,117873,2,0,L|168:260,1,22
172,240,118282,2,0,L|200:236,1,22
189,216,118691,2,0,L|168:220,1,22
260,152,119100,5,0,3:2:0:0:
292,320,119373,1,0,3:2:0:0:
292,320,119646,2,0,L|316:320,1,22
312,304,120055,2,0,L|288:304,1,22
288,288,120464,2,0,L|312:288,1,22
308,272,120873,2,0,L|284:272,1,22
388,224,121282,5,0,3:2:0:0:
236,136,121555,1,0,0:0:0:0:
236,136,121827,5,0,0:0:0:0:
328,140,121964,1,0,0:0:0:0:
328,140,122237,5,0,0:0:0:0:
304,232,122373,1,0,0:0:0:0:
304,232,122646,5,0,0:0:0:0:
332,320,122782,1,0,0:0:0:0:
332,320,123055,5,0,0:0:0:0:
423,313,123191,1,0,0:0:0:0:
423,313,123464,5,0,0:0:0:0:
408,216,123737,2,0,L|424:176,1,44
312,116,124146,2,0,L|312:160,1,44
232,264,124555,6,0,L|216:216,1,44
124,136,124964,2,0,L|116:184,1,44
64,272,125373,2,0,P|84:272|112:288,1,44
221,343,125782,6,0,P|229:336|236:328,23,22,0|0|0|0|0|0|0|0|0|0|0|0|0|0|0|0|0|0|0|0|0|0|0|0,2:0|2:0|2:0|2:0|2:0|2:0|2:0|2:0|2:0|2:0|2:0|2:0|2:0|2:0|2:0|2:0|2:0|2:0|2:0|2:0|2:0|2:0|2:0|2:0,2:0:0:0:
314,353,130009,6,2,P|310:338|311:311,1,41.25,0|0,2:2|2:0,0:2:0:0:
365,250,130282,6,0,P|380:208|374:169,1,82.5
334,41,130827,1,2,0:0:0:0:
417,91,130964,2,0,P|441:86|453:78,1,27.5,0|0,0:0|2:0,0:0:0:0:
264,197,131237,6,0,L|199:186,1,55,0|0,0:0|2:0,0:0:0:0:
365,250,131646,2,2,L|419:246,1,55,2|2,0:2|3:0,0:2:0:0:
252,207,132055,2,0,L|191:198,1,55,0|0,0:0|2:0,0:0:0:0:
375,264,132464,6,0,L|404:262,1,27.5,0|0,0:0|2:0,0:0:0:0:
471,317,132737,1,0,0:0:0:0:
467,188,132873,2,0,P|478:191|498:202,1,27.5,0|2,0:0|0:0,0:0:0:0:
384,356,133146,2,0,P|371:363|357:363,1,27.5,0|0,0:0|2:0,0:0:0:0:
178,344,133418,6,0,P|192:321|194:289,1,55,0|0,0:0|2:0,0:0:0:0:
105,235,133827,2,2,P|99:204|104:176,1,55,2|2,0:2|3:0,0:2:0:0:
212,356,134237,2,0,P|226:333|228:301,1,55,0|0,0:0|2:0,0:0:0:0:
66,228,134646,6,0,P|59:206|62:185,1,38.4999988250733,0|0,0:0|2:0,0:0:0:0:
148,157,134850,2,0,B|153:126|153:126|148:82,1,57.7499982376099
241,229,135191,2,0,L|273:212,2,27.5,2|0|0,0:0|0:0|2:0,0:0:0:0:
133,339,135600,6,0,P|150:325|182:315,1,55,0|0,0:0|2:0,0:0:0:0:
353,366,136009,2,0,P|325:357|297:332,1,55,0|2,0:0|0:0,0:0:0:0:
370,218,136418,2,0,P|393:220|430:240,1,55,0|0,0:0|2:0,0:0:0:0:
241,212,136827,6,0,P|229:195|226:180,1,27.5
251,51,137100,1,0,0:0:0:0:
312,125,137237,2,0,L|345:120,1,27.5,0|2,0:0|0:0,0:0:0:0:
233,40,137509,1,0,0:0:0:0:
152,96,137646,2,0,L|121:86,1,27.5,0|2,0:0|0:0,0:0:0:0:
248,243,137918,5,2,0:2:0:0:
243,221,138055,1,2,0:2:0:0:
225,207,138191,5,2,0:2:0:0:
225,248,138327,1,2,0:2:0:0:
226,289,138464,1,2,0:2:0:0:
230,329,138600,1,2,0:2:0:0:
350,127,139009,6,0,P|385:154|427:153,1,82.5
299,42,139555,1,2,0:0:0:0:
227,94,139691,2,0,L|188:90,1,27.5,0|0,0:0|2:0,0:0:0:0:
119,172,139964,6,0,P|150:178|179:192,1,55,0|0,0:0|2:0,0:0:0:0:
37,103,140373,2,2,P|57:89|91:80,1,55,2|2,0:2|3:0,0:2:0:0:
20,221,140782,2,0,P|39:236|57:266,1,55,0|0,0:0|2:0,0:0:0:0:
168,316,141191,6,0,L|202:298,1,27.5,0|0,0:0|2:0,0:0:0:0:
296,207,141464,1,0,0:0:0:0:
273,290,141600,1,0,0:0:0:0:
201,186,141736,2,0,P|195:168|195:156,1,27.5,2|0,0:0|0:0,0:0:0:0:
260,75,142009,1,0,2:0:0:0:
112,44,142145,6,0,P|133:56|168:63,1,55,0|0,0:0|2:0,0:0:0:0:
16,136,142555,2,2,P|27:159|51:184,1,55,2|2,0:2|3:0,0:2:0:0:
184,236,142964,2,0,P|198:213|200:181,1,55,0|0,0:0|2:0,0:0:0:0:
82,306,143373,6,0,P|88:318|109:339,1,41.2500015735627,2|0,0:1|2:0,0:0:0:0:
196,338,143577,2,0,L|275:325,1,61.875002360344,0|2,0:1|0:1,0:0:0:0:
59,220,143918,2,0,L|24:210,2,27.5,2|0|0,0:0|0:0|2:0,0:0:0:0:
184,236,144327,6,0,L|247:225,1,55,0|0,0:0|2:0,0:0:0:0:
141,142,144736,2,0,L|202:132,1,55,0|2,0:0|0:0,0:0:0:0:
90,54,145145,2,0,L|148:45,1,55,0|0,0:0|2:0,0:0:0:0:
59,220,145554,6,0,P|47:203|44:188,1,27.5,0|0,0:0|2:0,0:0:0:0:
141,142,145827,1,0,0:0:0:0:
238,226,145964,2,0,L|271:221,1,27.5,0|2,0:0|0:0,0:0:0:0:
165,157,146236,1,0,0:0:0:0:
332,137,146373,2,0,L|301:127,1,27.5,0|0,2:0|0:0,0:0:0:0:
227,53,146645,5,2,0:2:0:0:
248,46,146782,1,2,0:2:0:0:
262,29,146918,1,2,0:2:0:0:
256,7,147054,1,2,0:2:0:0:
237,41,147191,5,2,0:2:0:0:
232,79,147327,1,2,0:2:0:0:
234,117,147464,1,2,0:2:0:0:
242,154,147600,1,2,0:2:0:0:
120,92,147737,6,0,P|97:107|77:135,1,55,4|0,0:1|2:0,0:0:0:0:
160,264,148146,1,2,0:3:0:0:
0,232,148282,2,0,P|27:222|59:229,1,55,14|0,0:2|3:2,0:0:0:0:
172,284,148691,1,0,0:2:0:0:
279,213,148827,2,0,P|266:217|253:226,1,27.5,2|0,0:3|2:0,0:0:0:0:
315,119,149100,2,0,P|301:111|286:110,1,27.5,2|0,0:3|2:0,0:0:0:0:
142,169,149373,2,0,P|158:151|174:113,1,55,14|0,0:2|3:2,0:0:0:0:
141,30,149782,1,0,2:0:0:0:
315,119,149918,6,0,L|379:110,1,55,2|0,0:3|0:2,0:0:0:0:
431,177,150327,1,2,0:3:0:0:
276,205,150464,2,0,P|298:217|326:248,1,55,14|0,0:2|3:2,0:0:0:0:
352,342,150873,1,2,3:2:0:0:
441,284,151010,2,0,L|467:276,1,27.5,2|0,0:3|2:2,0:0:0:0:
345,246,151282,2,0,L|310:235,1,27.5,2|0,0:3|2:0,0:0:0:0:
216,189,151555,2,2,P|253:174|285:139,1,82.5,14|0,0:2|2:2,0:2:0:0:
352,72,152100,6,0,P|372:74|384:78,1,27.5,2|0,0:3|2:0,0:0:0:0:
416,156,152305,2,0,P|452:144|460:132,1,41.25,2|0,0:3|0:0,0:0:0:0:
288,192,152646,2,0,L|262:187,2,27.5,12|0|0,0:2|2:2|2:0,0:0:0:0:
372,240,153055,6,0,P|381:265|377:293,1,55,2|0,0:3|2:0,0:0:0:0:
249,353,153464,2,0,P|238:336|235:299,1,55,2|12,0:3|0:2,0:0:0:0:
404,216,153873,2,0,P|416:255|415:275,1,55,2|0,0:2|2:2,0:0:0:0:
206,288,154282,6,0,L|180:282,1,27.5,2|0,0:3|2:0,0:0:0:0:
302,255,154555,1,2,0:3:0:0:
143,201,154691,2,0,P|132:195|121:183,1,27.5,2|12,0:2|0:2,0:0:0:0:
291,121,154964,2,0,P|307:107|321:102,1,27.5,2|0,0:2|3:2,0:0:0:0:
152,102,155237,2,0,L|87:93,1,55,2|0,0:3|2:2,0:0:0:0:
312,104,155646,6,0,L|343:98,1,27.5,2|0,0:3|2:0,0:0:0:0:
120,133,155918,2,0,L|85:128,1,27.5,14|0,0:2|2:0,0:0:0:0:
330,134,156191,2,0,L|357:128,1,27.5,0|0,2:0|2:0,0:0:0:0:
182,243,156464,6,0,P|171:270|177:306,1,55,4|0,0:1|3:2,0:0:0:0:
315,291,156873,2,0,P|322:284|326:259,1,27.5,2|12,0:2|0:2,0:0:0:0:
433,234,157146,2,0,P|429:216|421:202,1,27.5,2|0,0:2|2:2,0:0:0:0:
230,136,157418,2,0,P|246:150|284:163,1,55,2|0,0:3|2:0,0:0:0:0:
166,237,157827,2,0,P|176:236|192:226,1,27.5,2|0,0:3|2:0,0:0:0:0:
111,127,158100,1,14,0:2:0:0:
323,168,158237,2,0,L|379:161,1,55,2|0,0:3|3:0,0:0:0:0:
268,304,158646,6,0,P|264:320|264:342,1,27.5,2|0,0:3|2:0,0:0:0:0:
350,373,158918,1,2,0:2:0:0:
231,279,159055,2,0,P|222:299|222:315,1,27.5,2|12,1:3|0:2,0:0:0:0:
404,277,159327,2,0,P|399:256|393:245,1,27.5,2|0,0:2|2:0,0:0:0:0:
199,247,159600,2,0,P|187:270|180:303,1,55,2|0,0:3|3:0,0:0:0:0:
442,249,160009,2,0,P|434:232|423:217,1,27.5,2|0,1:3|2:2,0:0:0:0:
254,76,160282,5,14,0:2:0:0:
321,131,160418,2,2,L|416:124,1,85.9375,0|0,0:0|2:0,0:2:0:0:
438,107,160827,6,0,L|397:93,2,41.25,0|0|0,3:2|3:3|3:0,0:0:0:0:
372,220,161509,1,0,3:0:0:0:
240,256,161782,2,0,P|258:267|283:292,1,55,0|0,3:0|2:0,0:0:0:0:
134,181,162191,2,0,P|159:168|191:165,1,55,0|0,3:0|2:0,0:0:0:0:
105,327,162600,2,0,P|82:318|64:291,1,55,0|0,3:0|2:0,0:0:0:0:
255,285,163009,6,0,P|279:289|291:294,1,27.5,0|0,3:0|2:0,0:0:0:0:
362,343,163282,1,0,3:0:0:0:
470,283,163418,2,0,P|451:286|437:292,1,27.5,0|0,3:0|2:0,0:0:0:0:
360,190,163691,2,0,L|360:229,1,27.5,0|0,3:0|2:0,0:0:0:0:
362,343,163964,5,0,3:0:0:0:
202,109,165191,6,0,P|186:131|178:172,1,64.3500002454758,4|0,0:1|2:2,0:0:0:0:
348,99,165600,2,0,P|339:80|330:68,1,32.1750001227379,2|12,0:2|0:2,0:3:0:0:
374,226,165873,2,0,P|387:213|395:197,1,32.1750001227379,2|0,0:2|3:2,0:0:0:0:
225,248,166146,6,0,P|215:284|219:321,1,64.3500002454758,2|0,0:3|2:2,0:0:0:0:
177,166,166555,2,0,P|152:180|147:188,1,32.1750001227379,2|0,0:3|2:0,0:0:0:0:
101,259,166827,1,14,0:2:0:0:
275,138,166964,2,0,P|265:105|235:81,1,64.3500002454758,0|0,0:3|2:2,0:0:0:0:
144,68,167373,6,0,L|104:56,1,32.1750001227379,2|0,0:3|2:2,0:0:0:0:
316,24,167646,1,0,0:2:0:0:
376,96,167782,2,0,L|412:84,1,32.1750001227379,2|12,0:2|0:2,0:0:0:0:
164,104,168055,2,0,L|132:95,1,32.1750001227379,2|0,0:2|2:2,0:0:0:0:
272,232,168327,6,0,P|292:208|300:172,1,64.3500002454758,2|0,0:3|2:0,0:0:0:0:
192,304,168737,2,0,P|220:328|256:340,1,64.3500002454758,2|14,0:3|0:2,0:0:0:0:
116,252,169146,2,0,P|96:276|84:320,1,64.3500002454758,2|0,0:3|2:2,0:0:0:0:
188,192,169555,6,0,P|184:168|172:144,1,40.4249981186486,2|0,0:3|2:0,0:0:0:0:
136,84,169759,2,0,L|72:80,1,60.6374971779729,2|0,0:3|0:2,0:0:0:0:
288,80,170100,2,0,L|316:40,2,40.4249981186486,14|0|0,0:2|0:2|2:2,0:0:0:0:
304,184,170509,6,0,P|328:192|376:180,1,64.3500002454758,2|0,0:3|2:2,0:0:0:0:
396,292,170918,2,0,P|420:284|452:256,1,64.3500002454758,2|14,0:3|0:2,0:0:0:0:
296,204,171327,2,0,P|320:212|368:200,1,64.3500002454758,2|0,0:3|2:2,0:0:0:0:
392,328,171737,6,0,P|424:324|432:320,1,32.1750001227379,2|0,0:3|2:2,0:0:0:0:
240,272,172009,1,0,0:3:0:0:
176,328,172146,2,0,L|132:316,1,32.1750001227379,2|12,0:2|0:2,0:0:0:0:
60,244,172418,2,0,L|100:236,1,32.1750001227379,2|0,0:2|2:2,0:0:0:0:
232,148,172691,6,0,L|156:136,1,64.3500002454758,2|0,0:3|2:2,0:0:0:0:
304,208,173100,2,0,P|284:252|264:264,1,64.3500002454758,2|14,0:3|0:2,0:0:0:0:
328,116,173509,2,0,P|352:120|392:152,1,64.3500002454758,2|0,0:3|2:2,0:0:0:0:
232,148,173918,6,0,P|212:120|204:84,1,64.3500002454758,4|0,0:1|2:2,0:0:0:0:
284,36,174327,2,0,L|324:16,1,32.1750001227379,2|12,0:2|0:2,0:0:0:0:
112,128,174600,2,0,L|78:118,1,32.1750001227379,2|0,0:2|2:2,0:0:0:0:
160,208,174873,6,0,P|164:240|154:281,1,64.3500002454758,2|0,0:3|2:2,0:0:0:0:
232,148,175282,2,0,P|244:168|252:188,1,32.1750001227379,2|0,0:3|2:2,0:0:0:0:
256,272,175554,1,14,0:2:0:0:
336,156,175691,2,0,P|328:124|304:92,1,64.3500002454758,2|0,0:3|2:2,0:0:0:0:
224,64,176100,6,0,L|184:52,1,32.1750001227379,2|0,0:3|2:2,2:0:0:0:
360,20,176373,1,0,0:2:0:0:
416,96,176509,2,0,L|452:84,1,32.1750001227379,2|12,0:2|0:2,0:0:0:0:
248,192,176782,2,0,L|216:183,1,32.1750001227379,2|0,0:2|2:2,0:0:0:0:
328,256,177054,6,0,P|348:232|356:196,1,64.3500002454758,2|0,0:3|2:0,0:0:0:0:
224,348,177464,2,0,P|252:372|288:384,1,64.3500002454758,2|14,0:3|0:2,0:0:0:0:
112,308,177873,2,0,P|92:332|80:376,1,64.3500002454758,2|0,0:3|2:2,0:0:0:0:
196,224,178282,6,0,P|168:208|148:204,1,40.4249981186486,2|0,0:3|2:0,0:0:0:0:
80,212,178486,2,0,B|72:180|72:180|84:136,1,60.6374971779729,2|0,0:3|0:2,0:0:0:0:
168,72,178827,2,0,L|148:32,2,40.4249981186486,14|0|0,0:2|0:2|2:2,0:0:0:0:
268,144,179236,6,0,P|292:112|296:72,1,80.8499962372972,2|0,0:3|2:2,0:0:0:0:
308,240,179645,2,0,P|336:232|364:200,1,64.3500002454758,2|14,0:3|0:2,0:0:0:0:
208,288,180054,2,0,P|220:316|248:344,1,64.3500002454758,0|0,0:0|2:2,0:0:0:0:
348,348,180464,6,0,P|380:344|388:340,1,32.1750001227379,2|0,0:3|2:0,0:0:0:0:
188,264,180736,1,0,0:2:0:0:
112,316,180873,2,0,L|68:304,1,32.1750001227379,2|12,0:2|0:2,0:2:0:0:
20,216,181146,2,0,L|60:208,1,32.1750001227379,2|0,0:2|2:2,0:0:0:0:
168,116,181418,6,0,L|100:100,1,64.3500002454758,2|0,0:3|2:2,0:0:0:0:
284,192,181827,2,0,L|312:180,17,27.5,2|0|0|0|0|0|0|0|0|0|0|0|0|0|0|0|0|0,0:3|2:2|2:2|2:2|2:2|2:2|2:2|2:2|2:2|2:2|2:2|2:2|2:2|2:2|2:2|2:2|2:2|2:2,0:0:0:0:
190,206,184282,6,2,P|259:225|312:170,1,144.375005507469,2|0,3:1|2:2,0:1:0:0:
