osu file format v14

[General]
AudioFilename: audio.mp3
AudioLeadIn: 0
PreviewTime: -1
Countdown: 0
SampleSet: Normal
StackLeniency: 0.5
Mode: 0
LetterboxInBreaks: 0
WidescreenStoryboard: 0

[Editor]
Bookmarks: 125372
DistanceSpacing: 1
BeatDivisor: 4
GridSize: 32
TimelineZoom: 2.4

[Metadata]
Title:It's over, but NOT FOR ME
TitleUnicode:It's over, but NOT FOR ME
Artist:LEC
ArtistUnicode:LEC
Creator:LoIi ass 47
Version:CALL AN AMBULANCE
Source:
Tags:
BeatmapID:3052830
BeatmapSetID:1489203

[Difficulty]
HPDrainRate:6
CircleSize:5
OverallDifficulty:8.5
ApproachRate:9
SliderMultiplier:2.39999990463257
SliderTickRate:1

[Events]
//Background and Video events
0,0,"960155.jpg",0,0
//Break Periods
2,80759,88772
//Storyboard Layer 0 (Background)
//Storyboard Layer 1 (Fail)
//Storyboard Layer 2 (Pass)
//Storyboard Layer 3 (Foreground)
//Storyboard Layer 4 (Overlay)
//Storyboard Sound Samples

[TimingPoints]
2372,375,4,1,0,30,1,0
2372,-166.666666666667,4,1,0,30,0,0
116372,375,4,1,0,30,1,0
116372,-125,4,1,0,30,0,0
131372,-166.666666666667,4,1,0,30,0,0
179336,375,4,1,0,30,1,0
179336,-166.666666666667,4,1,0,30,0,0

[Colours]
Combo1 : 0,0,0
Combo2 : 255,255,255
Combo3 : 0,0,0
Combo4 : 255,255,255
Combo5 : 0,0,0

[HitObjects]
196,96,2372,5,0,0:0:0:0:
177,121,2559,1,0,0:0:0:0:
236,193,2747,5,0,0:0:0:0:
287,278,2934,2,0,P|335:272|347:245,1,71.9999949417116
376,134,3309,2,0,P|317:97|299:96,1,71.9999949417116
220,56,3872,2,0,B|188:90|149:90|125:81,1,71.9999949417116
49,203,4434,2,0,P|60:242|88:273,1,71.9999949417116
292,327,4809,2,0,P|338:301|347:272,1,71.9999949417116
232,222,5184,1,0,0:0:0:0:
317,146,5372,6,0,P|283:121|236:118,1,71.9999949417116
135,169,5747,5,0,0:0:0:0:
135,169,5934,1,0,0:0:0:0:
107,61,6309,2,0,P|149:49|183:71,1,71.9999949417116
308,45,6684,1,0,0:0:0:0:
308,45,6872,1,0,0:0:0:0:
440,163,7434,5,0,0:0:0:0:
440,163,7622,1,0,0:0:0:0:
440,163,7809,2,0,P|387:153|354:164,2,71.9999949417116
135,49,8372,5,0,0:0:0:0:
87,224,8559,1,0,0:0:0:0:
135,49,8747,1,0,0:0:0:0:
245,223,8934,2,0,P|289:240|320:210,1,71.9999949417116
449,79,9309,6,0,P|458:115|432:157,1,71.9999949417116
385,327,9872,2,0,B|343:356|301:351|301:350,1,71.9999949417116
222,78,10434,5,0,0:0:0:0:
254,254,10622,1,0,0:0:0:0:
147,89,10809,1,0,0:0:0:0:
183,270,10997,5,0,0:0:0:0:
443,114,11184,1,0,0:0:0:0:
74,275,11372,6,0,P|64:226|82:197,1,71.9999949417116
314,261,11934,2,0,L|313:189,1,71.9999949417116
314,261,12497,2,0,L|405:256,1,71.9999949417116
393,62,12872,5,0,0:0:0:0:
265,74,13247,2,0,P|217:108|214:137,1,71.9999949417116
207,263,13622,1,0,0:0:0:0:
79,319,13997,6,0,P|54:282|68:247,1,71.9999949417116
105,147,14372,5,0,0:0:0:0:
105,147,14559,1,0,0:0:0:0:
179,100,14747,5,0,0:0:0:0:
179,100,14934,1,0,0:0:0:0:
278,236,15309,6,0,P|312:202|318:167,1,71.9999949417116
395,48,15872,2,0,P|420:94|410:131,1,71.9999949417116
413,308,16434,2,0,B|364:314|339:310,1,71.9999949417116
85,304,16809,2,0,P|64:249|63:219,1,71.9999949417116
184,208,17184,1,0,0:0:0:0:
199,96,17372,5,0,0:0:0:0:
261,60,17559,1,0,0:0:0:0:
318,100,17747,1,0,0:0:0:0:
431,200,17934,6,0,P|427:245|392:271,1,71.9999949417116
263,301,18309,1,0,0:0:0:0:
156,259,18684,6,0,B|161:206,2,35.9999974708558
182,132,19434,5,0,0:0:0:0:
261,97,19622,6,0,B|264:61,2,35.9999974708558
343,63,19997,2,0,L|342:106,2,35.9999974708558
435,114,20372,5,0,0:0:0:0:
452,135,20465,1,0,0:0:0:0:
466,160,20559,1,0,0:0:0:0:
463,185,20653,1,0,0:0:0:0:
444,205,20747,1,0,0:0:0:0:
435,231,20840,1,0,0:0:0:0:
418,259,20934,1,0,0:0:0:0:
328,323,21309,6,0,P|283:329|238:320,1,71.9999949417116
70,224,21872,2,0,B|57:172|79:126,1,71.9999949417116
213,238,22434,5,0,0:0:0:0:
343,180,22622,2,0,P|314:152|279:147,1,71.9999949417116
138,108,22997,2,0,L|141:62,2,35.9999974708558
446,117,23372,2,0,P|423:69|380:42,1,71.9999949417116
266,41,23934,2,0,P|212:44|169:62,1,71.9999949417116
78,147,24497,2,0,P|57:185|58:216,1,71.9999949417116
208,173,24872,2,0,P|198:224|181:247,1,71.9999949417116
342,341,25247,2,0,B|382:331|416:298,1,71.9999949417116
406,29,25622,2,0,B|446:39|464:89,1,71.9999949417116
436,202,25997,2,0,L|368:154,1,71.9999949417116
155,213,26372,5,0,0:0:0:0:
311,106,26560,1,0,0:0:0:0:
143,101,26747,1,0,0:0:0:0:
282,268,26935,1,0,0:0:0:0:
282,268,27122,6,0,L|329:298,2,35.9999974708558
205,23,27497,1,0,0:0:0:0:
443,157,27872,5,0,0:0:0:0:
433,29,28059,1,0,0:0:0:0:
117,251,28434,1,0,0:0:0:0:
261,141,28809,5,0,0:0:0:0:
329,286,29184,5,0,0:0:0:0:
329,286,29372,2,0,P|357:263|352:252,2,35.9999974708558
311,82,29747,1,0,0:0:0:0:
174,114,29934,1,0,0:0:0:0:
215,291,30309,2,0,P|168:303|136:289,1,71.9999949417116
82,195,30684,6,0,L|81:159,2,35.9999974708558
224,224,31434,5,0,0:0:0:0:
224,64,31622,1,0,0:0:0:0:
416,64,31809,1,0,0:0:0:0:
432,91,31997,1,0,0:0:0:0:
348,177,32184,6,0,L|298:233,1,71.9999949417116
300,230,32559,1,0,0:0:0:0:
170,166,32747,5,0,0:0:0:0:
170,166,32934,1,0,0:0:0:0:
109,273,33309,5,0,0:0:0:0:
94,243,33497,1,0,0:0:0:0:
102,210,33684,1,0,0:0:0:0:
86,181,33872,1,0,0:0:0:0:
76,101,34059,6,0,P|111:84|148:83,1,71.9999949417116
207,131,34434,5,0,0:0:0:0:
257,153,34622,1,0,0:0:0:0:
302,124,34809,1,0,0:0:0:0:
350,148,34997,1,0,0:0:0:0:
414,200,35184,2,0,P|440:231|437:261,1,71.9999949417116
327,283,35559,5,0,0:0:0:0:
266,249,35747,1,0,0:0:0:0:
204,284,35934,1,0,0:0:0:0:
140,252,36122,1,0,0:0:0:0:
67,205,36309,2,0,P|45:167|53:136,1,71.9999949417116
109,51,36684,5,0,0:0:0:0:
188,162,36872,6,0,P|213:110|247:108,1,71.9999949417116
215,279,37247,2,0,P|264:301|288:293,1,71.9999949417116
359,204,37622,2,0,B|407:205|430:170|425:143,1,71.9999949417116
151,21,37997,2,0,B|203:30|180:69|231:101,1,107.999992412567
410,57,38372,5,0,0:0:0:0:
410,57,38465,1,0,0:0:0:0:
410,57,38559,1,0,0:0:0:0:
297,78,38934,6,0,P|322:109|314:151,1,71.9999949417116
334,287,39309,5,0,0:0:0:0:
334,287,39497,2,0,P|294:314|242:321,1,71.9999949417116
128,226,39872,5,0,0:0:0:0:
128,226,40059,1,0,0:0:0:0:
249,46,40434,6,0,P|291:64|304:93,1,71.9999949417116
236,174,40809,5,0,0:0:0:0:
236,174,40997,2,0,P|272:210|288:215,2,35.9999974708558
59,69,41372,5,0,0:0:0:0:
59,69,41559,1,0,0:0:0:0:
389,166,41934,5,0,0:0:0:0:
267,41,42309,2,0,P|222:40|187:44,1,71.9999949417116
197,42,42684,1,0,0:0:0:0:
106,91,42872,5,0,0:0:0:0:
122,121,42965,1,0,0:0:0:0:
144,149,43059,1,0,0:0:0:0:
171,171,43153,1,0,0:0:0:0:
202,185,43247,1,0,0:0:0:0:
237,193,43340,1,0,0:0:0:0:
263,180,43434,1,0,0:0:0:0:
297,159,43528,1,0,0:0:0:0:
334,144,43622,1,0,0:0:0:0:
387,144,43715,1,0,0:0:0:0:
426,168,43809,1,0,0:0:0:0:
447,220,43903,1,0,0:0:0:0:
440,274,43997,1,0,0:0:0:0:
419,315,44090,1,0,0:0:0:0:
383,353,44185,1,0,0:0:0:0:
304,312,44372,6,0,P|275:278|281:239,1,71.9999949417116
352,215,44747,1,0,0:0:0:0:
352,215,44934,5,0,0:0:0:0:
387,72,45309,5,0,0:0:0:0:
387,72,45497,1,0,0:0:0:0:
478,192,45684,1,0,0:0:0:0:
406,298,45872,6,0,B|368:319|330:301,1,71.9999949417116
263,251,46247,5,0,0:0:0:0:
263,251,46434,1,0,0:0:0:0:
176,282,46809,6,0,P|154:248|172:224,1,71.9999949417116
94,212,47184,5,0,0:0:0:0:
109,146,47372,5,0,0:0:0:0:
135,123,47465,1,0,0:0:0:0:
166,106,47559,1,0,0:0:0:0:
200,99,47653,1,0,0:0:0:0:
235,103,47747,1,0,0:0:0:0:
266,118,47840,1,0,0:0:0:0:
290,143,47934,1,0,0:0:0:0:
315,158,48028,1,0,0:0:0:0:
350,159,48122,1,0,0:0:0:0:
384,159,48215,1,0,0:0:0:0:
415,136,48309,1,0,0:0:0:0:
434,99,48403,1,0,0:0:0:0:
427,73,48497,1,0,0:0:0:0:
416,56,48590,1,0,0:0:0:0:
398,43,48684,1,0,0:0:0:0:
379,34,48779,1,0,0:0:0:0:
364,27,48872,1,0,0:0:0:0:
324,27,48966,5,0,0:0:0:0:
287,36,49059,1,0,0:0:0:0:
257,48,49153,1,0,0:0:0:0:
230,72,49247,1,0,0:0:0:0:
209,101,49340,5,0,0:0:0:0:
185,125,49434,1,0,0:0:0:0:
167,155,49528,1,0,0:0:0:0:
163,188,49622,1,0,0:0:0:0:
159,222,49715,1,0,0:0:0:0:
142,252,49809,1,0,0:0:0:0:
117,276,49903,1,0,0:0:0:0:
87,294,49997,1,0,0:0:0:0:
55,306,50090,1,0,0:0:0:0:
21,312,50184,1,0,0:0:0:0:
20,281,50278,1,0,0:0:0:0:
21,246,50372,1,0,0:0:0:0:
65,87,50559,5,0,0:0:0:0:
217,35,50934,2,0,P|274:37|308:61,1,71.9999949417116
374,261,51309,5,0,0:0:0:0:
342,238,51403,1,0,0:0:0:0:
304,230,51497,1,0,0:0:0:0:
135,257,51872,2,0,P|108:219|109:189,1,71.9999949417116
370,89,52435,1,0,0:0:0:0:
348,72,52809,1,0,0:0:0:0:
241,66,52997,2,0,P|190:76|186:79,2,35.9999974708558
287,190,53372,6,0,P|302:224|281:258,1,71.9999949417116
182,324,53935,5,0,0:0:0:0:
138,227,54309,2,0,P|125:196|140:171,2,35.9999974708558
43,178,54872,5,0,0:0:0:0:
61,148,54965,1,0,0:0:0:0:
87,124,55059,1,0,0:0:0:0:
117,108,55153,1,0,0:0:0:0:
151,107,55247,1,0,0:0:0:0:
175,132,55340,1,0,0:0:0:0:
196,161,55434,1,0,0:0:0:0:
221,184,55528,1,0,0:0:0:0:
302,217,55622,5,0,0:0:0:0:
333,203,55715,1,0,0:0:0:0:
341,170,55809,1,0,0:0:0:0:
355,49,55904,5,0,0:0:0:0:
324,31,55997,1,0,0:0:0:0:
309,71,56185,1,0,0:0:0:0:
454,106,56372,1,0,0:0:0:0:
446,255,56934,2,0,P|417:287|388:288,1,71.9999949417116
71,55,57309,1,0,0:0:0:0:
61,217,57497,1,0,0:0:0:0:
189,323,57872,2,0,P|236:342|270:336,1,71.9999949417116
363,193,58247,2,0,B|395:214|392:263,1,71.9999949417116
256,77,58809,5,0,0:0:0:0:
256,77,58997,1,0,0:0:0:0:
184,77,59184,2,0,P|166:76|144:98,1,35.9999974708558
106,147,59372,5,0,0:0:0:0:
124,176,59465,1,0,0:0:0:0:
150,200,59559,1,0,0:0:0:0:
180,218,59653,1,0,0:0:0:0:
213,230,59747,1,0,0:0:0:0:
247,236,59840,1,0,0:0:0:0:
282,235,59934,1,0,0:0:0:0:
315,224,60028,1,0,0:0:0:0:
339,193,60122,1,0,0:0:0:0:
338,169,60215,1,0,0:0:0:0:
327,149,60309,1,0,0:0:0:0:
310,134,60403,1,0,0:0:0:0:
290,127,60497,1,0,0:0:0:0:
254,132,60590,1,0,0:0:0:0:
197,297,60685,6,0,P|245:306|282:298,1,71.9999949417116
372,265,60966,1,0,0:0:0:0:
400,151,61060,5,0,0:0:0:0:
381,121,61153,1,0,0:0:0:0:
353,98,61247,1,0,0:0:0:0:
324,77,61341,1,0,0:0:0:0:
289,73,61435,1,0,0:0:0:0:
254,77,61528,1,0,0:0:0:0:
221,88,61622,1,0,0:0:0:0:
198,114,61716,1,0,0:0:0:0:
178,143,61810,1,0,0:0:0:0:
171,185,61903,1,0,0:0:0:0:
150,213,61997,1,0,0:0:0:0:
120,220,62091,1,0,0:0:0:0:
90,200,62185,1,0,0:0:0:0:
68,169,62278,1,0,0:0:0:0:
103,104,62372,5,0,0:0:0:0:
230,234,62559,1,0,0:0:0:0:
230,234,62747,1,0,0:0:0:0:
230,234,62840,1,0,0:0:0:0:
291,136,63029,5,0,0:0:0:0:
290,170,63122,1,0,0:0:0:0:
317,180,63216,1,0,0:0:0:0:
327,204,63310,1,0,0:0:0:0:
347,233,63404,1,0,0:0:0:0:
342,267,63497,1,0,0:0:0:0:
318,292,63590,1,0,0:0:0:0:
286,309,63684,1,0,0:0:0:0:
250,312,63778,1,0,0:0:0:0:
142,62,63872,6,0,L|164:95,2,35.9999974708558
105,189,64154,2,0,L|149:190,2,35.9999974708558
208,200,64435,5,0,0:0:0:0:
208,200,64529,1,0,0:0:0:0:
216,228,64622,1,0,0:0:0:0:
223,256,64716,1,0,0:0:0:0:
223,256,64809,1,0,0:0:0:0:
256,265,64903,1,0,0:0:0:0:
291,264,64997,1,0,0:0:0:0:
319,244,65090,1,0,0:0:0:0:
332,205,65184,1,0,0:0:0:0:
320,171,65279,1,0,0:0:0:0:
140,28,65372,5,0,0:0:0:0:
241,145,65466,1,0,0:0:0:0:
62,116,65654,1,0,0:0:0:0:
62,116,65747,1,0,0:0:0:0:
149,269,65935,5,0,0:0:0:0:
149,269,66122,1,0,0:0:0:0:
149,269,66216,1,0,0:0:0:0:
418,202,66404,6,0,L|443:234,5,35.9999974708558
418,50,66966,5,0,0:0:0:0:
415,84,67059,1,0,0:0:0:0:
408,106,67153,1,0,0:0:0:0:
383,81,67247,1,0,0:0:0:0:
358,56,67341,1,0,0:0:0:0:
352,77,67434,1,0,0:0:0:0:
350,112,67528,1,0,0:0:0:0:
330,128,67622,1,0,0:0:0:0:
305,103,67716,1,0,0:0:0:0:
283,76,67809,1,0,0:0:0:0:
261,52,67903,1,0,0:0:0:0:
259,87,67997,1,0,0:0:0:0:
257,122,68091,1,0,0:0:0:0:
240,114,68184,1,0,0:0:0:0:
219,87,68278,1,0,0:0:0:0:
81,180,68372,6,0,L|116:251,1,71.9999949417116
243,245,68748,1,0,0:0:0:0:
239,239,68841,1,0,0:0:0:0:
193,303,69028,5,0,0:0:0:0:
210,324,69121,1,0,0:0:0:0:
237,330,69215,1,0,0:0:0:0:
262,320,69309,1,0,0:0:0:0:
288,332,69403,1,0,0:0:0:0:
314,333,69496,1,0,0:0:0:0:
341,324,69590,1,0,0:0:0:0:
371,271,69685,2,0,L|407:247,1,35.9999974708558
123,114,69872,5,0,0:0:0:0:
123,114,69965,1,0,0:0:0:0:
220,193,70153,1,0,0:0:0:0:
220,193,70247,1,0,0:0:0:0:
47,102,70435,6,0,P|81:49|131:40,1,107.999992412567
216,82,70809,1,0,0:0:0:0:
229,96,70904,5,0,0:0:0:0:
229,96,70997,1,0,0:0:0:0:
229,96,71091,1,0,0:0:0:0:
229,96,71185,1,0,0:0:0:0:
229,95,71278,1,0,0:0:0:0:
390,33,71372,6,0,L|403:81,5,35.9999974708558
472,207,71935,5,0,0:0:0:0:
404,314,72122,6,0,P|381:332|360:336,1,35.9999974708558
272,301,72310,5,0,0:0:0:0:
245,322,72403,1,0,0:0:0:0:
210,327,72497,1,0,0:0:0:0:
178,314,72591,1,0,0:0:0:0:
157,287,72685,1,0,0:0:0:0:
154,252,72778,1,0,0:0:0:0:
193,195,72872,5,0,0:0:0:0:
188,217,72965,1,0,0:0:0:0:
181,233,73059,1,0,0:0:0:0:
157,236,73153,1,0,0:0:0:0:
193,195,73247,5,0,0:0:0:0:
177,163,73340,1,0,0:0:0:0:
178,128,73434,1,0,0:0:0:0:
205,104,73528,1,0,0:0:0:0:
241,113,73622,1,0,0:0:0:0:
268,136,73715,1,0,0:0:0:0:
305,151,73809,1,0,0:0:0:0:
330,124,73903,1,0,0:0:0:0:
331,85,73997,1,0,0:0:0:0:
327,51,74090,1,0,0:0:0:0:
354,28,74184,1,0,0:0:0:0:
401,28,74278,1,0,0:0:0:0:
439,92,74372,5,0,0:0:0:0:
439,92,74560,2,0,P|473:131|468:158,1,71.9999949417116
408,213,74840,1,0,0:0:0:0:
408,213,74934,1,0,0:0:0:0:
435,309,75028,2,0,L|392:337,4,35.9999974708558
304,242,75497,1,0,0:0:0:0:
268,213,75590,1,0,0:0:0:0:
227,201,75684,1,0,0:0:0:0:
182,196,75778,1,0,0:0:0:0:
54,70,75872,5,0,0:0:0:0:
61,82,75965,1,0,0:0:0:0:
94,146,76153,1,0,0:0:0:0:
101,159,76247,5,0,0:0:0:0:
156,99,76434,1,0,0:0:0:0:
356,56,76622,5,0,0:0:0:0:
396,77,76716,1,0,0:0:0:0:
299,92,76904,5,0,0:0:0:0:
392,147,76997,1,0,0:0:0:0:
275,140,77091,1,0,0:0:0:0:
369,195,77185,1,0,0:0:0:0:
308,274,77279,5,0,0:0:0:0:
308,274,77372,2,0,B|337:296|379:290,2,71.9999949417116
186,298,77935,5,0,0:0:0:0:
186,298,78122,1,0,0:0:0:0:
186,298,78215,1,0,0:0:0:0:
186,298,78310,1,0,0:0:0:0:
186,298,78403,1,0,0:0:0:0:
186,298,78497,1,0,0:0:0:0:
186,298,78590,1,0,0:0:0:0:
186,298,78685,1,0,0:0:0:0:
186,298,78778,1,0,0:0:0:0:
89,175,78872,6,0,B|52:136|132:134|76:93,1,71.9999949417116
217,190,79247,2,0,B|206:159|206:159|225:141|225:141|211:109,1,71.9999949417116
351,230,79622,2,0,P|359:194|345:170,1,35.9999974708558
425,45,79904,2,0,P|357:45|357:45,1,35.9999974708558
247,71,80185,5,0,0:0:0:0:
143,215,80372,2,0,B|155:276|205:265|205:265,1,71.9999949417116
256,192,89372,12,0,91997,0:0:0:0:
120,156,92372,5,0,0:0:0:0:
150,136,92465,1,0,0:0:0:0:
183,121,92559,1,0,0:0:0:0:
217,110,92653,1,0,0:0:0:0:
252,104,92747,1,0,0:0:0:0:
288,103,92840,1,0,0:0:0:0:
324,106,92934,1,0,0:0:0:0:
359,114,93028,1,0,0:0:0:0:
447,200,93122,5,0,0:0:0:0:
405,214,93215,1,0,0:0:0:0:
364,227,93309,1,0,0:0:0:0:
321,239,93403,1,0,0:0:0:0:
280,247,93497,1,0,0:0:0:0:
237,251,93590,1,0,0:0:0:0:
195,254,93684,1,0,0:0:0:0:
151,252,93778,1,0,0:0:0:0:
129,228,93872,6,0,L|105:197,3,35.9999974708558
110,164,94247,2,0,L|135:133,3,35.9999974708558
181,96,94622,5,0,0:0:0:0:
215,104,94715,1,0,0:0:0:0:
240,129,94809,1,0,0:0:0:0:
254,162,94903,1,0,0:0:0:0:
271,194,94997,1,0,0:0:0:0:
299,216,95090,1,0,0:0:0:0:
333,229,95184,1,0,0:0:0:0:
368,234,95278,1,0,0:0:0:0:
386,170,95372,5,0,0:0:0:0:
355,163,95465,1,0,0:0:0:0:
334,140,95559,1,0,0:0:0:0:
320,113,95653,1,0,0:0:0:0:
338,82,95747,1,0,0:0:0:0:
367,61,95840,1,0,0:0:0:0:
401,51,95934,1,0,0:0:0:0:
434,64,96028,1,0,0:0:0:0:
465,146,96122,6,0,L|453:186,3,35.9999974708558
82,279,96497,2,0,L|114:303,3,35.9999974708558
235,328,96872,5,0,0:0:0:0:
258,326,96965,1,0,0:0:0:0:
279,318,97059,1,0,0:0:0:0:
293,301,97153,1,0,0:0:0:0:
281,282,97247,1,0,0:0:0:0:
272,262,97340,1,0,0:0:0:0:
291,249,97434,1,0,0:0:0:0:
311,240,97528,1,0,0:0:0:0:
348,102,97622,5,0,0:0:0:0:
318,82,97715,1,0,0:0:0:0:
284,69,97809,1,0,0:0:0:0:
249,61,97903,1,0,0:0:0:0:
213,61,97997,1,0,0:0:0:0:
178,67,98090,1,0,0:0:0:0:
145,81,98184,1,0,0:0:0:0:
117,104,98278,1,0,0:0:0:0:
103,138,98372,5,0,0:0:0:0:
132,171,98465,1,0,0:0:0:0:
177,186,98559,1,0,0:0:0:0:
224,187,98653,1,0,0:0:0:0:
253,207,98747,1,0,0:0:0:0:
266,240,98840,1,0,0:0:0:0:
253,273,98934,1,0,0:0:0:0:
229,300,99028,1,0,0:0:0:0:
91,304,99122,6,0,P|72:288|67:266,7,35.9999974708558
328,293,99872,5,0,0:0:0:0:
354,269,99965,1,0,0:0:0:0:
359,234,100059,1,0,0:0:0:0:
340,205,100153,1,0,0:0:0:0:
306,193,100247,1,0,0:0:0:0:
274,206,100340,1,0,0:0:0:0:
263,240,100434,1,0,0:0:0:0:
280,271,100528,1,0,0:0:0:0:
310,290,100622,1,0,0:0:0:0:
428,297,100715,1,0,0:0:0:0:
453,271,100809,1,0,0:0:0:0:
426,162,100903,1,0,0:0:0:0:
403,136,100997,1,0,0:0:0:0:
375,113,101090,1,0,0:0:0:0:
348,89,101184,1,0,0:0:0:0:
321,66,101278,1,0,0:0:0:0:
52,139,101372,5,0,0:0:0:0:
84,125,101465,1,0,0:0:0:0:
119,131,101559,1,0,0:0:0:0:
421,342,101747,5,0,0:0:0:0:
444,315,101840,1,0,0:0:0:0:
447,280,101934,1,0,0:0:0:0:
378,165,102122,5,0,0:0:0:0:
480,34,102497,1,0,0:0:0:0:
287,128,102872,6,0,L|247:147,3,35.9999974708558
163,48,103247,2,0,L|127:37,3,35.9999974708558
64,151,103622,6,0,P|45:193|57:224,1,71.9999949417116
157,276,103903,1,0,0:0:0:0:
166,283,104184,5,0,0:0:0:0:
166,283,104278,1,0,0:0:0:0:
166,283,104372,1,0,0:0:0:0:
200,292,104465,5,0,0:0:0:0:
236,296,104559,1,0,0:0:0:0:
272,296,104653,1,0,0:0:0:0:
307,290,104747,1,0,0:0:0:0:
340,276,104840,1,0,0:0:0:0:
369,254,104934,1,0,0:0:0:0:
390,225,105028,1,0,0:0:0:0:
371,157,105122,5,0,0:0:0:0:
343,180,105215,1,0,0:0:0:0:
311,197,105309,1,0,0:0:0:0:
277,207,105403,1,0,0:0:0:0:
241,212,105497,1,0,0:0:0:0:
205,211,105590,1,0,0:0:0:0:
170,204,105684,1,0,0:0:0:0:
136,192,105778,1,0,0:0:0:0:
145,126,105872,6,0,P|196:135|210:127,3,35.9999974708558
255,141,106247,2,0,P|301:123|308:112,3,35.9999974708558
335,75,106622,5,0,0:0:0:0:
302,58,106715,1,0,0:0:0:0:
268,46,106809,1,0,0:0:0:0:
233,40,106903,1,0,0:0:0:0:
189,39,106997,1,0,0:0:0:0:
146,43,107090,1,0,0:0:0:0:
105,54,107184,1,0,0:0:0:0:
67,69,107278,1,0,0:0:0:0:
80,166,107372,5,0,0:0:0:0:
108,187,107465,1,0,0:0:0:0:
143,189,107559,1,0,0:0:0:0:
174,171,107653,1,0,0:0:0:0:
198,144,107747,1,0,0:0:0:0:
227,123,107840,1,0,0:0:0:0:
262,123,107934,1,0,0:0:0:0:
289,145,108028,1,0,0:0:0:0:
288,181,108122,6,0,P|258:219|258:220,3,35.9999974708558
286,229,108497,2,0,P|320:251|323:249,3,35.9999974708558
365,233,108872,5,0,0:0:0:0:
373,207,108965,1,0,0:0:0:0:
376,180,109059,1,0,0:0:0:0:
376,153,109153,1,0,0:0:0:0:
372,126,109247,1,0,0:0:0:0:
366,99,109340,1,0,0:0:0:0:
354,75,109434,1,0,0:0:0:0:
319,48,109528,5,0,0:0:0:0:
272,48,109622,1,0,0:0:0:0:
226,48,109715,1,0,0:0:0:0:
180,48,109809,1,0,0:0:0:0:
134,48,109903,1,0,0:0:0:0:
120,126,109997,5,0,0:0:0:0:
107,153,110090,1,0,0:0:0:0:
111,182,110184,1,0,0:0:0:0:
131,205,110278,1,0,0:0:0:0:
155,231,110372,6,0,L|190:251,3,35.9999974708558
221,242,110747,2,0,L|256:234,3,35.9999974708558
283,210,111122,2,0,L|308:184,3,35.9999974708558
299,148,111497,2,0,L|280:104,3,35.9999974708558
222,77,111872,5,0,0:0:0:0:
186,80,111965,1,0,0:0:0:0:
153,95,112059,1,0,0:0:0:0:
126,118,112153,1,0,0:0:0:0:
102,145,112247,1,0,0:0:0:0:
82,175,112340,1,0,0:0:0:0:
65,207,112434,1,0,0:0:0:0:
50,240,112528,1,0,0:0:0:0:
54,273,112622,1,0,0:0:0:0:
82,295,112715,1,0,0:0:0:0:
114,311,112809,1,0,0:0:0:0:
148,323,112903,1,0,0:0:0:0:
228,302,112997,6,0,L|266:280,3,35.9999974708558
275,220,113372,5,0,0:0:0:0:
303,197,113465,1,0,0:0:0:0:
323,176,113559,1,0,0:0:0:0:
290,164,113653,1,0,0:0:0:0:
256,152,113747,1,0,0:0:0:0:
285,131,113840,1,0,0:0:0:0:
269,109,113934,1,0,0:0:0:0:
233,111,114028,1,0,0:0:0:0:
199,122,114122,1,0,0:0:0:0:
168,141,114215,1,0,0:0:0:0:
145,168,114309,1,0,0:0:0:0:
136,202,114403,1,0,0:0:0:0:
162,270,114497,6,0,L|199:281,3,35.9999974708558
275,248,114872,5,0,0:0:0:0:
291,216,114965,1,0,0:0:0:0:
291,180,115059,1,0,0:0:0:0:
274,149,115153,1,0,0:0:0:0:
274,149,115247,1,0,0:0:0:0:
296,176,115340,1,0,0:0:0:0:
293,211,115434,1,0,0:0:0:0:
225,338,115528,6,0,P|184:335|172:321,1,35.9999974708558
94,174,115903,5,0,0:0:0:0:
186,125,116184,1,0,0:0:0:0:
186,125,116372,5,0,0:0:0:0:
302,75,116559,1,0,0:0:0:0:
356,192,116747,5,0,0:0:0:0:
356,192,116840,1,0,0:0:0:0:
316,211,117028,5,0,0:0:0:0:
316,211,117122,1,0,0:0:0:0:
316,211,117215,1,0,0:0:0:0:
282,221,117309,1,0,0:0:0:0:
248,226,117403,1,0,0:0:0:0:
213,227,117497,1,0,0:0:0:0:
178,221,117590,1,0,0:0:0:0:
145,211,117684,1,0,0:0:0:0:
113,196,117778,1,0,0:0:0:0:
85,299,117872,1,0,0:0:0:0:
238,336,118059,1,0,0:0:0:0:
361,284,118247,5,0,0:0:0:0:
361,284,118340,1,0,0:0:0:0:
380,238,118528,5,0,0:0:0:0:
380,238,118622,1,0,0:0:0:0:
380,238,118715,1,0,0:0:0:0:
379,203,118809,1,0,0:0:0:0:
371,169,118903,1,0,0:0:0:0:
355,137,118997,1,0,0:0:0:0:
333,110,119090,1,0,0:0:0:0:
306,88,119184,1,0,0:0:0:0:
274,73,119278,1,0,0:0:0:0:
175,122,119372,5,0,0:0:0:0:
175,122,119465,1,0,0:0:0:0:
175,122,119653,1,0,0:0:0:0:
175,122,119747,1,0,0:0:0:0:
92,134,119934,2,0,L|83:186,1,47.9999980926514
314,268,120122,5,0,0:0:0:0:
314,268,120215,1,0,0:0:0:0:
314,268,120403,1,0,0:0:0:0:
314,268,120497,1,0,0:0:0:0:
385,236,120684,2,0,P|412:191|407:176,1,47.9999980926514
360,116,120872,5,0,0:0:0:0:
360,116,120965,1,0,0:0:0:0:
360,116,121153,1,0,0:0:0:0:
360,116,121247,1,0,0:0:0:0:
268,62,121434,2,0,P|222:83|222:104,1,47.9999980926514
121,253,121622,5,0,0:0:0:0:
121,253,121715,1,0,0:0:0:0:
121,253,121903,1,0,0:0:0:0:
121,253,121997,1,0,0:0:0:0:
212,270,122184,2,0,L|215:222,1,47.9999980926514
75,44,122372,5,0,0:0:0:0:
75,44,122465,1,0,0:0:0:0:
75,44,122653,1,0,0:0:0:0:
75,44,122747,1,0,0:0:0:0:
75,44,122934,1,0,0:0:0:0:
256,180,123122,5,0,0:0:0:0:
256,180,123215,1,0,0:0:0:0:
256,180,123403,1,0,0:0:0:0:
256,180,123497,1,0,0:0:0:0:
256,180,123684,1,0,0:0:0:0:
389,66,123872,5,0,0:0:0:0:
389,66,123965,1,0,0:0:0:0:
389,66,124153,1,0,0:0:0:0:
389,66,124247,1,0,0:0:0:0:
389,66,124434,1,0,0:0:0:0:
381,251,124622,5,0,0:0:0:0:
381,251,124715,1,0,0:0:0:0:
381,251,124903,1,0,0:0:0:0:
381,251,124997,1,0,0:0:0:0:
381,251,125184,1,0,0:0:0:0:
163,117,125372,5,0,0:0:0:0:
163,117,125465,1,0,0:0:0:0:
223,171,125653,1,0,0:0:0:0:
223,171,125747,1,0,0:0:0:0:
221,267,125934,2,0,P|191:312|184:310,1,47.9999980926514
389,278,126122,5,0,0:0:0:0:
389,278,126215,1,0,0:0:0:0:
459,179,126403,1,0,0:0:0:0:
459,179,126497,1,0,0:0:0:0:
352,110,126684,2,0,P|348:148|353:170,1,47.9999980926514
58,32,126872,5,0,0:0:0:0:
58,32,126965,1,0,0:0:0:0:
52,191,127153,1,0,0:0:0:0:
52,191,127247,1,0,0:0:0:0:
145,191,127434,2,0,P|141:216|155:238,1,47.9999980926514
256,111,127622,1,0,0:0:0:0:
256,111,127715,1,0,0:0:0:0:
272,191,127903,2,0,L|250:236,1,47.9999980926514
286,316,128184,2,0,P|336:323|351:311,1,47.9999980926514
417,53,128372,6,0,P|432:108|379:132,1,95.9999961853028
135,239,128747,2,0,B|39:170|20:76|64:65|64:65|44:175|182:225|191:188|225:176|176:94,1,479.999980926514
375,196,129872,5,0,0:0:0:0:
375,196,130059,1,0,0:0:0:0:
375,196,130247,1,0,0:0:0:0:
375,196,130434,1,0,0:0:0:0:
375,196,130622,5,0,0:0:0:0:
356,175,130715,1,0,0:0:0:0:
332,160,130809,1,0,0:0:0:0:
305,153,130903,1,0,0:0:0:0:
277,155,130997,1,0,0:0:0:0:
194,204,131184,5,0,0:0:0:0:
194,204,131372,5,0,0:0:0:0:
185,221,131434,1,0,0:0:0:0:
173,238,131497,1,0,0:0:0:0:
158,252,131559,1,0,0:0:0:0:
139,259,131622,1,0,0:0:0:0:
119,258,131684,1,0,0:0:0:0:
102,247,131747,1,0,0:0:0:0:
91,230,131809,1,0,0:0:0:0:
85,210,131872,1,0,0:0:0:0:
80,191,131934,1,0,0:0:0:0:
73,171,131997,1,0,0:0:0:0:
63,153,132059,1,0,0:0:0:0:
51,131,132122,6,0,L|51:108,5,23.9999983139039
73,72,132497,2,0,L|96:54,5,23.9999983139039
162,62,132872,5,0,0:0:0:0:
179,62,132934,1,0,0:0:0:0:
197,65,132997,1,0,0:0:0:0:
214,73,133059,1,0,0:0:0:0:
228,84,133122,1,0,0:0:0:0:
240,97,133184,1,0,0:0:0:0:
249,112,133247,1,0,0:0:0:0:
258,128,133309,1,0,0:0:0:0:
266,144,133372,1,0,0:0:0:0:
275,160,133434,1,0,0:0:0:0:
286,174,133497,1,0,0:0:0:0:
299,187,133559,1,0,0:0:0:0:
323,217,133622,6,0,L|345:253,5,23.9999983139039
331,261,133997,2,0,L|323:283,5,23.9999983139039
227,330,134372,5,0,0:0:0:0:
203,313,134434,1,0,0:0:0:0:
180,296,134497,1,0,0:0:0:0:
157,277,134559,1,0,0:0:0:0:
135,258,134622,1,0,0:0:0:0:
114,237,134684,1,0,0:0:0:0:
95,215,134747,1,0,0:0:0:0:
78,191,134809,1,0,0:0:0:0:
63,166,134872,1,0,0:0:0:0:
54,138,134934,1,0,0:0:0:0:
54,109,134997,1,0,0:0:0:0:
72,87,135059,5,0,0:0:0:0:
96,92,135122,1,0,0:0:0:0:
112,99,135184,1,0,0:0:0:0:
125,109,135247,1,0,0:0:0:0:
136,122,135309,1,0,0:0:0:0:
147,135,135372,1,0,0:0:0:0:
159,148,135434,1,0,0:0:0:0:
171,160,135497,1,0,0:0:0:0:
185,170,135559,1,0,0:0:0:0:
200,177,135622,1,0,0:0:0:0:
217,181,135684,1,0,0:0:0:0:
234,182,135747,1,0,0:0:0:0:
251,178,135809,1,0,0:0:0:0:
274,184,135872,6,0,L|298:200,5,23.9999983139039
313,260,136247,6,0,L|291:277,5,23.9999983139039
175,258,136622,6,0,L|142:229,5,23.9999983139039
75,145,136997,6,0,L|104:137,5,23.9999983139039
155,72,137372,5,0,0:0:0:0:
177,67,137434,1,0,0:0:0:0:
198,75,137497,1,0,0:0:0:0:
214,92,137559,1,0,0:0:0:0:
228,109,137622,1,0,0:0:0:0:
243,126,137684,1,0,0:0:0:0:
262,140,137747,1,0,0:0:0:0:
282,149,137809,1,0,0:0:0:0:
305,150,137872,1,0,0:0:0:0:
327,144,137934,1,0,0:0:0:0:
345,131,137997,1,0,0:0:0:0:
360,113,138059,1,0,0:0:0:0:
384,113,138122,6,0,L|406:137,5,23.9999983139039
403,154,138497,5,0,0:0:0:0:
402,177,138559,1,0,0:0:0:0:
397,201,138622,1,0,0:0:0:0:
387,223,138684,1,0,0:0:0:0:
375,243,138747,1,0,0:0:0:0:
358,261,138809,1,0,0:0:0:0:
339,276,138872,1,0,0:0:0:0:
318,287,138934,1,0,0:0:0:0:
295,294,138997,1,0,0:0:0:0:
271,297,139059,1,0,0:0:0:0:
248,296,139122,1,0,0:0:0:0:
224,290,139184,1,0,0:0:0:0:
204,277,139247,6,0,L|181:259,5,23.9999983139039
139,189,139622,5,0,0:0:0:0:
158,180,139684,1,0,0:0:0:0:
176,168,139747,1,0,0:0:0:0:
193,154,139809,1,0,0:0:0:0:
208,139,139872,1,0,0:0:0:0:
221,122,139934,1,0,0:0:0:0:
234,104,139997,1,0,0:0:0:0:
246,86,140059,1,0,0:0:0:0:
259,69,140122,1,0,0:0:0:0:
275,66,140184,1,0,0:0:0:0:
280,87,140247,1,0,0:0:0:0:
282,109,140309,1,0,0:0:0:0:
291,132,140372,6,0,L|294:161,5,23.9999983139039
270,226,140747,2,0,L|252:248,5,23.9999983139039
230,246,141122,5,0,0:0:0:0:
212,243,141184,1,0,0:0:0:0:
194,238,141247,1,0,0:0:0:0:
178,230,141309,1,0,0:0:0:0:
163,221,141372,1,0,0:0:0:0:
149,209,141434,1,0,0:0:0:0:
137,196,141497,1,0,0:0:0:0:
128,180,141559,1,0,0:0:0:0:
121,164,141622,1,0,0:0:0:0:
119,146,141684,1,0,0:0:0:0:
122,128,141747,1,0,0:0:0:0:
131,112,141809,1,0,0:0:0:0:
140,99,141872,5,0,0:0:0:0:
151,92,141934,1,0,0:0:0:0:
163,89,141997,1,0,0:0:0:0:
176,88,142059,1,0,0:0:0:0:
189,89,142122,1,0,0:0:0:0:
201,92,142184,1,0,0:0:0:0:
214,95,142247,1,0,0:0:0:0:
227,100,142309,1,0,0:0:0:0:
238,104,142372,1,0,0:0:0:0:
250,110,142434,1,0,0:0:0:0:
262,115,142497,1,0,0:0:0:0:
274,119,142559,1,0,0:0:0:0:
287,123,142622,1,0,0:0:0:0:
311,126,142684,5,0,0:0:0:0:
335,121,142747,1,0,0:0:0:0:
358,108,142809,1,0,0:0:0:0:
377,91,142872,1,0,0:0:0:0:
394,71,142934,1,0,0:0:0:0:
349,28,142997,6,0,L|321:29,5,23.9999983139039
264,31,143372,2,0,L|236:31,5,23.9999983139039
190,144,143747,1,0,0:0:0:0:
208,158,143809,1,0,0:0:0:0:
228,172,143872,1,0,0:0:0:0:
245,189,143934,1,0,0:0:0:0:
243,212,143997,1,0,0:0:0:0:
239,235,144059,1,0,0:0:0:0:
249,257,144122,1,0,0:0:0:0:
270,268,144184,1,0,0:0:0:0:
293,272,144247,1,0,0:0:0:0:
317,270,144309,1,0,0:0:0:0:
340,263,144372,1,0,0:0:0:0:
362,253,144434,1,0,0:0:0:0:
382,241,144497,1,0,0:0:0:0:
402,226,144559,1,0,0:0:0:0:
419,210,144622,1,0,0:0:0:0:
436,193,144684,1,0,0:0:0:0:
450,174,144747,1,0,0:0:0:0:
458,151,144809,1,0,0:0:0:0:
452,133,144872,5,0,0:0:0:0:
433,108,144934,1,0,0:0:0:0:
410,87,144997,1,0,0:0:0:0:
385,69,145059,1,0,0:0:0:0:
357,56,145122,1,0,0:0:0:0:
327,49,145184,1,0,0:0:0:0:
257,49,145247,6,0,L|221:51,5,23.9999983139039
262,113,145622,2,0,L|289:115,5,23.9999983139039
198,124,145997,2,0,L|179:139,5,23.9999983139039
176,219,146372,5,0,0:0:0:0:
174,232,146434,1,0,0:0:0:0:
174,246,146497,1,0,0:0:0:0:
176,260,146559,1,0,0:0:0:0:
178,274,146622,1,0,0:0:0:0:
182,286,146684,1,0,0:0:0:0:
188,299,146747,1,0,0:0:0:0:
196,310,146809,1,0,0:0:0:0:
206,321,146872,1,0,0:0:0:0:
217,329,146934,1,0,0:0:0:0:
230,334,146997,1,0,0:0:0:0:
243,338,147059,1,0,0:0:0:0:
307,315,147122,6,0,L|307:357,11,23.9999983139039
425,359,147872,5,0,0:0:0:0:
434,334,147934,1,0,0:0:0:0:
443,308,147997,1,0,0:0:0:0:
452,284,148059,1,0,0:0:0:0:
460,258,148122,1,0,0:0:0:0:
466,232,148184,1,0,0:0:0:0:
471,206,148247,1,0,0:0:0:0:
476,180,148309,1,0,0:0:0:0:
476,155,148372,1,0,0:0:0:0:
469,134,148434,1,0,0:0:0:0:
451,109,148497,1,0,0:0:0:0:
435,92,148559,1,0,0:0:0:0:
427,83,148622,5,0,0:0:0:0:
414,73,148684,1,0,0:0:0:0:
402,68,148747,1,0,0:0:0:0:
391,62,148809,1,0,0:0:0:0:
378,59,148872,1,0,0:0:0:0:
366,57,148934,1,0,0:0:0:0:
353,57,148997,1,0,0:0:0:0:
340,58,149059,1,0,0:0:0:0:
327,57,149122,1,0,0:0:0:0:
314,56,149184,1,0,0:0:0:0:
301,54,149247,1,0,0:0:0:0:
288,53,149309,1,0,0:0:0:0:
198,78,149372,6,0,L|185:101,5,23.9999983139039
97,186,149747,2,0,L|106:212,5,23.9999983139039
164,252,150122,5,0,0:0:0:0:
180,260,150184,1,0,0:0:0:0:
196,268,150247,1,0,0:0:0:0:
212,276,150309,1,0,0:0:0:0:
228,284,150372,1,0,0:0:0:0:
244,293,150434,1,0,0:0:0:0:
260,301,150497,1,0,0:0:0:0:
276,303,150559,1,0,0:0:0:0:
293,296,150622,1,0,0:0:0:0:
305,284,150684,1,0,0:0:0:0:
314,268,150747,1,0,0:0:0:0:
318,252,150809,1,0,0:0:0:0:
317,234,150872,5,0,0:0:0:0:
316,216,150934,1,0,0:0:0:0:
303,203,150997,1,0,0:0:0:0:
290,190,151059,1,0,0:0:0:0:
276,179,151122,1,0,0:0:0:0:
261,169,151184,1,0,0:0:0:0:
252,155,151247,1,0,0:0:0:0:
249,137,151309,1,0,0:0:0:0:
247,119,151372,1,0,0:0:0:0:
247,103,151434,1,0,0:0:0:0:
260,90,151497,1,0,0:0:0:0:
273,78,151559,5,0,0:0:0:0:
286,67,151622,5,0,0:0:0:0:
304,62,151684,1,0,0:0:0:0:
321,61,151747,1,0,0:0:0:0:
339,64,151809,1,0,0:0:0:0:
357,66,151872,1,0,0:0:0:0:
375,69,151934,1,0,0:0:0:0:
388,77,151997,1,0,0:0:0:0:
394,94,152059,1,0,0:0:0:0:
400,111,152122,1,0,0:0:0:0:
406,128,152184,1,0,0:0:0:0:
410,146,152247,1,0,0:0:0:0:
400,159,152309,1,0,0:0:0:0:
387,172,152372,5,0,0:0:0:0:
374,184,152434,1,0,0:0:0:0:
361,197,152497,1,0,0:0:0:0:
346,205,152559,1,0,0:0:0:0:
329,212,152622,1,0,0:0:0:0:
314,219,152684,1,0,0:0:0:0:
289,219,152747,6,0,L|260:205,5,23.9999983139039
250,191,153122,2,0,L|231:165,5,23.9999983139039
212,166,153497,2,0,L|182:193,5,23.9999983139039
174,195,153872,5,0,0:0:0:0:
158,213,153934,1,0,0:0:0:0:
142,231,153997,1,0,0:0:0:0:
126,248,154059,1,0,0:0:0:0:
108,264,154122,1,0,0:0:0:0:
88,277,154184,1,0,0:0:0:0:
65,278,154247,1,0,0:0:0:0:
51,258,154309,1,0,0:0:0:0:
47,235,154372,1,0,0:0:0:0:
46,211,154434,1,0,0:0:0:0:
49,187,154497,1,0,0:0:0:0:
54,164,154559,1,0,0:0:0:0:
70,145,154622,6,0,L|92:122,5,23.9999983139039
105,112,154997,5,0,0:0:0:0:
121,94,155059,1,0,0:0:0:0:
140,80,155122,1,0,0:0:0:0:
162,70,155184,1,0,0:0:0:0:
185,64,155247,1,0,0:0:0:0:
209,63,155309,1,0,0:0:0:0:
233,69,155372,6,0,P|263:80|273:88,5,23.9999983139039
324,99,155747,2,0,P|331:122|336:135,5,23.9999983139039
346,187,156122,5,0,0:0:0:0:
334,208,156184,1,0,0:0:0:0:
320,227,156247,1,0,0:0:0:0:
302,243,156309,1,0,0:0:0:0:
282,255,156372,1,0,0:0:0:0:
259,264,156434,1,0,0:0:0:0:
236,269,156497,1,0,0:0:0:0:
212,269,156559,1,0,0:0:0:0:
188,266,156622,1,0,0:0:0:0:
164,263,156684,1,0,0:0:0:0:
142,254,156747,1,0,0:0:0:0:
117,248,156809,1,0,0:0:0:0:
95,225,156872,5,0,0:0:0:0:
89,194,156934,1,0,0:0:0:0:
93,164,156997,1,0,0:0:0:0:
103,135,157059,1,0,0:0:0:0:
120,110,157122,1,0,0:0:0:0:
140,88,157184,1,0,0:0:0:0:
164,69,157247,1,0,0:0:0:0:
190,53,157309,1,0,0:0:0:0:
217,40,157372,1,0,0:0:0:0:
245,36,157434,1,0,0:0:0:0:
279,48,157497,1,0,0:0:0:0:
302,65,157559,1,0,0:0:0:0:
316,73,157622,5,0,0:0:0:0:
340,78,157684,1,0,0:0:0:0:
363,74,157747,1,0,0:0:0:0:
386,66,157809,1,0,0:0:0:0:
407,56,157872,1,0,0:0:0:0:
430,47,157934,1,0,0:0:0:0:
449,52,157997,1,0,0:0:0:0:
449,76,158059,1,0,0:0:0:0:
447,100,158122,1,0,0:0:0:0:
442,123,158184,1,0,0:0:0:0:
429,143,158247,1,0,0:0:0:0:
407,153,158309,1,0,0:0:0:0:
333,219,158372,6,0,L|321:242,5,23.9999983139039
267,284,158747,2,0,L|283:308,5,23.9999983139039
370,304,159122,5,0,0:0:0:0:
388,318,159184,1,0,0:0:0:0:
409,330,159247,1,0,0:0:0:0:
432,338,159309,1,0,0:0:0:0:
456,339,159372,1,0,0:0:0:0:
475,328,159434,1,0,0:0:0:0:
475,304,159497,1,0,0:0:0:0:
475,280,159559,1,0,0:0:0:0:
475,256,159622,1,0,0:0:0:0:
475,232,159684,1,0,0:0:0:0:
475,208,159747,1,0,0:0:0:0:
475,184,159809,1,0,0:0:0:0:
450,145,159872,6,0,L|427:122,5,23.9999983139039
379,109,160247,2,0,L|356:101,5,23.9999983139039
293,86,160622,5,0,0:0:0:0:
271,77,160684,1,0,0:0:0:0:
250,70,160747,1,0,0:0:0:0:
228,64,160809,1,0,0:0:0:0:
205,60,160872,1,0,0:0:0:0:
183,56,160934,1,0,0:0:0:0:
160,53,160997,1,0,0:0:0:0:
137,52,161059,1,0,0:0:0:0:
115,53,161122,1,0,0:0:0:0:
93,58,161184,1,0,0:0:0:0:
80,75,161247,1,0,0:0:0:0:
85,97,161309,1,0,0:0:0:0:
108,140,161372,6,0,L|128:166,5,23.9999983139039
136,190,161747,2,0,L|123:215,5,23.9999983139039
205,304,162122,5,0,0:0:0:0:
237,319,162184,1,0,0:0:0:0:
273,324,162247,1,0,0:0:0:0:
308,317,162309,1,0,0:0:0:0:
337,296,162372,1,0,0:0:0:0:
352,263,162434,1,0,0:0:0:0:
354,228,162497,1,0,0:0:0:0:
350,194,162559,1,0,0:0:0:0:
343,156,162622,1,0,0:0:0:0:
341,121,162684,1,0,0:0:0:0:
349,86,162747,1,0,0:0:0:0:
368,56,162809,1,0,0:0:0:0:
407,47,162872,6,0,L|436:52,5,23.9999983139039
51,104,163247,2,0,L|61:73,5,23.9999983139039
32,248,163622,5,0,0:0:0:0:
48,265,163684,1,0,0:0:0:0:
66,281,163747,1,0,0:0:0:0:
84,296,163809,1,0,0:0:0:0:
104,310,163872,1,0,0:0:0:0:
125,322,163934,1,0,0:0:0:0:
147,331,163997,1,0,0:0:0:0:
167,325,164059,1,0,0:0:0:0:
179,305,164122,1,0,0:0:0:0:
185,282,164184,1,0,0:0:0:0:
189,258,164247,1,0,0:0:0:0:
190,234,164309,1,0,0:0:0:0:
189,206,164372,1,0,0:0:0:0:
186,173,164434,1,0,0:0:0:0:
180,141,164497,1,0,0:0:0:0:
171,111,164559,1,0,0:0:0:0:
147,97,164622,1,0,0:0:0:0:
115,93,164684,1,0,0:0:0:0:
81,97,164747,6,0,L|46:107,5,23.9999983139039
42,43,165122,1,0,0:0:0:0:
65,37,165184,1,0,0:0:0:0:
89,33,165247,1,0,0:0:0:0:
112,31,165309,1,0,0:0:0:0:
136,29,165372,1,0,0:0:0:0:
160,30,165434,1,0,0:0:0:0:
184,31,165497,1,0,0:0:0:0:
208,34,165559,1,0,0:0:0:0:
232,38,165622,1,0,0:0:0:0:
255,43,165684,1,0,0:0:0:0:
278,50,165747,1,0,0:0:0:0:
301,58,165809,1,0,0:0:0:0:
337,122,165872,6,0,L|334:154,5,23.9999983139039
178,168,166247,2,0,L|201:200,5,23.9999983139039
253,224,166621,1,0,0:0:0:0:
263,246,166684,1,0,0:0:0:0:
276,266,166746,1,0,0:0:0:0:
291,284,166809,1,0,0:0:0:0:
307,302,166871,1,0,0:0:0:0:
325,319,166934,1,0,0:0:0:0:
345,321,166996,1,0,0:0:0:0:
364,306,167059,1,0,0:0:0:0:
377,286,167121,1,0,0:0:0:0:
385,263,167184,1,0,0:0:0:0:
390,240,167246,1,0,0:0:0:0:
392,216,167309,1,0,0:0:0:0:
398,188,167372,6,0,L|400:154,5,23.9999983139039
446,108,167747,5,0,0:0:0:0:
432,88,167809,1,0,0:0:0:0:
415,71,167872,1,0,0:0:0:0:
396,56,167934,1,0,0:0:0:0:
375,44,167997,1,0,0:0:0:0:
353,35,168059,1,0,0:0:0:0:
330,30,168122,1,0,0:0:0:0:
306,29,168184,1,0,0:0:0:0:
282,30,168247,1,0,0:0:0:0:
258,36,168309,1,0,0:0:0:0:
236,45,168372,1,0,0:0:0:0:
215,56,168434,1,0,0:0:0:0:
190,65,168497,6,0,L|156:79,5,23.9999983139039
146,100,168872,5,0,0:0:0:0:
146,124,168934,1,0,0:0:0:0:
146,148,168997,1,0,0:0:0:0:
146,172,169059,1,0,0:0:0:0:
146,196,169122,1,0,0:0:0:0:
146,220,169184,1,0,0:0:0:0:
146,243,169247,1,0,0:0:0:0:
146,268,169309,1,0,0:0:0:0:
167,269,169372,1,0,0:0:0:0:
191,268,169434,1,0,0:0:0:0:
215,268,169497,1,0,0:0:0:0:
239,267,169559,1,0,0:0:0:0:
261,268,169622,1,0,0:0:0:0:
278,252,169684,1,0,0:0:0:0:
290,231,169747,1,0,0:0:0:0:
298,208,169809,1,0,0:0:0:0:
303,185,169872,1,0,0:0:0:0:
305,161,169934,1,0,0:0:0:0:
305,137,169997,1,0,0:0:0:0:
303,113,170059,1,0,0:0:0:0:
299,89,170122,1,0,0:0:0:0:
296,65,170184,1,0,0:0:0:0:
306,46,170247,5,0,0:0:0:0:
324,49,170309,1,0,0:0:0:0:
341,57,170372,1,0,0:0:0:0:
356,68,170434,1,0,0:0:0:0:
367,84,170497,1,0,0:0:0:0:
374,101,170559,1,0,0:0:0:0:
377,120,170622,1,0,0:0:0:0:
378,139,170684,1,0,0:0:0:0:
382,162,170747,1,0,0:0:0:0:
384,185,170809,1,0,0:0:0:0:
384,209,170872,1,0,0:0:0:0:
380,233,170934,1,0,0:0:0:0:
373,256,170997,1,0,0:0:0:0:
362,277,171059,1,0,0:0:0:0:
348,296,171122,1,0,0:0:0:0:
330,313,171184,1,0,0:0:0:0:
311,327,171247,1,0,0:0:0:0:
288,336,171309,1,0,0:0:0:0:
265,339,171372,5,0,0:0:0:0:
242,334,171434,1,0,0:0:0:0:
219,324,171497,1,0,0:0:0:0:
199,312,171559,1,0,0:0:0:0:
181,297,171622,1,0,0:0:0:0:
164,279,171684,1,0,0:0:0:0:
150,260,171747,1,0,0:0:0:0:
138,239,171809,1,0,0:0:0:0:
129,217,171872,1,0,0:0:0:0:
122,194,171934,5,0,0:0:0:0:
119,179,171997,1,0,0:0:0:0:
118,163,172059,1,0,0:0:0:0:
119,147,172122,1,0,0:0:0:0:
123,132,172184,1,0,0:0:0:0:
130,118,172247,1,0,0:0:0:0:
141,107,172309,1,0,0:0:0:0:
155,99,172372,1,0,0:0:0:0:
166,101,172434,1,0,0:0:0:0:
170,116,172497,1,0,0:0:0:0:
178,130,172559,1,0,0:0:0:0:
189,141,172622,1,0,0:0:0:0:
204,147,172684,1,0,0:0:0:0:
219,150,172747,1,0,0:0:0:0:
235,150,172809,1,0,0:0:0:0:
250,148,172872,1,0,0:0:0:0:
264,153,172934,1,0,0:0:0:0:
287,159,172997,6,0,L|317:181,5,23.9999983139039
324,189,173372,2,0,L|342:209,5,23.9999983139039
330,229,173747,5,0,0:0:0:0:
334,252,173809,1,0,0:0:0:0:
333,276,173872,1,0,0:0:0:0:
326,299,173934,1,0,0:0:0:0:
314,320,173997,1,0,0:0:0:0:
298,337,174059,1,0,0:0:0:0:
277,350,174122,1,0,0:0:0:0:
255,358,174184,1,0,0:0:0:0:
231,361,174247,1,0,0:0:0:0:
207,358,174309,1,0,0:0:0:0:
185,349,174372,1,0,0:0:0:0:
165,336,174434,1,0,0:0:0:0:
149,318,174497,1,0,0:0:0:0:
138,297,174559,1,0,0:0:0:0:
131,274,174622,1,0,0:0:0:0:
130,250,174684,1,0,0:0:0:0:
135,227,174747,1,0,0:0:0:0:
145,205,174809,1,0,0:0:0:0:
154,183,174872,5,0,0:0:0:0:
168,164,174934,1,0,0:0:0:0:
188,124,174997,1,0,0:0:0:0:
220,91,175059,1,0,0:0:0:0:
260,70,175122,1,0,0:0:0:0:
304,61,175184,1,0,0:0:0:0:
349,66,175247,1,0,0:0:0:0:
390,85,175309,1,0,0:0:0:0:
424,114,175372,1,0,0:0:0:0:
448,153,175434,1,0,0:0:0:0:
459,197,175497,1,0,0:0:0:0:
456,242,175559,5,0,0:0:0:0:
444,263,175622,1,0,0:0:0:0:
421,271,175684,1,0,0:0:0:0:
397,271,175747,1,0,0:0:0:0:
374,264,175809,1,0,0:0:0:0:
352,255,175872,1,0,0:0:0:0:
331,244,175934,1,0,0:0:0:0:
310,232,175997,1,0,0:0:0:0:
289,220,176059,1,0,0:0:0:0:
266,212,176122,1,0,0:0:0:0:
245,221,176184,1,0,0:0:0:0:
223,229,176247,1,0,0:0:0:0:
199,230,176309,1,0,0:0:0:0:
180,215,176372,1,0,0:0:0:0:
166,204,176434,1,0,0:0:0:0:
154,192,176497,1,0,0:0:0:0:
145,178,176559,1,0,0:0:0:0:
139,162,176622,1,0,0:0:0:0:
140,145,176684,1,0,0:0:0:0:
148,130,176747,1,0,0:0:0:0:
160,117,176809,1,0,0:0:0:0:
174,107,176872,1,0,0:0:0:0:
189,99,176934,1,0,0:0:0:0:
195,75,176997,5,0,0:0:0:0:
180,72,177059,1,0,0:0:0:0:
163,71,177122,1,0,0:0:0:0:
145,71,177184,1,0,0:0:0:0:
128,71,177247,1,0,0:0:0:0:
111,72,177309,1,0,0:0:0:0:
94,72,177372,1,0,0:0:0:0:
77,73,177434,1,0,0:0:0:0:
71,96,177497,1,0,0:0:0:0:
69,119,177559,1,0,0:0:0:0:
68,143,177622,1,0,0:0:0:0:
70,167,177684,1,0,0:0:0:0:
73,191,177747,1,0,0:0:0:0:
80,209,177809,1,0,0:0:0:0:
91,230,177872,2,0,L|122:237,5,23.9999983139039
137,243,178247,2,0,L|176:246,5,23.9999983139039
246,227,178622,2,0,L|272:212,5,23.9999983139039
287,201,178997,2,0,L|317:176,4,23.9999983139039
176,72,179336,5,0,0:0:0:0:
176,72,179523,1,0,0:0:0:0:
416,265,179711,1,0,0:0:0:0:
416,265,179898,1,0,0:0:0:0:
263,320,180273,2,0,P|211:291|193:273,1,71.9999949417116
96,131,180836,2,0,P|109:85|145:68,1,71.9999949417116
292,89,181398,5,0,0:0:0:0:
292,89,181773,1,0,0:0:0:0:
292,89,182148,5,0,0:0:0:0:
443,255,182336,1,0,0:0:0:0:
292,89,182523,1,0,0:0:0:0:
229,292,182711,1,0,0:0:0:0:
229,292,182898,1,0,0:0:0:0:
150,77,183273,2,0,P|113:111|100:143,1,71.9999949417116
81,290,183648,5,0,0:0:0:0:
81,290,183836,1,0,0:0:0:0:
255,190,184398,5,0,0:0:0:0:
255,190,184586,2,0,P|203:144|174:141,1,71.9999949417116
255,190,184961,2,0,P|299:141|329:136,1,71.9999949417116
438,57,185336,5,0,0:0:0:0:
438,57,185523,1,0,0:0:0:0:
438,57,185711,1,0,0:0:0:0:
245,50,185898,1,0,0:0:0:0:
118,208,186273,6,0,P|163:239|205:248,1,71.9999949417116
361,283,186836,6,0,P|387:252|395:218,1,71.9999949417116
255,191,187398,5,0,0:0:0:0:
255,191,187586,2,0,P|205:147|171:138,1,71.9999949417116
255,191,187961,2,0,P|302:143|320:137,1,71.9999949417116
388,226,188336,6,0,P|336:271|306:288,1,71.9999949417116
231,332,188898,2,0,L|156:313,1,71.9999949417116
90,213,189461,2,0,P|94:164|115:143,1,71.9999949417116
238,64,189836,5,0,0:0:0:0:
238,64,190211,5,0,0:0:0:0:
238,64,190586,1,0,0:0:0:0:
238,64,190961,1,0,0:0:0:0:
333,147,191336,5,0,0:0:0:0:
288,204,191523,1,0,0:0:0:0:
222,232,191711,1,0,0:0:0:0:
151,243,191898,1,0,0:0:0:0:
54,127,192273,2,0,P|98:68|122:62,1,71.9999949417116
345,42,192836,6,0,P|388:59|415:102,1,71.9999949417116
388,267,193398,1,0,0:0:0:0:
388,267,193773,1,0,0:0:0:0:
249,263,194148,5,0,0:0:0:0:
249,263,194336,1,0,0:0:0:0:
249,263,194523,1,0,0:0:0:0:
101,205,194711,1,0,0:0:0:0:
166,70,194898,2,0,P|227:60|263:65,1,71.9999949417116
434,172,195273,2,0,P|434:219|399:248,1,71.9999949417116
308,198,195648,5,0,0:0:0:0:
308,198,195836,1,0,0:0:0:0:
91,250,196398,5,0,0:0:0:0:
43,89,196586,1,0,0:0:0:0:
91,250,196773,1,0,0:0:0:0:
148,89,196961,1,0,0:0:0:0:
91,250,197148,1,0,0:0:0:0:
274,317,197336,5,0,0:0:0:0:
274,189,197523,1,0,0:0:0:0:
402,189,197711,1,0,0:0:0:0:
402,317,197898,1,0,0:0:0:0:
374,61,198273,6,0,P|299:51|283:59,1,71.9999949417116
177,143,198836,2,0,P|189:192|168:225,1,71.9999949417116
426,243,199398,5,0,0:0:0:0:
349,108,199586,1,0,0:0:0:0:
338,261,199773,5,0,0:0:0:0:
271,134,199961,1,0,0:0:0:0:
45,274,200148,5,0,0:0:0:0:
68,135,200336,2,0,P|117:88|151:80,1,71.9999949417116
404,49,200898,2,0,P|448:86|452:113,1,71.9999949417116
122,272,201461,2,0,B|123:275|150:283|177:285|222:285,1,71.9999949417116
263,280,201836,2,0,P|309:261|345:230,1,71.9999949417116
389,87,202211,2,0,P|389:150|383:172,1,71.9999949417116
141,218,202586,2,0,P|161:172|196:159,1,71.9999949417116
199,114,202961,2,0,P|143:109|106:93,1,71.9999949417116
122,272,203336,2,0,B|182:288|296:302|374:258|407:168|389:79|389:79|361:121|337:179|314:236|263:244|201:241|130:230|138:219|138:219|139:163|218:152|243:116|243:116|130:118|101:85,1,1007.99992918396
69,68,206148,5,0,0:0:0:0:
97,44,206241,1,0,0:0:0:0:
133,39,206335,1,0,0:0:0:0:
