osu file format v14

[General]
AudioFilename: audio.mp3
AudioLeadIn: 0
PreviewTime: 60341
Countdown: 0
SampleSet: Soft
StackLeniency: 0.7
Mode: 0
LetterboxInBreaks: 0
WidescreenStoryboard: 0

[Editor]
Bookmarks: 2741,12341,21941,41141,45941,60341,69941,89141,108341,117941,126341,131141,133541,147941,150341,152741,171941,191141,193541,201926,205526,212741,217541,219941,229541,231941,241541,251141,256541
DistanceSpacing: 0.5
BeatDivisor: 4
GridSize: 16
TimelineZoom: 2.5

[Metadata]
Title:Guitar vs Piano
TitleUnicode:Guitar vs Piano
Artist:LEAF XCEED Music Division
ArtistUnicode:LEAF XCEED Music Division
Creator:Shiro
Version:G Major
Source:
Tags:Odaril gvp goukisan
BeatmapID:1100512
BeatmapSetID:518003

[Difficulty]
HPDrainRate:5
CircleSize:3.85
OverallDifficulty:9
ApproachRate:9.5
SliderMultiplier:1.98
SliderTickRate:1

[Events]
//Background and Video events
0,0,"background.jpg",0,0
//Break Periods
//Storyboard Layer 0 (Background)
//Storyboard Layer 1 (Fail)
//Storyboard Layer 2 (Pass)
//Storyboard Layer 3 (Foreground)
//Storyboard Sound Samples

[TimingPoints]
2736,300,4,2,1,50,1,0
3261,-100,4,2,1,5,0,0
3411,-100,4,2,1,50,0,0
5511,-100,4,2,1,5,0,0
5661,-100,4,2,1,50,0,0
5811,-100,4,2,1,5,0,0
5961,-100,4,2,1,50,0,0
6111,-100,4,2,1,5,0,0
6261,-100,4,2,1,50,0,0
6711,-100,4,2,1,5,0,0
6861,-100,4,2,1,50,0,0
7011,-100,4,2,1,5,0,0
7161,-100,4,2,1,50,0,0
8061,-100,4,2,1,5,0,0
8211,-100,4,2,1,50,0,0
10311,-100,4,2,1,5,0,0
10461,-100,4,2,1,50,0,0
10611,-100,4,2,1,5,0,0
10761,-100,4,2,1,50,0,0
10911,-100,4,2,1,5,0,0
11061,-100,4,2,1,50,0,0
11511,-100,4,2,1,5,0,0
11661,-100,4,2,1,50,0,0
11811,-100,4,2,1,5,0,0
11961,-100,4,2,1,75,0,0
25536,-200,4,2,1,75,0,0
29136,-100,4,2,1,75,0,0
33936,-200,4,2,1,75,0,0
38736,-200,4,2,1,75,0,0
39036,-100,4,2,1,75,0,0
41136,-100,4,2,1,45,0,0
43536,-200,4,2,1,75,0,0
43836,-100,4,2,1,75,0,0
108336,-100,4,2,2,75,0,0
122736,-100,4,2,2,75,0,0
123036,-90.9090909090909,4,2,2,75,0,0
123336,-83.3333333333333,4,2,2,75,0,0
123636,-76.9230769230769,4,2,2,75,0,0
123936,-71.4285714285714,4,2,2,75,0,0
126336,-100,4,2,2,75,0,0
147936,-181.818181818182,4,2,2,75,0,0
150036,-100,4,2,1,75,0,0
171936,-100,4,1,2,75,0,0
175386,-100,4,1,2,75,0,0
186111,-100,4,1,2,75,0,0
187536,-100,4,2,2,75,0,0
190986,-100,4,2,2,35,0,0
193536,-100,4,2,1,75,0,0
210336,-133.333333333333,4,2,1,75,0,0
210561,-100,4,2,1,75,0,0
211536,-100,4,2,1,75,0,0
212736,-100,4,2,1,35,0,0
215136,-133.333333333333,4,2,1,35,0,0
215361,-100,4,2,1,35,0,0
219336,-100,4,2,1,50,0,0
219936,-100,4,1,1,75,0,0
229686,-100,4,2,1,75,0,0
231936,-100,4,2,1,50,0,0
234336,-133.333333333333,4,2,1,50,0,0
241536,-133.333333333333,4,2,1,35,0,0
242136,-133.333333333333,4,2,1,5,0,0
242211,-133.333333333333,4,2,1,35,0,0
244386,-133.333333333333,4,2,1,5,0,0
244461,-133.333333333333,4,2,1,35,0,0
244686,-133.333333333333,4,2,1,5,0,0
244761,-133.333333333333,4,2,1,35,0,0
244986,-133.333333333333,4,2,1,5,0,0
245061,-133.333333333333,4,2,1,35,0,0
245586,-133.333333333333,4,2,1,5,0,0
245661,-133.333333333333,4,2,1,35,0,0
245886,-133.333333333333,4,2,1,5,0,0
245961,-133.333333333333,4,2,1,35,0,0
246936,-133.333333333333,4,2,1,5,0,0
247011,-133.333333333333,4,2,1,35,0,0
249186,-133.333333333333,4,2,1,5,0,0
249261,-133.333333333333,4,2,1,35,0,0
249486,-133.333333333333,4,2,1,5,0,0
249561,-133.333333333333,4,2,1,35,0,0
249786,-133.333333333333,4,2,1,5,0,0
249861,-133.333333333333,4,2,1,35,0,0
250386,-133.333333333333,4,2,1,5,0,0
250461,-133.333333333333,4,2,1,35,0,0
250686,-133.333333333333,4,2,1,5,0,0
250761,-133.333333333333,4,2,1,35,0,0
251136,-240,4,2,1,15,0,0

[HitObjects]
55,86,2736,5,0,0:0:0:0:
55,86,2886,1,0,0:0:0:0:
141,133,3036,1,0,0:0:0:0:
218,71,3186,2,0,L|320:62,1,99
402,111,3486,1,0,0:0:0:0:
256,207,3636,1,0,0:0:0:0:
402,111,3786,1,0,0:0:0:0:
332,275,3936,5,0,0:0:0:0:
332,275,4086,1,0,0:0:0:0:
153,274,4236,2,0,L|55:283,1,99
166,185,4536,2,0,L|268:176,1,99
156,80,4836,1,0,0:0:0:0:
27,164,4986,1,0,0:0:0:0:
83,344,5136,5,0,0:0:0:0:
83,344,5286,1,0,0:0:0:0:
181,338,5436,2,0,L|284:332,1,99
213,200,5736,2,0,L|300:254,1,99
279,82,6036,2,0,L|319:176,1,99
473,49,6336,5,0,0:0:0:0:
473,49,6486,1,0,0:0:0:0:
348,160,6636,2,0,L|308:69,1,99
256,228,6936,2,0,L|171:176,1,99
233,368,7236,1,0,0:0:0:0:
69,369,7386,1,0,0:0:0:0:
365,317,7536,5,0,2:0:0:0:
365,317,7686,1,0,0:0:0:0:
445,258,7836,1,0,0:0:0:0:
411,164,7986,2,0,L|443:57,1,99
342,91,8286,1,0,0:0:0:0:
296,247,8436,1,0,0:0:0:0:
342,91,8586,1,0,0:0:0:0:
296,247,8736,5,0,0:0:0:0:
296,247,8886,1,0,0:0:0:0:
105,285,9036,2,0,L|3:304,1,99
122,170,9336,2,0,L|224:151,1,99
198,248,9636,1,0,0:0:0:0:
65,65,9786,1,0,0:0:0:0:
290,42,9936,5,0,0:0:0:0:
290,42,10086,1,0,0:0:0:0:
344,124,10236,2,0,L|385:221,1,99
219,151,10536,2,0,L|196:253,1,99
83,169,10836,2,0,L|4:240,1,99
190,353,11136,5,0,0:0:0:0:
190,353,11286,1,0,0:0:0:0:
30,184,11436,2,0,L|102:116,1,99
242,219,11736,2,0,L|262:122,1,99
417,139,12036,1,0,0:0:0:0:
316,27,12186,1,0,0:0:0:0:
323,278,12336,6,0,B|321:295|345:324|386:332|428:301|426:250|412:220|382:191|330:189|289:211|299:253|301:289|306:338|222:376|168:381|130:366|99:344|75:296|63:247|99:195|142:181,1,594,4|0,0:0|0:0,0:0:0:0:
256,192,13386,1,0,0:0:0:0:
30,151,13536,6,0,P|58:58|148:38,1,198,4|0,1:3|0:0,0:0:0:0:
357,169,13986,2,0,P|420:108|345:61,1,198,4|0,1:3|0:0,0:0:0:0:
163,137,14436,1,4,1:3:0:0:
262,302,14586,1,4,1:3:0:0:
490,205,14736,6,0,B|518:112|518:112|458:83|409:115,1,198,4|0,1:2|0:0,0:0:0:0:
321,244,15186,1,0,1:0:0:0:
105,138,15336,2,0,B|77:45|77:45|115:25|151:25|186:36|215:64|230:111|216:144,1,297,8|0,0:0|0:0,0:0:0:0:
167,302,15936,2,0,L|71:282,1,99,0|0,1:0|0:0,0:0:0:0:
364,329,16236,2,0,L|460:349,1,99,8|0,0:0|0:0,0:0:0:0:
420,108,16536,2,0,L|324:88,1,99,8|0,0:0|0:0,0:0:0:0:
145,155,16836,1,8,0:0:0:0:
339,210,16986,1,8,0:0:0:0:
210,57,17136,6,0,P|32:127|214:249,1,495,4|0,1:2|0:0,0:0:0:0:
271,159,18036,1,0,0:0:0:0:
194,361,18186,1,0,1:0:0:0:
408,326,18336,2,0,B|491:242|458:192|424:142|508:58,2,297,8|0|0,2:2|0:0|0:0,0:0:0:0:
104,326,19536,6,0,B|62:283|79:258|96:233|54:191,1,148.5,4|0,1:2|0:0,0:0:0:0:
38,144,19836,2,0,L|24:45,1,99,0|0,1:0|0:0,0:0:0:0:
214,81,20136,2,0,L|306:118,1,99,0|0,1:0|0:0,0:0:0:0:
166,270,20436,2,0,L|93:347,1,99,0|0,1:0|0:0,0:0:0:0:
38,144,20736,1,4,1:2:0:0:
236,194,20886,1,8,0:0:0:0:
24,45,21036,1,8,0:0:0:0:
306,118,21186,1,8,0:0:0:0:
38,144,21336,1,8,0:0:0:0:
46,167,21411,1,8,0:0:0:0:
56,189,21486,2,0,L|109:209,1,49.5,8|0,0:0|0:0,0:0:0:0:
306,118,21636,1,8,0:0:0:0:
327,126,21711,1,8,0:0:0:0:
352,135,21786,2,0,L|377:206,1,49.5
290,365,21936,5,4,1:2:0:0:
197,158,22236,1,0,0:0:0:0:
290,365,22536,1,2,0:0:0:0:
207,309,22686,1,0,0:0:0:0:
266,229,22836,1,0,1:0:0:0:
197,158,22986,1,0,1:0:0:0:
349,285,23136,5,10,0:0:0:0:
437,74,23436,1,0,0:0:0:0:
349,285,23736,1,2,0:0:0:0:
481,163,23886,1,0,0:0:0:0:
283,169,24036,1,0,1:0:0:0:
437,74,24186,1,0,0:0:0:0:
443,255,24336,5,6,1:2:0:0:
341,90,24486,1,0,0:0:0:0:
443,255,24636,1,0,0:0:0:0:
341,90,24786,1,0,0:0:0:0:
183,223,24936,1,2,0:0:0:0:
207,102,25086,1,0,0:0:0:0:
20,104,25236,1,0,1:0:0:0:
91,35,25386,1,0,0:0:0:0:
116,202,25536,5,6,1:2:0:0:
118,220,25686,1,0,0:0:0:0:
207,102,25836,2,0,L|237:60,2,49.5,0|0|2,0:0|0:0|0:0,0:0:0:0:
121,239,26286,1,0,0:0:0:0:
210,121,26436,1,0,1:0:0:0:
124,258,26586,1,0,1:0:0:0:
387,275,26736,5,6,1:2:0:0:
396,291,26886,1,0,0:0:0:0:
439,150,27036,2,0,L|453:100,2,49.5,0|0|2,0:0|0:0|0:0,0:0:0:0:
405,308,27486,1,0,0:0:0:0:
448,167,27636,1,0,0:0:0:0:
414,325,27786,1,0,0:0:0:0:
279,101,27936,5,6,1:2:0:0:
276,82,28086,1,0,0:0:0:0:
187,199,28236,2,0,L|156:240,2,49.5,0|0|2,0:0|0:0|0:0,0:0:0:0:
273,62,28686,1,0,0:0:0:0:
185,180,28836,1,0,1:0:0:0:
271,43,28986,1,0,1:0:0:0:
97,238,29136,6,0,L|56:338,1,99,10|0,0:0|0:0,0:0:0:0:
97,238,29436,1,0,1:0:0:0:
263,218,29586,2,0,L|370:203,1,99,8|2,0:0|0:0,0:0:0:0:
263,218,29886,1,0,1:0:0:0:
167,77,30036,1,8,0:2:0:0:
337,64,30186,1,0,0:2:0:0:
223,309,30336,5,4,1:2:0:0:
252,70,30636,1,0,0:0:0:0:
31,165,30936,1,2,0:0:0:0:
137,237,31086,1,0,0:0:0:0:
256,192,31236,1,0,1:2:0:0:
375,237,31386,1,0,0:0:0:0:
481,165,31536,5,10,0:0:0:0:
276,61,31836,1,0,0:0:0:0:
289,290,32136,1,2,0:0:0:0:
180,167,32286,1,0,0:0:0:0:
222,320,32436,1,0,1:0:0:0:
247,137,32586,1,0,1:0:0:0:
155,350,32736,5,6,0:0:0:0:
19,233,32886,1,0,0:0:0:0:
155,350,33036,1,0,0:0:0:0:
19,233,33186,1,0,0:0:0:0:
159,215,33336,1,2,0:0:0:0:
81,101,33486,1,0,0:0:0:0:
247,137,33636,1,0,1:0:0:0:
199,38,33786,1,0,1:0:0:0:
356,90,33936,5,6,0:0:0:0:
383,101,34086,1,0,0:0:0:0:
285,222,34236,2,0,L|265:271,2,49.5,0|0|2,0:0|0:0|0:0,0:0:0:0:
356,284,34686,1,0,0:0:0:0:
193,208,34836,1,0,0:0:0:0:
166,197,34986,1,0,0:0:0:0:
401,185,35136,5,2,0:0:0:0:
428,174,35286,1,0,0:0:0:0:
307,137,35436,2,0,L|259:116,2,49.5,0|0|2,0:0|0:0|0:0,0:0:0:0:
384,102,35886,1,0,0:0:0:0:
193,186,36036,1,0,0:0:0:0:
166,197,36186,1,0,0:0:0:0:
330,288,36336,5,6,0:0:0:0:
357,299,36486,1,0,0:0:0:0:
329,157,36636,2,0,L|320:97,2,49.5,0|0|2,0:0|0:0|0:0,0:0:0:0:
220,176,37086,1,0,0:0:0:0:
435,140,37236,1,0,0:0:0:0:
465,136,37386,1,0,0:0:0:0:
314,215,37536,5,2,0:0:0:0:
302,242,37686,1,0,0:0:0:0:
224,97,37836,2,0,L|204:49,2,49.5,0|0|2,0:0|0:0|0:0,0:0:0:0:
322,94,38286,1,0,0:0:0:0:
128,116,38436,1,0,0:0:0:0:
99,120,38586,1,0,0:0:0:0:
202,211,38736,6,0,P|228:237|245:272,1,74.25,4|0,1:2|0:0,0:0:0:0:
246,282,39036,1,0,1:0:0:0:
107,325,39186,1,0,1:0:0:0:
88,308,39261,1,0,1:0:0:0:
73,289,39336,1,0,1:0:0:0:
64,266,39411,1,0,1:0:0:0:
63,241,39486,1,0,1:0:0:0:
67,217,39561,1,0,1:0:0:0:
71,192,39636,1,0,1:0:0:0:
70,168,39711,1,0,1:0:0:0:
62,144,39786,1,0,1:0:0:0:
47,125,39861,1,0,1:0:0:0:
29,108,39936,5,12,1:2:0:0:
149,41,40086,1,0,0:0:0:0:
160,267,40236,1,12,1:2:0:0:
200,139,40386,1,0,0:0:0:0:
352,267,40536,1,12,1:2:0:0:
312,139,40686,1,0,0:0:0:0:
483,108,40836,1,12,1:2:0:0:
363,41,40986,1,0,0:0:0:0:
496,310,41136,5,6,1:2:0:0:
436,247,41286,1,2,0:0:0:0:
413,329,41436,1,2,0:0:0:0:
352,267,41586,1,2,0:0:0:0:
327,351,41736,1,2,0:0:0:0:
268,288,41886,1,2,0:0:0:0:
243,369,42036,1,2,0:0:0:0:
184,305,42186,1,2,0:0:0:0:
436,247,42336,5,2,0:2:0:0:
375,185,42486,1,2,0:0:0:0:
352,267,42636,1,2,0:0:0:0:
292,205,42786,1,2,0:0:0:0:
268,288,42936,1,2,0:0:0:0:
209,224,43086,1,2,0:0:0:0:
197,265,43161,1,2,0:0:0:0:
184,305,43236,1,2,0:0:0:0:
126,241,43386,1,2,0:0:0:0:
449,173,43536,6,0,P|455:136|447:100,1,74.25,4|0,1:2|0:0,0:0:0:0:
442,86,43836,1,0,0:0:0:0:
309,27,43986,1,0,1:0:0:0:
292,59,44061,1,0,1:0:0:0:
270,89,44136,1,0,1:0:0:0:
240,112,44211,1,0,1:0:0:0:
206,126,44286,1,0,1:0:0:0:
169,132,44361,1,0,1:0:0:0:
133,140,44436,1,0,1:0:0:0:
99,153,44511,1,0,1:0:0:0:
71,177,44586,1,0,1:0:0:0:
49,207,44661,1,0,1:0:0:0:
32,239,44736,5,12,0:0:0:0:
139,376,44886,1,0,0:0:0:0:
276,269,45036,1,12,0:0:0:0:
169,132,45186,1,0,0:0:0:0:
32,239,45336,1,12,0:0:0:0:
239,363,45486,1,0,0:0:0:0:
413,250,45636,1,12,0:0:0:0:
420,201,45711,1,8,0:0:0:0:
427,152,45786,1,8,0:0:0:0:
434,103,45861,1,8,0:0:0:0:
441,54,45936,5,4,1:2:0:0:
311,144,46086,1,0,0:0:0:0:
182,52,46236,2,0,B|148:36|148:36|117:40|117:40|81:24,2,99,8|0|0,0:0|0:0|0:0,0:0:0:0:
144,245,46686,1,0,1:0:0:0:
311,144,46836,2,0,P|349:111|366:47,1,99,8|0,0:0|0:0,0:0:0:0:
336,223,47136,5,0,1:0:0:0:
255,359,47286,1,0,0:0:0:0:
144,245,47436,2,0,B|106:251|106:251|83:272|83:272|45:279,2,99,8|0|0,0:0|0:0|0:0,0:0:0:0:
41,163,47886,1,0,1:0:0:0:
243,258,48036,1,8,0:0:0:0:
45,66,48186,1,8,0:0:0:0:
93,73,48261,1,8,0:0:0:0:
142,81,48336,6,0,P|188:81|245:64,1,99,0|0,1:0|0:0,0:0:0:0:
143,163,48636,1,8,0:0:0:0:
294,153,48786,2,0,P|330:127|367:80,1,99
344,226,49086,1,0,1:0:0:0:
441,95,49236,1,8,0:0:0:0:
505,244,49386,1,0,0:0:0:0:
311,24,49536,5,0,1:0:0:0:
238,170,49686,1,0,0:0:0:0:
148,33,49836,1,8,0:0:0:0:
328,170,49986,1,0,0:0:0:0:
96,239,50136,1,0,0:0:0:0:
317,328,50286,1,0,0:0:0:0:
328,170,50436,1,0,1:0:0:0:
186,239,50586,1,8,0:0:0:0:
459,259,50736,6,0,P|475:211|476:162,1,99,4|0,1:2|0:0,0:0:0:0:
376,244,51036,1,8,0:0:0:0:
363,94,51186,2,0,P|320:66|273:52,1,99,0|0,1:0|0:0,0:0:0:0:
328,170,51486,1,0,1:0:0:0:
178,144,51636,1,8,0:0:0:0:
231,287,51786,1,0,1:0:0:0:
363,94,51936,5,0,0:0:0:0:
178,144,52086,1,0,1:0:0:0:
335,254,52236,1,8,0:0:0:0:
150,304,52386,1,0,1:0:0:0:
57,92,52536,1,0,1:0:0:0:
283,121,52686,1,0,1:0:0:0:
5,258,52836,1,8,0:0:0:0:
231,287,52986,1,0,1:0:0:0:
231,287,53061,1,8,0:0:0:0:
231,287,53136,6,0,P|262:326|306:356,1,99,0|0,1:0|0:0,0:0:0:0:
238,194,53436,1,8,0:0:0:0:
395,237,53586,2,0,P|444:238|496:223,1,99,0|0,1:0|0:0,0:0:0:0:
328,170,53886,1,0,1:0:0:0:
471,124,54036,1,8,0:0:0:0:
337,34,54186,1,0,0:0:0:0:
148,93,54336,6,0,P|99:79|55:50,1,99,4|0,1:2|0:0,0:0:0:0:
233,113,54636,1,8,0:0:0:0:
99,230,54786,2,0,P|52:246|-1:248,1,99,0|0,2:2|0:0,0:0:0:0:
238,194,55086,1,0,1:0:0:0:
195,366,55236,1,8,0:0:0:0:
366,318,55386,1,0,0:0:0:0:
417,105,55536,6,0,P|443:62|483:28,1,99,4|0,1:2|0:0,0:0:0:0:
391,209,55836,1,8,0:0:0:0:
192,191,55986,2,0,P|165:149|150:98,1,99,0|0,2:2|0:0,0:0:0:0:
275,258,56286,1,0,1:0:0:0:
80,297,56436,1,8,0:0:0:0:
151,102,56586,1,0,0:0:0:0:
417,105,56736,6,0,P|453:139|478:185,1,99,4|0,1:2|0:0,0:0:0:0:
307,43,57036,1,8,0:0:0:0:
275,258,57186,1,0,0:0:0:0:
83,167,57336,1,0,1:0:0:0:
56,126,57411,1,0,1:0:0:0:
65,78,57486,1,0,1:0:0:0:
103,50,57561,1,0,1:0:0:0:
153,83,57636,1,0,1:0:0:0:
162,130,57711,1,0,1:0:0:0:
202,157,57786,1,0,1:0:0:0:
250,150,57861,1,0,1:0:0:0:
289,104,57936,6,0,B|338:113|338:113|361:161,1,99,4|0,1:2|0:0,0:0:0:0:
323,337,58236,2,0,B|274:328|274:328|251:280,1,99,0|0,1:2|0:0,0:0:0:0:
420,204,58536,2,0,B|411:253|411:253|363:276,1,99,0|0,1:2|0:0,0:0:0:0:
194,239,58836,2,0,B|203:190|203:190|251:167,1,99,0|0,1:2|0:0,0:0:0:0:
456,67,59136,6,0,L|492:162,1,99,12|0,0:0|0:0,0:0:0:0:
224,8,59436,2,0,L|260:103,1,99,8|0,0:0|0:0,0:0:0:0:
10,82,59736,2,0,L|46:177,1,99,12|0,0:0|0:0,0:0:0:0:
313,108,60036,1,8,0:0:0:0:
330,154,60111,1,8,0:0:0:0:
348,200,60186,1,8,0:0:0:0:
365,246,60261,1,8,0:0:0:0:
383,293,60336,5,4,0:0:0:0:
264,286,60486,1,0,1:0:0:0:
466,256,60636,1,10,0:0:0:0:
194,239,60786,2,0,P|141:243|93:256,1,99,0|2,1:0|0:0,0:0:0:0:
264,286,61086,1,0,1:0:0:0:
340,97,61236,1,10,0:0:0:0:
466,256,61386,1,0,1:0:0:0:
224,160,61536,5,2,0:0:0:0:
466,256,61686,1,0,1:0:0:0:
224,160,61836,2,0,P|174:147|121:142,1,99,10|0,0:0|1:0,0:0:0:0:
354,189,62136,2,0,P|390:152|421:108,1,99,2|0,0:0|1:0,0:0:0:0:
264,286,62436,2,0,P|277:335|299:384,1,99,10|0,0:0|1:0,0:0:0:0:
270,135,62736,5,4,0:0:0:0:
185,350,62886,1,0,1:0:0:0:
270,135,63036,2,0,P|240:93|203:55,1,99,10|0,0:0|1:0,0:0:0:0:
351,241,63336,2,0,P|402:236|454:223,1,99,2|0,0:0|1:0,0:0:0:0:
220,257,63636,2,0,P|198:304|184:356,1,99,10|0,0:0|1:0,0:0:0:0:
321,146,63936,5,4,0:0:0:0:
118,256,64086,1,0,1:0:0:0:
321,146,64236,2,0,P|325:95|321:42,1,99,10|0,0:0|1:0,0:0:0:0:
316,280,64536,2,0,P|358:309|406:332,1,99,2|0,0:0|1:0,0:0:0:0:
204,208,64836,1,10,0:0:0:0:
458,220,64986,1,8,1:2:0:0:
458,220,65061,1,8,0:0:0:0:
458,220,65136,5,6,0:0:0:0:
432,104,65286,1,0,1:0:0:0:
512,293,65436,1,10,0:0:0:0:
378,31,65586,2,0,P|316:17|275:17,1,99,0|2,1:0|0:0,0:0:0:0:
153,128,65886,1,0,1:0:0:0:
212,287,66036,1,10,0:0:0:0:
44,258,66186,1,0,1:0:0:0:
321,157,66336,5,2,0:0:0:0:
426,339,66486,1,0,1:0:0:0:
321,157,66636,2,0,P|283:116|240:89,1,99,10|0,0:0|1:0,0:0:0:0:
420,250,66936,2,0,P|474:237|519:213,1,99,2|0,0:0|1:0,0:0:0:0:
293,289,67236,2,0,P|276:342|274:393,1,99,10|0,0:0|1:0,0:0:0:0:
434,137,67536,5,4,1:2:0:0:
380,326,67686,1,0,0:0:0:0:
434,137,67836,1,0,1:0:0:0:
132,58,68136,1,0,1:0:0:0:
380,326,68436,1,0,1:0:0:0:
107,256,68736,5,0,1:0:0:0:
257,173,68886,1,0,1:0:0:0:
99,120,69036,1,8,0:0:0:0:
265,309,69186,1,8,2:2:0:0:
329,80,69336,1,8,0:0:0:0:
284,33,69411,1,8,0:0:0:0:
227,61,69486,1,8,0:0:0:0:
236,123,69561,1,8,0:0:0:0:
297,135,69636,1,8,0:0:0:0:
305,199,69711,1,8,0:0:0:0:
245,224,69786,1,8,0:0:0:0:
203,176,69861,1,8,0:0:0:0:
236,123,69936,5,4,0:0:0:0:
479,37,70086,1,0,1:0:0:0:
455,294,70236,2,0,L|400:383,1,99,10|0,0:0|1:0,0:0:0:0:
389,179,70536,2,0,L|415:84,1,99,2|0,0:0|1:0,0:0:0:0:
245,224,70836,2,0,P|204:251|152:274,1,99,10|0,0:0|1:0,0:0:0:0:
389,179,71136,6,0,P|437:180|493:192,1,99,2|0,0:0|1:0,0:0:0:0:
244,128,71436,2,0,P|205:98|167:55,1,99,10|0,0:0|1:0,0:0:0:0:
332,254,71736,2,0,P|345:300|351:357,1,99,2|0,0:0|1:0,0:0:0:0:
335,101,72036,2,0,P|351:54|380:6,1,99,10|0,0:0|1:0,0:0:0:0:
245,224,72336,5,4,0:0:0:0:
53,303,72486,1,0,1:0:0:0:
80,97,72636,1,10,0:0:0:0:
80,97,72786,1,0,1:0:0:0:
80,97,72936,1,2,0:0:0:0:
138,237,73086,1,0,1:0:0:0:
80,97,73236,2,0,P|101:56|140:18,1,99,10|0,0:0|1:0,0:0:0:0:
267,160,73536,5,4,0:0:0:0:
393,323,73686,1,0,1:0:0:0:
473,131,73836,1,10,0:0:0:0:
473,131,73986,1,0,1:0:0:0:
473,131,74136,1,2,0:0:0:0:
386,232,74286,1,0,1:0:0:0:
361,86,74436,1,10,0:0:0:0:
173,233,74586,1,0,1:0:0:0:
173,233,74661,1,0,0:0:0:0:
173,233,74736,5,4,0:0:0:0:
1,331,74886,1,0,1:0:0:0:
54,141,75036,2,0,L|83:40,1,99,10|0,0:0|1:0,0:0:0:0:
173,233,75336,2,0,L|202:334,1,99,2|0,0:0|1:0,0:0:0:0:
292,141,75636,2,0,P|309:95|338:46,1,99,10|0,0:0|1:0,0:0:0:0:
173,233,75936,6,0,P|132:259|79:281,1,99,2|0,0:0|1:0,0:0:0:0:
324,228,76236,2,0,P|372:230|428:243,1,99,10|0,0:0|1:0,0:0:0:0:
199,145,76536,2,0,P|160:114|124:71,1,99,2|0,0:0|1:0,0:0:0:0:
250,286,76836,2,0,P|262:333|267:389,1,99,10|0,0:0|1:0,0:0:0:0:
292,141,77136,5,4,0:0:0:0:
446,0,77286,1,0,1:0:0:0:
489,205,77436,1,10,0:0:0:0:
489,205,77586,1,0,1:0:0:0:
489,205,77736,1,2,0:0:0:0:
421,72,77886,1,0,1:0:0:0:
365,254,78036,2,0,P|328:302|295:340,1,99,10|0,0:0|1:0,0:0:0:0:
199,146,78336,5,4,0:0:0:0:
45,4,78486,1,0,1:0:0:0:
2,209,78636,1,10,0:0:0:0:
2,209,78786,1,0,1:0:0:0:
2,209,78936,1,2,0:0:0:0:
69,82,79086,1,8,1:2:0:0:
176,270,79236,1,10,0:0:0:0:
208,306,79311,1,8,0:0:0:0:
255,319,79386,1,8,0:0:0:0:
304,306,79461,1,8,0:0:0:0:
336,270,79536,5,4,0:0:0:0:
405,54,79686,1,0,1:0:0:0:
459,274,79836,2,0,L|474:379,1,99,10|0,0:0|1:0,0:0:0:0:
332,172,80136,2,0,L|317:67,1,99,2|0,0:0|1:0,0:0:0:0:
176,270,80436,6,0,P|146:308|87:328,1,99,10|0,0:0|1:0,0:0:0:0:
193,111,80736,2,0,P|239:97|299:116,1,99,2|0,0:0|1:0,0:0:0:0:
87,230,81036,2,0,P|41:213|4:163,1,99,10|0,0:0|1:0,0:0:0:0:
242,195,81336,2,0,P|268:235|269:297,1,99,2|0,0:0|1:0,0:0:0:0:
97,132,81636,2,0,P|98:83|134:32,1,99,10|0,0:0|1:0,0:0:0:0:
363,63,81936,5,4,0:0:0:0:
363,63,82086,1,0,1:0:0:0:
510,254,82236,1,10,0:0:0:0:
510,254,82386,1,0,1:0:0:0:
271,285,82536,1,2,0:0:0:0:
414,177,82686,1,0,1:0:0:0:
176,270,82836,2,0,P|128:264|80:225,1,99,10|0,0:0|1:0,0:0:0:0:
363,63,83136,5,6,0:0:0:0:
363,63,83286,1,0,1:0:0:0:
124,94,83436,1,10,0:0:0:0:
124,94,83586,1,0,1:0:0:0:
271,285,83736,1,2,0:0:0:0:
249,108,83886,1,0,1:0:0:0:
110,308,84036,1,10,0:0:0:0:
353,329,84186,1,8,1:2:0:0:
353,329,84261,1,8,0:0:0:0:
353,329,84336,5,4,0:0:0:0:
505,202,84486,1,0,1:0:0:0:
363,63,84636,2,0,L|266:30,1,99,10|0,0:0|1:0,0:0:0:0:
320,253,84936,2,0,L|417:286,1,99,2|0,0:0|1:0,0:0:0:0:
137,129,85236,6,0,P|84:118|33:139,1,99,10|0,0:0|1:0,0:0:0:0:
246,238,85536,2,0,P|295:215|324:168,1,99,2|0,0:0|1:0,0:0:0:0:
94,215,85836,2,0,P|67:262|71:317,1,99,10|0,0:0|1:0,0:0:0:0:
230,144,86136,2,0,P|224:90|188:48,1,99,2|0,0:0|1:0,0:0:0:0:
162,282,86436,2,0,P|198:322|252:335,1,99,10|0,0:0|1:0,0:0:0:0:
482,279,86736,5,4,0:0:0:0:
482,279,86886,1,0,1:0:0:0:
399,54,87036,1,10,0:0:0:0:
399,54,87186,1,0,1:0:0:0:
246,238,87336,1,2,0:0:0:0:
412,177,87486,1,0,1:0:0:0:
159,168,87636,2,0,P|134:221|138:262,1,99,10|0,0:0|1:0,0:0:0:0:
350,347,87936,5,0,1:0:0:0:
354,322,88011,1,0,1:0:0:0:
358,298,88086,1,0,1:0:0:0:
362,273,88161,1,0,1:0:0:0:
330,236,88236,5,0,1:0:0:0:
325,211,88311,1,0,1:0:0:0:
321,187,88386,1,0,1:0:0:0:
317,162,88461,1,0,1:0:0:0:
349,124,88536,6,0,L|369:25,1,99,8|0,0:0|0:0,0:0:0:0:
163,260,88836,2,0,L|143:359,1,99,8|0,0:0|0:0,0:0:0:0:
349,124,89136,5,4,1:2:0:0:
199,111,89286,1,0,1:0:0:0:
440,90,89436,1,10,0:0:0:0:
108,145,89586,2,0,P|91:196|88:244,1,99,0|2,1:0|0:0,0:0:0:0:
303,44,89886,1,0,1:0:0:0:
404,239,90036,1,10,0:0:0:0:
209,340,90186,1,0,1:0:0:0:
108,145,90336,5,2,1:2:0:0:
295,140,90486,1,0,1:0:0:0:
108,145,90636,2,0,P|91:196|88:244,1,99,10|0,0:0|1:0,0:0:0:0:
256,220,90936,2,0,P|266:272|288:315,1,99,2|0,0:0|1:0,0:0:0:0:
421,210,91236,1,10,0:0:0:0:
267,52,91386,1,0,1:0:0:0:
69,206,91536,5,4,1:2:0:0:
245,136,91686,1,0,1:0:0:0:
69,206,91836,2,0,P|70:260|84:307,1,99,10|0,0:0|1:0,0:0:0:0:
243,217,92136,2,0,P|271:263|306:297,1,99,2|0,0:0|1:0,0:0:0:0:
397,150,92436,1,10,0:0:0:0:
156,51,92586,1,0,1:0:0:0:
25,278,92736,5,4,1:2:0:0:
209,114,92886,1,0,1:0:0:0:
25,278,93036,2,0,P|51:343|88:394,1,99,10|0,0:0|1:0,0:0:0:0:
238,228,93336,2,0,P|293:272|351:297,1,99,2|0,0:0|1:0,0:0:0:0:
396,78,93636,1,10,0:0:0:0:
45,50,93786,1,0,1:0:0:0:
45,50,93861,1,8,0:0:0:0:
45,50,93936,5,4,1:2:0:0:
97,198,94086,1,0,1:0:0:0:
180,52,94236,1,10,0:0:0:0:
238,228,94386,2,0,P|246:281|238:332,1,99,0|2,1:0|0:0,0:0:0:0:
94,368,94686,1,0,1:0:0:0:
181,149,94836,1,8,0:0:0:0:
348,315,94986,1,0,1:0:0:0:
435,96,95136,5,2,1:2:0:0:
247,76,95286,1,0,1:0:0:0:
435,96,95436,2,0,P|455:143|466:198,1,99,10|0,0:0|1:0,0:0:0:0:
291,253,95736,2,0,P|271:206|260:151,1,99,2|0,0:0|1:0,0:0:0:0:
435,96,96036,1,10,0:0:0:0:
348,315,96186,1,0,1:0:0:0:
193,118,96336,5,4,1:2:0:0:
193,118,96486,1,0,1:0:0:0:
455,95,96636,2,0,P|462:145|458:201,1,99,10|0,0:0|1:0,0:0:0:0:
251,276,96936,2,0,P|243:225|247:169,1,99,2|0,0:0|1:0,0:0:0:0:
455,95,97236,1,10,0:0:0:0:
350,340,97386,1,0,1:0:0:0:
170,96,97536,5,4,1:2:0:0:
170,96,97686,1,0,1:0:0:0:
474,99,97836,2,0,P|467:149|449:202,1,99,10|0,0:0|1:0,0:0:0:0:
207,287,98136,1,2,0:0:0:0:
409,39,98286,1,8,0:0:0:0:
103,61,98436,1,10,0:0:0:0:
84,120,98511,1,8,0:0:0:0:
74,181,98586,1,8,0:0:0:0:
71,242,98661,1,8,0:0:0:0:
76,304,98736,5,4,1:2:0:0:
196,180,98886,1,0,1:0:0:0:
290,364,99036,1,10,0:0:0:0:
452,195,99186,2,0,P|466:148|475:93,1,99,0|2,1:0|0:0,0:0:0:0:
310,55,99486,1,0,1:0:0:0:
103,61,99636,1,10,0:0:0:0:
281,175,99786,1,0,1:0:0:0:
74,181,99936,5,2,1:2:0:0:
74,181,100086,1,0,1:0:0:0:
246,321,100236,2,0,P|304:334|355:333,1,99,10|0,0:0|1:0,0:0:0:0:
351,112,100536,2,0,P|293:99|242:100,1,99,2|0,0:0|1:0,0:0:0:0:
74,181,100836,1,10,0:0:0:0:
301,218,100986,1,0,1:0:0:0:
74,212,101136,5,4,1:2:0:0:
74,212,101286,1,0,1:0:0:0:
272,346,101436,2,0,P|321:345|369:333,1,99,10|0,0:0|1:0,0:0:0:0:
332,79,101736,2,0,P|283:72|234:75,1,99,2|0,0:0|1:0,0:0:0:0:
74,212,102036,1,10,0:0:0:0:
328,210,102186,1,0,1:0:0:0:
81,243,102336,5,4,1:2:0:0:
81,243,102486,1,0,1:0:0:0:
208,56,102636,2,0,P|256:49|306:52,1,99,10|0,0:0|1:0,0:0:0:0:
398,327,102936,2,0,P|354:351|307:364,1,99,2|0,0:0|1:0,0:0:0:0:
92,272,103236,1,10,0:0:0:0:
353,194,103386,1,0,1:0:0:0:
402,197,103461,1,8,0:0:0:0:
449,209,103536,5,4,1:2:0:0:
272,222,103686,1,0,1:0:0:0:
481,123,103836,1,10,0:0:0:0:
208,56,103986,2,0,P|158:62|100:76,1,99,0|2,1:0|0:0,0:0:0:0:
100,286,104286,1,0,1:0:0:0:
290,338,104436,1,10,0:0:0:0:
213,146,104586,1,0,1:0:0:0:
402,197,104736,5,2,1:2:0:0:
247,244,104886,1,0,1:0:0:0:
402,197,105036,2,0,P|406:141|399:86,1,99,10|0,0:0|1:0,0:0:0:0:
213,146,105336,2,0,P|202:90|181:39,1,99,2|0,0:0|1:0,0:0:0:0:
17,145,105636,1,10,0:0:0:0:
177,314,105786,1,0,1:0:0:0:
395,234,105936,5,4,1:2:0:0:
233,239,106086,1,0,1:0:0:0:
395,234,106236,1,0,1:0:0:0:
213,146,106536,1,0,1:0:0:0:
37,84,106836,1,0,1:0:0:0:
148,289,107136,5,0,1:0:0:0:
148,289,107286,1,0,1:0:0:0:
148,48,107436,1,8,0:0:0:0:
451,127,107586,1,8,0:0:0:0:
148,48,107736,1,8,0:0:0:0:
114,101,107811,1,8,0:0:0:0:
117,164,107886,1,8,0:0:0:0:
157,213,107961,1,8,0:0:0:0:
218,230,108036,1,8,0:0:0:0:
258,278,108111,1,8,0:0:0:0:
319,294,108186,1,8,0:0:0:0:
378,272,108261,1,8,0:0:0:0:
413,219,108336,5,4,1:2:0:0:
451,127,108486,1,0,1:2:0:0:
451,127,108636,1,10,0:0:0:0:
156,35,108786,1,0,1:2:0:0:
428,28,108936,1,2,0:0:0:0:
352,97,109086,1,0,1:2:0:0:
352,97,109236,1,10,0:0:0:0:
166,126,109386,1,0,1:2:0:0:
474,226,109536,1,2,0:0:0:0:
451,127,109686,1,0,1:2:0:0:
451,127,109836,1,10,0:0:0:0:
156,35,109986,5,0,1:0:0:0:
352,97,110136,1,2,0:0:0:0:
166,126,110286,1,0,1:0:0:0:
362,188,110436,1,10,0:0:0:0:
177,218,110586,1,0,1:0:0:0:
373,280,110736,5,4,0:0:0:0:
264,204,110886,1,0,1:0:0:0:
264,204,111036,1,10,0:0:0:0:
365,48,111186,1,0,1:0:0:0:
262,319,111336,1,2,0:0:0:0:
264,204,111486,1,0,1:0:0:0:
264,204,111636,1,10,0:0:0:0:
278,28,111786,1,0,1:0:0:0:
373,280,111936,1,2,0:0:0:0:
264,204,112086,1,0,1:0:0:0:
264,204,112236,1,10,0:0:0:0:
278,28,112386,5,0,1:0:0:0:
161,262,112536,1,2,0:0:0:0:
365,48,112686,1,0,1:0:0:0:
262,319,112836,1,10,0:0:0:0:
192,49,112986,1,0,1:0:0:0:
49,273,113136,5,4,0:0:0:0:
100,168,113286,1,0,1:0:0:0:
100,168,113436,1,10,0:0:0:0:
138,327,113586,1,0,1:0:0:0:
33,75,113736,1,2,0:0:0:0:
100,168,113886,1,0,1:0:0:0:
100,168,114036,1,10,0:0:0:0:
54,379,114186,1,0,1:0:0:0:
212,160,114336,1,2,0:0:0:0:
100,168,114486,1,0,1:0:0:0:
100,168,114636,1,10,0:0:0:0:
370,37,114786,5,0,1:0:0:0:
330,302,114936,1,2,0:0:0:0:
274,50,115086,1,0,1:0:0:0:
421,338,115236,1,10,0:0:0:0:
461,75,115386,1,0,1:0:0:0:
237,333,115536,5,4,0:0:0:0:
216,219,115686,1,0,1:0:0:0:
216,219,115836,1,10,0:0:0:0:
366,216,115986,1,0,1:0:0:0:
87,315,116136,1,2,0:0:0:0:
135,209,116286,1,0,1:0:0:0:
135,209,116436,1,10,0:0:0:0:
330,302,116586,1,0,1:0:0:0:
0,193,116736,1,2,0:0:0:0:
100,133,116886,1,0,1:0:0:0:
100,133,117036,1,10,0:0:0:0:
237,333,117186,5,0,1:0:0:0:
349,36,117336,1,2,0:0:0:0:
392,307,117486,1,0,1:0:0:0:
193,62,117636,1,10,0:0:0:0:
446,160,117786,1,0,1:0:0:0:
136,209,117936,6,0,P|92:189|45:160,1,99,4|0,0:0|1:0,0:0:0:0:
193,62,118236,1,10,0:0:0:0:
305,260,118386,2,2,P|310:307|307:363,1,99,0|2,1:0|0:0,0:0:0:0:
149,284,118686,5,0,1:0:0:0:
398,280,118836,1,10,0:0:0:0:
348,35,118986,2,2,P|304:58|265:88,1,99,0|2,1:0|0:0,0:0:0:0:
221,312,119286,2,2,P|264:288|304:259,1,99,0|10,1:0|0:0,0:0:0:0:
123,114,119586,5,0,1:0:0:0:
376,175,119736,2,2,P|421:195|463:221,1,99,2|0,0:0|1:0,0:0:0:0:
136,209,120036,2,2,P|90:188|48:162,1,99,2|0,0:0|1:0,0:0:0:0:
298,164,120336,5,4,0:0:0:0:
488,106,120486,1,0,1:0:0:0:
444,299,120636,1,10,0:0:0:0:
298,164,120786,2,2,P|283:116|275:67,1,99,0|2,1:0|0:0,0:0:0:0:
499,23,121086,5,0,1:0:0:0:
509,351,121236,1,10,0:0:0:0:
220,195,121386,2,2,P|194:152|175:107,1,99,0|2,1:0|2:0,2:0:0:0:
399,211,121686,2,2,P|425:254|444:299,1,99,0|10,1:0|2:0,2:0:0:0:
225,282,121986,5,0,1:0:0:0:
334,98,122136,2,2,P|377:72|422:53,1,99,2|0,0:0|1:0,2:0:0:0:
287,340,122436,2,2,P|244:366|199:385,1,99,10|0,0:0|1:0,2:0:0:0:
61,209,122736,6,2,B|46:151|64:111|64:111|105:140,1,148.5,4|0,1:2|0:0,0:0:0:0:
137,205,123036,2,2,B|137:270|168:308|168:308|203:265,1,163.350004985047,4|0,1:2|0:0,0:0:0:0:
213,193,123336,2,2,B|232:123|274:92|274:92|300:147,1,178.199994561768,4|0,1:2|0:0,0:0:0:0:
280,236,123636,2,2,B|319:303|372:323|372:323|383:258,1,193.049991162873,4|0,1:2|0:0,0:0:0:0:
378,179,123936,1,4,1:2:0:0:
256,192,124011,12,0,126186,1:0:0:0:
256,112,126336,5,8,0:0:0:0:
256,112,126486,1,8,0:0:0:0:
150,212,128136,6,2,B|213:185|273:140|273:140|238:243|238:243|298:198|362:170,1,396,0|4,0:0|0:0,0:0:0:0:
256,192,128811,12,0,130986,1:0:0:0:
256,112,131136,5,8,0:0:0:0:
256,112,131286,1,8,0:0:0:0:
216,317,132336,5,0,1:0:0:0:
256,288,132486,1,0,1:0:0:0:
296,317,132636,1,0,1:0:0:0:
336,288,132786,1,0,1:0:0:0:
176,288,132936,5,8,0:0:0:0:
376,259,133086,1,8,0:0:0:0:
136,259,133236,1,8,0:0:0:0:
416,230,133386,1,8,0:0:0:0:
96,230,133536,6,2,L|12:177,1,99,4|0,0:0|1:0,0:0:0:0:
2,77,133836,1,8,0:0:0:0:
227,142,133986,2,2,B|300:146|315:105|330:64|402:68,1,198,0|0,1:2|1:0,0:0:0:0:
470,285,134436,1,8,0:0:0:0:
240,293,134586,1,0,1:0:0:0:
470,285,134736,1,0,0:2:0:0:
470,285,134886,1,0,1:0:0:0:
240,293,135036,1,8,0:0:0:0:
439,204,135186,5,0,1:0:0:0:
439,197,135336,1,0,1:0:0:0:
439,191,135486,1,0,1:0:0:0:
341,208,135636,1,8,0:0:0:0:
439,184,135786,5,0,1:0:0:0:
438,178,135936,1,0,1:0:0:0:
438,172,136086,1,0,1:0:0:0:
342,199,136236,1,8,0:0:0:0:
437,165,136386,5,0,1:0:0:0:
436,159,136536,1,0,1:0:0:0:
435,153,136686,1,0,1:0:0:0:
342,189,136836,1,8,0:0:0:0:
433,146,136986,5,0,1:0:0:0:
432,140,137136,1,0,1:0:0:0:
251,154,137286,5,0,1:0:0:0:
467,16,137436,1,8,0:0:0:0:
275,57,137586,1,0,1:0:0:0:
512,224,137736,1,0,0:0:0:0:
227,251,137886,1,0,1:0:0:0:
490,119,138036,1,8,0:0:0:0:
216,145,138186,1,0,1:0:0:0:
400,314,138336,6,2,L|495:359,1,99,4|0,1:2|0:0,0:0:0:0:
510,259,138636,1,8,0:0:0:0:
268,248,138786,2,2,B|196:244|181:285|166:326|93:322,1,198,0|0,1:2|1:0,0:0:0:0:
27,99,139236,1,8,0:0:0:0:
251,154,139386,1,0,1:0:0:0:
27,99,139536,1,0,0:0:0:0:
27,99,139686,1,0,1:0:0:0:
251,154,139836,1,8,0:0:0:0:
16,200,139986,5,0,1:0:0:0:
16,208,140136,1,0,1:0:0:0:
17,216,140286,1,0,1:0:0:0:
112,189,140436,1,8,0:0:0:0:
18,225,140586,5,0,1:0:0:0:
19,233,140736,1,4,1:2:0:0:
21,241,140886,1,0,1:0:0:0:
112,204,141036,1,8,0:0:0:0:
22,249,141186,5,0,1:0:0:0:
25,257,141336,1,0,1:0:0:0:
27,265,141486,1,0,1:0:0:0:
114,219,141636,1,8,0:0:0:0:
30,273,141786,5,0,1:0:0:0:
339,315,141936,2,2,P|447:306|464:275,1,148.5,0|0,0:0|0:0,0:0:0:0:
385,105,142236,2,2,P|330:87|243:116,1,148.5,8|0,0:0|0:0,0:0:0:0:
126,278,142536,2,2,P|181:296|268:267,1,148.5,0|0,0:0|0:0,0:0:0:0:
173,69,142836,2,2,P|107:59|75:69,1,99,8|0,0:0|1:0,0:0:0:0:
46,107,143061,1,0,0:0:0:0:
142,189,143136,6,2,L|260:193,1,99,4|0,0:0|1:0,0:0:0:0:
58,187,143436,1,8,0:0:0:0:
328,195,143586,2,2,P|397:250|321:297,1,198,0|0,1:0|1:0,0:0:0:0:
155,304,144036,1,8,0:0:0:0:
303,71,144186,1,0,1:0:0:0:
142,189,144336,6,2,L|240:192,1,99,0|0,0:0|1:0,0:0:0:0:
48,185,144636,1,8,0:0:0:0:
348,199,144786,2,2,P|417:254|373:337,1,198,0|0,1:0|1:0,0:0:0:0:
145,314,145236,1,8,0:0:0:0:
312,61,145386,1,0,1:0:0:0:
142,189,145536,6,2,L|240:192,1,99,4|0,0:0|1:0,0:0:0:0:
38,183,145836,1,8,0:0:0:0:
338,197,145986,2,2,P|407:252|397:359,1,198,0|0,1:0|1:0,0:0:0:0:
135,324,146436,1,8,0:0:0:0:
322,51,146586,1,0,1:0:0:0:
142,189,146736,5,0,1:2:0:0:
166,189,146811,1,0,1:2:0:0:
191,190,146886,1,0,1:2:0:0:
216,191,146961,1,0,1:2:0:0:
259,167,147036,5,0,1:2:0:0:
282,176,147111,1,0,1:2:0:0:
305,186,147186,1,0,1:2:0:0:
328,195,147261,1,0,1:2:0:0:
376,186,147336,5,0,1:2:0:0:
395,202,147411,1,0,1:2:0:0:
413,220,147486,1,0,1:2:0:0:
431,236,147561,1,0,1:2:0:0:
479,243,147636,5,8,0:0:0:0:
456,201,147711,1,8,0:0:0:0:
434,155,147786,1,8,0:0:0:0:
410,112,147861,1,0,0:0:0:0:
386,69,147936,6,0,B|313:87|313:87|153:185|153:185|124:226|165:231|165:231|155:241|93:229|108:285|58:315|58:315|32:301|-5:246|6:218|6:218|23:193|57:208|88:201|115:185|122:157|127:129|147:104,1,762.300023263551,4|0,0:0|0:0,0:0:0:0:
208,37,150186,1,0,1:0:0:0:
208,37,150261,1,0,1:0:0:0:
208,37,150336,1,8,0:0:0:0:
352,171,150486,1,8,0:0:0:0:
93,327,151536,5,12,0:0:0:0:
314,308,151686,1,0,1:0:0:0:
314,308,151836,1,0,1:0:0:0:
314,308,151986,1,0,1:0:0:0:
451,67,152136,1,8,0:0:0:0:
405,86,152211,1,8,0:0:0:0:
356,95,152286,1,8,0:0:0:0:
308,88,152361,1,8,0:0:0:0:
263,67,152436,1,8,0:0:0:0:
218,47,152511,1,8,0:0:0:0:
169,40,152586,1,8,0:0:0:0:
120,48,152661,1,8,0:0:0:0:
75,67,152736,5,4,1:2:0:0:
17,244,152886,1,0,1:2:0:0:
169,355,153036,1,10,0:0:0:0:
321,245,153186,1,0,1:2:0:0:
263,67,153336,1,2,0:0:0:0:
45,155,153486,1,0,1:2:0:0:
169,355,153636,1,10,0:0:0:0:
292,155,153786,6,0,L|390:106,1,99,0|2,1:0|0:0,0:0:0:0:
17,244,154086,2,0,L|115:195,1,99,0|10,1:0|0:0,0:0:0:0:
355,217,154386,2,0,L|453:168,1,99,0|2,1:0|0:0,0:0:0:0:
93,300,154686,2,0,L|191:251,1,99,0|10,1:0|0:0,0:0:0:0:
352,336,154986,1,0,1:0:0:0:
352,336,155136,1,4,1:2:0:0:
170,67,155286,5,0,1:0:0:0:
244,205,155436,1,10,0:0:0:0:
327,72,155586,1,0,1:0:0:0:
87,200,155736,1,2,0:0:0:0:
400,145,155886,1,0,1:0:0:0:
77,101,156036,1,10,0:0:0:0:
343,233,156186,1,0,1:0:0:0:
343,233,156336,1,4,1:2:0:0:
170,67,156486,5,0,1:0:0:0:
427,46,156636,1,10,0:0:0:0:
269,304,156786,1,0,1:0:0:0:
296,25,156936,1,2,0:0:0:0:
44,109,157086,1,0,1:0:0:0:
315,127,157236,1,10,0:0:0:0:
63,211,157386,1,0,1:0:0:0:
63,211,157461,1,8,0:0:0:0:
63,211,157536,5,6,1:2:0:0:
152,355,157686,1,0,1:0:0:0:
321,374,157836,1,10,0:0:0:0:
440,253,157986,1,0,1:0:0:0:
417,84,158136,1,2,0:0:0:0:
208,41,158286,1,0,1:0:0:0:
152,257,158436,1,10,0:0:0:0:
309,84,158586,6,0,L|381:3,1,99,0|2,1:0|0:0,0:0:0:0:
103,187,158886,2,0,L|168:113,1,99,0|10,1:0|0:0,0:0:0:0:
352,158,159186,2,0,L|424:77,1,99,0|2,1:0|0:0,0:0:0:0:
152,257,159486,2,0,L|217:183,1,99,0|10,1:0|0:0,0:0:0:0:
395,232,159786,1,0,1:0:0:0:
395,232,159936,1,6,1:2:0:0:
113,343,160086,5,0,1:0:0:0:
271,331,160236,1,10,0:0:0:0:
53,197,160386,1,0,1:0:0:0:
309,178,160536,1,2,0:0:0:0:
113,343,160686,1,0,1:0:0:0:
174,95,160836,1,10,0:0:0:0:
358,271,160986,1,0,1:0:0:0:
358,271,161136,1,6,1:2:0:0:
103,260,161286,5,0,1:0:0:0:
241,45,161436,1,10,0:2:0:0:
358,271,161586,1,0,1:0:0:0:
358,271,161736,1,2,1:2:0:0:
121,178,161886,1,8,0:2:0:0:
321,19,162036,1,8,0:0:0:0:
379,13,162111,1,8,0:0:0:0:
435,31,162186,1,8,0:0:0:0:
479,71,162261,1,8,0:0:0:0:
503,125,162336,5,6,1:2:0:0:
442,282,162486,1,0,1:0:0:0:
337,151,162636,1,10,0:0:0:0:
349,357,162786,1,0,1:0:0:0:
164,264,162936,1,2,0:0:0:0:
390,217,163086,1,0,1:0:0:0:
133,344,163236,1,10,0:0:0:0:
152,57,163386,6,0,L|257:28,1,99,0|2,1:0|0:0,0:0:0:0:
53,212,163686,2,0,L|158:183,1,99,0|10,1:0|0:0,0:0:0:0:
337,151,163986,2,0,L|442:122,1,99,0|2,1:0|0:0,0:0:0:0:
238,306,164286,2,0,L|343:277,1,99,0|10,1:0|0:0,0:0:0:0:
512,254,164586,1,0,1:2:0:0:
237,139,164736,1,4,1:2:0:0:
98,330,164886,5,0,1:0:0:0:
279,210,165036,1,10,0:0:0:0:
85,114,165186,1,0,1:0:0:0:
220,318,165336,1,2,0:0:0:0:
486,245,165486,1,0,1:0:0:0:
155,212,165636,1,10,0:0:0:0:
442,123,165786,1,0,1:0:0:0:
442,123,165936,1,4,1:2:0:0:
214,104,166086,5,0,1:2:0:0:
403,206,166236,1,10,0:0:0:0:
220,318,166386,1,0,1:2:0:0:
359,84,166536,1,2,0:0:0:0:
55,148,166686,1,0,1:2:0:0:
403,206,166836,1,10,0:0:0:0:
56,283,166986,1,8,1:2:0:0:
56,283,167061,1,8,0:0:0:0:
56,283,167136,5,4,1:2:0:0:
173,156,167286,1,0,1:0:0:0:
220,318,167436,1,10,0:0:0:0:
299,126,167586,1,0,1:0:0:0:
426,290,167736,1,2,0:0:0:0:
255,220,167886,1,0,1:0:0:0:
401,106,168036,1,10,0:0:0:0:
199,58,168186,6,0,L|95:74,1,99,0|2,1:0|0:0,0:0:0:0:
353,205,168486,2,0,L|249:221,1,99,0|10,1:0|0:0,0:0:0:0:
115,216,168786,2,0,L|11:232,1,99,0|2,1:0|0:0,0:0:0:0:
269,363,169086,2,0,L|165:379,1,99,0|2,1:0|0:0,0:0:0:0:
31,374,169386,1,0,1:0:0:0:
399,331,169536,1,6,1:2:0:0:
187,131,169686,5,0,1:0:0:0:
355,152,169836,1,10,0:0:0:0:
187,248,169986,1,0,1:0:0:0:
355,35,170136,1,2,0:0:0:0:
295,243,170286,1,0,1:0:0:0:
247,40,170436,1,10,0:0:0:0:
450,92,170586,1,0,1:0:0:0:
139,34,170736,5,0,1:0:0:0:
93,51,170811,1,0,1:0:0:0:
57,85,170886,1,0,1:0:0:0:
37,130,170961,1,0,1:0:0:0:
35,179,171036,1,0,1:0:0:0:
83,192,171111,1,0,1:0:0:0:
118,227,171186,1,0,1:0:0:0:
132,273,171261,1,0,1:0:0:0:
123,321,171336,2,0,L|154:366,3,49.5,8|0|0|0,1:2|1:2|1:2|1:2,1:2:0:0:
229,261,171636,2,0,L|235:207,3,49.5,8|0|0|0,1:2|1:2|1:2|1:2,1:2:0:0:
323,335,171936,5,2,1:2:0:0:
372,330,172011,1,0,0:0:0:0:
417,310,172086,1,0,0:0:0:0:
453,277,172161,1,0,0:0:0:0:
477,234,172236,1,10,1:2:0:0:
486,185,172311,1,0,0:0:0:0:
480,136,172386,1,0,0:0:0:0:
458,92,172461,1,0,0:0:0:0:
423,57,172536,1,2,1:2:0:0:
380,34,172611,1,0,0:0:0:0:
331,27,172686,1,0,0:0:0:0:
280,62,172761,1,0,0:0:0:0:
222,82,172836,1,10,1:2:0:0:
160,87,172911,1,0,0:0:0:0:
100,75,172986,6,0,L|35:68,3,49.5,0|0|2|0,0:0|0:0|1:2|0:0,0:0:0:0:
258,223,173286,2,0,L|323:230,3,49.5,0|0|10|0,0:0|0:0|1:2|0:0,0:0:0:0:
123,233,173586,2,0,L|58:240,3,49.5,0|0|2|0,0:0|0:0|1:2|0:0,0:0:0:0:
291,151,173886,2,0,L|356:144,3,49.5,0|0|10|0,0:0|0:0|1:2|0:0,0:0:0:0:
83,153,174186,2,0,L|23:152,1,49.5
193,266,174336,2,0,L|192:324,1,49.5,6|0,1:2|0:0,0:0:0:0:
343,320,174486,5,0,0:0:0:0:
399,303,174561,1,0,0:0:0:0:
448,270,174636,1,10,1:2:0:0:
485,223,174711,1,0,0:0:0:0:
505,168,174786,1,0,0:0:0:0:
507,109,174861,1,0,0:0:0:0:
490,52,174936,1,2,1:2:0:0:
453,101,175011,1,0,0:0:0:0:
401,133,175086,1,0,0:0:0:0:
340,145,175161,1,0,0:0:0:0:
280,135,175236,1,10,1:2:0:0:
227,104,175311,1,0,0:0:0:0:
189,55,175386,2,0,L|156:7,3,49.5,0|0|2|0,0:0|0:0|1:2|1:2,0:0:0:0:
53,72,175686,5,0,0:0:0:0:
60,120,175761,1,0,0:0:0:0:
68,169,175836,1,10,1:2:0:0:
76,218,175911,1,0,0:0:0:0:
83,267,175986,1,0,0:0:0:0:
91,316,176061,1,0,0:0:0:0:
99,365,176136,1,2,1:2:0:0:
149,334,176211,1,0,0:0:0:0:
205,315,176286,1,0,0:0:0:0:
264,309,176361,1,0,0:0:0:0:
323,316,176436,2,0,L|393:336,1,49.5,10|0,1:2|0:0,0:0:0:0:
481,202,176586,1,8,1:2:0:0:
463,135,176661,1,8,1:2:0:0:
445,68,176736,5,6,1:2:0:0:
401,43,176811,1,0,0:0:0:0:
355,27,176886,1,0,0:0:0:0:
306,20,176961,1,0,0:0:0:0:
256,21,177036,1,10,1:2:0:0:
208,30,177111,1,0,0:0:0:0:
162,49,177186,1,0,0:0:0:0:
120,74,177261,1,0,0:0:0:0:
83,107,177336,1,2,1:2:0:0:
52,146,177411,1,0,0:0:0:0:
29,190,177486,1,0,0:0:0:0:
76,201,177561,1,0,0:0:0:0:
113,234,177636,1,10,1:2:0:0:
130,280,177711,1,0,0:0:0:0:
125,328,177786,6,0,L|184:350,3,49.5,0|0|2|0,0:0|0:0|1:2|0:0,0:0:0:0:
337,322,178086,2,0,L|383:338,3,49.5,0|0|10|0,0:0|0:0|1:2|0:0,0:0:0:0:
209,189,178386,2,0,L|244:239,3,49.5,0|0|2|0,0:0|0:0|1:2|0:0,0:0:0:0:
440,232,178686,2,0,L|468:272,3,49.5,4|0|10|0,1:2|0:0|1:2|0:0,0:0:0:0:
340,128,178986,2,0,L|340:190,1,49.5,4|0,1:2|0:0,0:0:0:0:
223,69,179136,2,0,L|187:120,1,49.5,2|0,1:2|0:0,0:0:0:0:
65,35,179286,5,0,0:0:0:0:
70,94,179361,1,0,0:0:0:0:
76,153,179436,1,10,1:2:0:0:
81,212,179511,1,0,0:0:0:0:
87,271,179586,1,0,0:0:0:0:
93,330,179661,1,0,0:0:0:0:
151,339,179736,1,2,1:2:0:0:
205,314,179811,1,0,0:0:0:0:
262,300,179886,1,0,0:0:0:0:
321,297,179961,1,0,0:0:0:0:
380,304,180036,1,10,1:2:0:0:
437,322,180111,1,0,0:0:0:0:
483,284,180186,2,0,L|502:231,3,49.5,0|0|6|0,0:0|0:0|1:2|0:0,0:0:0:0:
380,201,180486,5,0,0:0:0:0:
321,191,180561,1,0,0:0:0:0:
262,192,180636,1,10,1:2:0:0:
202,204,180711,1,0,0:0:0:0:
161,161,180786,2,0,L|147:106,3,49.5,0|0|6|0,0:0|0:0|1:2|0:0,0:0:0:0:
270,85,181086,2,0,L|340:78,1,49.5,8|0,1:2|0:0,0:0:0:0:
190,26,181236,1,10,1:2:0:0:
122,21,181311,1,8,1:2:0:0:
68,62,181386,1,8,1:2:0:0:
54,128,181461,1,8,1:2:0:0:
88,187,181536,5,6,1:2:0:0:
110,231,181611,1,0,0:0:0:0:
117,279,181686,1,0,0:0:0:0:
108,328,181761,1,0,0:0:0:0:
70,373,181836,1,10,1:2:0:0:
118,380,181911,1,0,0:0:0:0:
168,381,181986,1,0,0:0:0:0:
217,375,182061,1,0,0:0:0:0:
265,362,182136,1,2,1:2:0:0:
268,313,182211,1,0,0:0:0:0:
290,269,182286,1,0,0:0:0:0:
327,237,182361,1,0,0:0:0:0:
373,221,182436,1,10,1:2:0:0:
422,225,182511,1,0,0:0:0:0:
466,247,182586,6,0,L|484:302,3,49.5,0|0|2|0,0:0|0:0|1:2|0:0,0:0:0:0:
397,142,182886,2,0,L|414:87,3,49.5,0|0|10|0,0:0|0:0|1:2|0:0,0:0:0:0:
368,299,183186,2,0,L|385:353,3,49.5,0|0|2|0,0:0|0:0|1:2|0:0,0:0:0:0:
167,105,183486,2,0,L|184:50,3,49.5,0|0|10|0,0:0|0:0|1:2|0:0,0:0:0:0:
211,250,183786,2,0,L|193:304,1,49.5
298,90,183936,2,0,L|315:35,1,49.5,6|0,1:2|0:0,0:0:0:0:
445,20,184086,5,0,0:0:0:0:
471,73,184161,1,0,0:0:0:0:
483,131,184236,1,10,1:2:0:0:
482,190,184311,1,0,0:0:0:0:
467,247,184386,1,0,0:0:0:0:
439,299,184461,1,0,0:0:0:0:
390,333,184536,1,2,1:2:0:0:
352,287,184611,1,0,0:0:0:0:
303,254,184686,1,0,0:0:0:0:
246,238,184761,1,0,0:0:0:0:
187,240,184836,1,10,1:2:0:0:
131,259,184911,1,0,0:0:0:0:
90,302,184986,2,0,L|110:355,3,49.5,0|0|2|0,0:0|0:0|1:2|0:0,0:0:0:0:
28,176,185286,5,0,0:0:0:0:
54,123,185361,1,0,0:0:0:0:
93,78,185436,1,10,1:2:0:0:
143,46,185511,1,0,0:0:0:0:
199,27,185586,1,0,0:0:0:0:
258,24,185661,1,0,0:0:0:0:
316,36,185736,1,2,1:2:0:0:
312,95,185811,1,0,0:0:0:0:
329,152,185886,1,0,0:0:0:0:
365,198,185961,1,0,0:0:0:0:
416,228,186036,2,0,L|474:255,1,49.5,10|0,1:2|0:0,0:0:0:0:
402,343,186186,1,4,1:2:0:0:
332,349,186261,1,0,0:0:0:0:
262,355,186336,5,2,1:2:0:0:
203,345,186411,1,0,0:0:0:0:
151,317,186486,1,0,0:0:0:0:
113,272,186561,1,0,0:0:0:0:
92,217,186636,1,10,1:2:0:0:
91,158,186711,1,0,0:0:0:0:
111,102,186786,1,0,0:0:0:0:
149,57,186861,1,0,0:0:0:0:
200,27,186936,1,2,1:2:0:0:
236,74,187011,1,0,0:0:0:0:
287,104,187086,1,0,0:0:0:0:
345,112,187161,1,0,0:0:0:0:
403,100,187236,1,10,1:2:0:0:
446,140,187311,1,0,0:0:0:0:
470,194,187386,1,0,0:0:0:0:
471,253,187461,1,0,0:0:0:0:
451,308,187536,5,0,1:0:0:0:
424,313,187611,1,0,1:0:0:0:
397,319,187686,1,0,1:0:0:0:
370,324,187761,1,0,1:0:0:0:
334,289,187836,5,0,1:0:0:0:
307,294,187911,1,0,1:0:0:0:
280,300,187986,1,0,1:0:0:0:
253,305,188061,1,0,1:0:0:0:
223,266,188136,5,0,1:0:0:0:
196,271,188211,1,0,1:0:0:0:
169,277,188286,1,0,1:0:0:0:
142,282,188361,1,0,1:0:0:0:
106,246,188436,5,0,1:0:0:0:
79,251,188511,1,0,1:0:0:0:
52,257,188586,1,0,1:0:0:0:
25,262,188661,1,0,1:0:0:0:
4,216,188736,5,4,1:2:0:0:
256,192,188811,12,0,190986,0:0:0:0:
93,71,192336,6,0,L|41:158,1,99,0|0,1:0|0:0,0:0:0:0:
106,356,192636,2,0,L|158:269,1,99,0|0,1:0|0:0,0:0:0:0:
253,108,192936,1,8,0:0:0:0:
288,83,193011,1,8,0:0:0:0:
329,71,193086,1,8,0:0:0:0:
372,72,193161,1,8,0:0:0:0:
413,87,193236,1,8,0:0:0:0:
446,114,193311,1,8,0:0:0:0:
469,151,193386,1,8,0:0:0:0:
480,193,193461,1,8,0:0:0:0:
476,236,193536,6,0,P|463:286|443:333,1,99,4|0,1:2|1:0,0:0:0:0:
135,151,193836,2,0,P|148:101|168:54,1,99,10|0,0:0|1:0,0:0:0:0:
413,87,194136,1,2,0:0:0:0:
135,151,194286,1,0,1:0:0:0:
376,233,194436,1,10,0:0:0:0:
99,297,194586,1,0,1:0:0:0:
370,331,194736,6,0,P|376:281|376:232,1,99,2|0,1:2|1:0,0:0:0:0:
67,54,195036,2,0,P|60:103|60:152,1,99,10|0,0:0|1:0,0:0:0:0:
110,324,195336,1,2,0:0:0:0:
170,79,195486,1,0,1:0:0:0:
342,305,195636,1,10,0:0:0:0:
402,60,195786,1,0,1:0:0:0:
448,244,195936,5,4,1:2:0:0:
151,161,196086,1,0,1:2:0:0:
364,224,196236,1,10,0:0:0:0:
132,243,196386,1,0,1:2:0:0:
467,162,196536,1,2,0:0:0:0:
170,79,196686,1,0,1:2:0:0:
383,142,196836,1,10,0:0:0:0:
70,185,196986,1,8,1:2:0:0:
70,185,197061,1,8,0:0:0:0:
70,185,197136,5,4,1:2:0:0:
278,316,197286,1,0,1:2:0:0:
288,70,197436,1,10,1:2:0:0:
99,277,197586,1,0,1:2:0:0:
76,233,197661,1,0,1:2:0:0:
70,185,197736,1,2,1:2:0:0:
343,244,197886,1,0,1:2:0:0:
192,49,198036,1,12,0:0:0:0:
134,353,198186,1,0,1:0:0:0:
438,268,198336,5,4,1:2:0:0:
193,297,198486,1,0,1:2:0:0:
288,70,198636,1,10,1:2:0:0:
372,338,198786,1,0,1:2:0:0:
411,307,198861,1,0,1:2:0:0:
438,268,198936,1,2,1:2:0:0:
165,205,199086,1,0,1:2:0:0:
384,92,199236,1,12,0:0:0:0:
273,350,199386,1,0,1:0:0:0:
47,146,199536,5,4,1:2:0:0:
291,181,199686,1,0,1:2:0:0:
77,271,199836,1,10,1:2:0:0:
261,56,199986,1,0,1:2:0:0:
213,43,200061,1,0,1:2:0:0:
163,43,200136,1,2,1:2:0:0:
378,158,200286,1,0,1:2:0:0:
146,169,200436,1,12,0:0:0:0:
392,29,200586,1,0,1:2:0:0:
366,282,200736,6,0,L|370:389,1,99,12|0,1:2|1:2,1:2:0:0:
306,150,201036,2,0,L|310:51,1,99,10|0,0:0|1:0,0:0:0:0:
206,234,201336,2,0,L|202:333,1,99,10|0,0:0|1:0,0:0:0:0:
146,102,201636,2,0,L|142:-5,1,99,10|0,0:2|1:2,1:2:0:0:
113,267,201936,6,0,P|90:309|39:350,1,99,4|0,1:2|1:0,0:0:0:0:
230,146,202236,2,0,P|277:144|338:168,1,99,10|0,0:0|1:0,0:0:0:0:
67,106,202536,1,2,0:0:0:0:
327,1,202686,1,0,1:0:0:0:
41,25,202836,1,10,0:0:0:0:
353,82,202986,1,0,1:0:0:0:
93,187,203136,6,0,P|50:208|-15:212,1,99,4|0,1:2|1:0,0:0:0:0:
258,154,203436,2,0,P|297:179|333:233,1,99,10|0,0:0|1:0,0:0:0:0:
147,28,203736,1,2,0:0:0:0:
199,306,203886,1,0,1:0:0:0:
265,41,204036,1,10,0:0:0:0:
81,319,204186,1,0,1:0:0:0:
29,41,204336,5,4,1:2:0:0:
326,124,204486,1,0,1:2:0:0:
113,61,204636,1,10,0:0:0:0:
345,42,204786,1,0,1:2:0:0:
10,123,204936,1,2,0:0:0:0:
307,206,205086,1,0,1:2:0:0:
94,143,205236,1,10,0:0:0:0:
407,100,205386,1,8,1:2:0:0:
407,100,205461,1,8,0:0:0:0:
407,100,205536,5,4,1:2:0:0:
440,224,205686,1,0,1:2:0:0:
362,326,205836,1,10,0:2:0:0:
407,100,205986,2,0,L|346:109,1,49.5,0|0,1:0|1:0,0:0:0:0:
259,113,206136,1,10,1:2:0:0:
229,258,206286,1,0,1:2:0:0:
362,326,206436,1,12,0:0:0:0:
168,170,206586,1,0,1:0:0:0:
407,100,206736,5,4,0:2:0:0:
133,262,206886,1,0,1:0:0:0:
262,51,207036,1,10,0:0:0:0:
452,233,207186,2,0,L|392:257,1,49.5,0|0,1:0|1:0,0:0:0:0:
222,311,207336,1,10,1:2:0:0:
498,145,207486,1,0,1:0:0:0:
178,45,207636,1,12,0:0:0:0:
498,48,207786,1,0,1:0:0:0:
87,76,207936,5,4,1:2:0:0:
407,100,208086,1,0,1:0:0:0:
222,311,208236,1,10,0:0:0:0:
247,31,208386,2,0,L|281:86,1,49.5,0|0,1:0|1:0,0:0:0:0:
391,272,208536,1,2,1:2:0:0:
132,161,208686,1,0,1:0:0:0:
403,182,208836,1,12,0:0:0:0:
120,251,208986,1,0,1:0:0:0:
391,272,209136,5,12,1:2:0:0:
487,147,209286,1,0,1:0:0:0:
331,126,209436,1,10,0:0:0:0:
313,332,209586,1,0,1:0:0:0:
421,41,209736,1,8,0:0:0:0:
375,23,209811,1,8,0:0:0:0:
326,27,209886,1,8,0:0:0:0:
284,52,209961,1,8,0:0:0:0:
257,93,210036,1,8,0:0:0:0:
230,135,210111,1,8,0:0:0:0:
188,160,210186,1,8,0:0:0:0:
139,164,210261,1,8,0:0:0:0:
93,146,210336,6,0,P|63:104|47:46,1,111.375004248619,0|0,1:0|0:0,0:0:0:0:
47,22,210636,1,0,0:0:0:0:
76,273,210786,1,0,1:0:0:0:
108,290,210861,1,0,1:0:0:0:
144,297,210936,1,0,1:0:0:0:
181,293,211011,1,0,1:0:0:0:
215,278,211086,1,0,1:0:0:0:
243,254,211161,1,0,1:0:0:0:
270,229,211236,1,0,1:0:0:0:
304,214,211311,1,0,1:0:0:0:
341,210,211386,1,0,1:0:0:0:
377,217,211461,1,0,1:0:0:0:
410,235,211536,6,0,P|447:275|470:327,1,99,12|0,0:0|0:0,0:0:0:0:
217,334,211836,2,0,P|180:294|157:242,1,99,12|0,0:0|0:0,0:0:0:0:
295,50,212136,2,0,P|332:90|355:142,1,99,12|0,0:0|0:0,0:0:0:0:
102,149,212436,2,0,P|65:109|42:57,1,99,12|0,0:0|0:0,0:0:0:0:
231,186,212736,5,2,0:0:0:0:
340,300,212886,1,2,0:0:0:0:
214,98,213036,2,0,B|202:64|202:64|171:55|171:55|157:23,2,99,2|2|2,0:0|0:0|0:0,0:0:0:0:
222,305,213486,1,2,0:0:0:0:
427,250,213636,2,0,B|460:238|460:238|470:207|470:207|502:193,1,99,2|2,0:0|0:0,0:0:0:0:
349,181,213936,5,2,0:0:0:0:
166,244,214086,1,0,0:0:0:0:
285,86,214236,2,0,B|313:73|313:73|322:41|322:41|356:30,2,99,2|2|0,0:0|0:0|0:0,0:0:0:0:
102,149,214686,1,2,0:0:0:0:
102,149,214761,1,2,0:0:0:0:
102,149,214836,2,0,B|81:171|81:171|86:204|86:204|60:229,1,99,6|2,0:0|0:0,0:0:0:0:
332,262,215136,6,0,P|384:283|441:318,1,111.375004248619,4|0,1:2|0:0,0:0:0:0:
449,329,215436,1,0,1:0:0:0:
430,129,215586,1,0,1:0:0:0:
412,96,215661,1,0,1:0:0:0:
380,77,215736,1,0,1:0:0:0:
344,77,215811,1,0,1:0:0:0:
312,95,215886,1,0,1:0:0:0:
293,126,215961,1,0,1:0:0:0:
274,157,216036,1,0,1:0:0:0:
242,175,216111,1,0,1:0:0:0:
206,175,216186,1,0,1:0:0:0:
174,156,216261,1,0,1:0:0:0:
157,124,216336,6,0,P|115:103|55:102,1,99,8|0,1:2|0:0,0:0:0:0:
168,307,216636,2,0,P|209:327|269:328,1,99,8|0,0:0|0:0,0:0:0:0:
344,77,216936,2,0,P|302:56|242:55,1,99,8|0,0:0|0:0,0:0:0:0:
355,260,217236,1,8,0:0:0:0:
399,281,217311,1,8,0:0:0:0:
448,282,217386,1,8,0:0:0:0:
493,264,217461,1,8,0:0:0:0:
512,228,217536,5,2,1:2:0:0:
478,53,217686,1,0,0:0:0:0:
272,225,217836,2,0,L|178:293,2,99,10|0|2,0:0|0:0|0:0,0:0:0:0:
493,141,218286,1,0,1:0:0:0:
260,139,218436,2,0,L|176:200,1,99,8|0,0:0|0:0,0:0:0:0:
415,309,218736,6,0,P|470:314|518:301,1,99,2|0,1:2|0:0,0:0:0:0:
336,274,219036,2,0,P|304:319|291:367,1,99,2|0,1:2|0:0,0:0:0:0:
405,223,219336,1,8,0:0:0:0:
385,177,219411,1,8,0:0:0:0:
352,141,219486,1,8,0:0:0:0:
308,117,219561,1,8,0:0:0:0:
260,108,219636,1,8,0:0:0:0:
211,105,219711,1,8,0:0:0:0:
161,108,219786,1,8,0:0:0:0:
113,117,219861,1,8,0:0:0:0:
65,132,219936,6,0,L|33:189,3,49.5,10|0|0|0,1:2|0:0|0:0|0:0,0:0:0:0:
152,202,220236,1,10,1:2:0:0:
156,251,220311,1,0,0:0:0:0:
166,299,220386,2,0,L|219:336,3,49.5,0|0|10|0,0:0|0:0|1:2|0:0,0:0:0:0:
257,247,220686,1,0,0:0:0:0:
304,234,220761,1,0,0:0:0:0:
349,216,220836,1,10,1:2:0:0:
386,184,220911,1,0,0:0:0:0:
408,141,220986,1,0,0:0:0:0:
413,91,221061,1,0,0:0:0:0:
396,44,221136,5,10,1:2:0:0:
347,38,221211,1,0,0:0:0:0:
298,32,221286,1,0,0:0:0:0:
249,25,221361,1,0,0:0:0:0:
200,19,221436,1,10,1:2:0:0:
166,55,221511,1,0,0:0:0:0:
133,92,221586,1,0,0:0:0:0:
100,128,221661,1,0,0:0:0:0:
63,162,221736,5,10,1:2:0:0:
83,224,221811,1,0,0:0:0:0:
122,277,221886,1,0,0:0:0:0:
174,317,221961,1,0,0:0:0:0:
236,341,222036,1,12,1:2:0:0:
301,346,222111,1,0,0:0:0:0:
366,332,222186,1,0,0:0:0:0:
423,300,222261,1,0,0:0:0:0:
470,254,222336,6,0,L|484:200,3,49.5,12|0|0|0,1:2|0:0|0:0|0:0,0:0:0:0:
375,139,222636,1,10,1:2:0:0:
335,84,222711,1,0,0:0:0:0:
284,41,222786,2,0,L|228:33,3,49.5,0|0|10|0,0:0|0:0|1:2|0:0,0:0:0:0:
179,147,223086,1,0,0:0:0:0:
130,158,223161,1,0,0:0:0:0:
81,156,223236,1,10,1:2:0:0:
42,186,223311,1,0,0:0:0:0:
24,232,223386,1,0,0:0:0:0:
32,280,223461,1,0,0:0:0:0:
63,318,223536,5,10,1:2:0:0:
126,306,223611,1,0,0:0:0:0:
189,294,223686,1,0,0:0:0:0:
250,313,223761,1,0,0:0:0:0:
311,333,223836,1,10,1:2:0:0:
374,321,223911,1,0,0:0:0:0:
437,309,223986,1,0,0:0:0:0:
468,252,224061,1,0,0:0:0:0:
499,196,224136,5,10,1:2:0:0:
456,148,224211,1,0,0:0:0:0:
413,100,224286,1,0,0:0:0:0:
350,115,224361,1,0,0:0:0:0:
287,130,224436,1,12,1:2:0:0:
227,104,224511,1,0,0:0:0:0:
167,78,224586,1,0,0:0:0:0:
103,90,224661,1,0,0:0:0:0:
39,102,224736,6,0,L|20:166,3,49.5,12|0|0|0,1:2|0:0|0:0|0:0,0:0:0:0:
246,188,225036,1,10,1:2:0:0:
309,199,225111,1,0,0:0:0:0:
372,211,225186,2,0,L|391:275,3,49.5,0|0|10|0,0:0|0:0|1:2|0:0,0:0:0:0:
249,364,225486,1,0,0:0:0:0:
183,384,225561,1,0,0:0:0:0:
115,376,225636,1,12,1:2:0:0:
56,340,225711,1,0,0:0:0:0:
18,283,225786,1,0,0:0:0:0:
6,215,225861,1,0,0:0:0:0:
24,149,225936,6,0,L|39:102,3,49.5,12|0|0|0,1:2|0:0|0:0|0:0,0:0:0:0:
256,69,226236,1,10,1:2:0:0:
322,51,226311,1,0,0:0:0:0:
388,33,226386,2,0,L|402:80,3,49.5,0|0|10|0,0:0|0:0|1:2|0:0,0:0:0:0:
168,152,226686,1,0,0:0:0:0:
141,220,226761,1,0,0:0:0:0:
157,291,226836,1,12,1:2:0:0:
210,341,226911,1,0,0:0:0:0:
282,352,226986,1,0,0:0:0:0:
349,321,227061,1,0,0:0:0:0:
386,258,227136,6,0,L|405:205,3,49.5,12|0|0|0,1:2|0:0|0:0|0:0,0:0:0:0:
168,152,227436,1,10,1:2:0:0:
98,126,227511,1,0,0:0:0:0:
28,100,227586,2,0,L|9:153,3,49.5,0|0|10|0,0:0|0:0|1:2|0:0,0:0:0:0:
183,336,227886,1,0,0:0:0:0:
254,367,227961,1,0,0:0:0:0:
333,368,228036,1,12,1:2:0:0:
405,337,228111,1,0,0:0:0:0:
459,280,228186,1,0,0:0:0:0:
486,206,228261,1,0,0:0:0:0:
481,128,228336,6,0,L|466:70,3,49.5,12|0|0|0,1:2|0:0|0:0|0:0,0:0:0:0:
179,215,228636,1,10,1:2:0:0:
103,239,228711,1,0,0:0:0:0:
28,265,228786,2,0,L|43:323,3,49.5,0|0|10|0,0:0|0:0|1:2|0:0,0:0:0:0:
173,67,229086,1,0,0:0:0:0:
252,40,229161,1,0,0:0:0:0:
335,45,229236,2,0,L|365:96,1,49.5,12|0,1:2|0:0,0:0:0:0:
295,303,229386,2,0,L|265:252,1,49.5
79,141,229536,5,4,1:2:0:0:
352,181,229836,1,2,0:0:0:0:
103,239,230136,1,2,0:0:0:0:
376,279,230436,1,2,0:0:0:0:
170,109,230586,1,0,1:0:0:0:
170,109,230661,1,0,1:0:0:0:
170,109,230736,1,8,0:0:0:0:
285,311,231186,5,0,1:0:0:0:
285,311,231261,1,0,1:0:0:0:
285,311,231336,1,8,0:0:0:0:
250,79,231486,1,0,1:0:0:0:
141,288,231636,1,0,1:0:0:0:
352,181,231786,1,0,1:0:0:0:
119,144,231936,5,4,0:0:0:0:
230,201,232086,1,0,0:0:0:0:
352,181,232236,1,0,0:0:0:0:
440,93,232386,1,0,0:0:0:0:
440,93,232686,1,0,0:0:0:0:
352,181,232836,1,0,0:0:0:0:
473,214,232986,1,0,0:0:0:0:
319,60,233136,5,0,0:0:0:0:
105,190,233436,1,0,0:0:0:0:
352,181,233736,1,0,0:0:0:0:
138,311,234036,1,0,0:0:0:0:
188,85,234186,1,0,0:0:0:0:
385,302,234336,5,0,0:0:0:0:
313,363,234636,1,0,0:0:0:0:
217,366,234936,1,0,0:0:0:0:
138,311,235236,1,0,0:0:0:0:
385,302,235536,1,0,0:0:0:0:
210,250,235836,1,0,0:0:0:0:
306,247,236136,1,0,0:0:0:0:
138,311,236436,1,0,0:0:0:0:
391,208,236586,1,0,0:0:0:0:
138,189,236736,5,0,0:0:0:0:
200,81,236886,1,0,0:0:0:0:
313,30,237036,1,0,0:0:0:0:
435,57,237186,1,0,0:0:0:0:
138,311,237486,1,0,0:0:0:0:
138,189,237636,1,0,0:0:0:0:
243,250,237786,1,0,0:0:0:0:
33,250,237936,5,0,0:0:0:0:
137,95,238236,1,0,0:0:0:0:
243,250,238536,1,0,0:0:0:0:
347,95,238836,1,0,0:0:0:0:
138,189,238986,1,0,0:0:0:0:
324,323,239136,5,0,0:0:0:0:
383,256,239436,1,0,0:0:0:0:
442,190,239736,1,0,0:0:0:0:
502,124,240036,1,0,0:0:0:0:
324,323,240336,1,0,0:0:0:0:
138,189,240636,1,0,0:0:0:0:
243,250,240936,1,0,0:0:0:0:
25,153,241236,1,0,0:0:0:0:
244,129,241386,1,0,0:0:0:0:
30,271,241536,5,0,0:0:0:0:
30,271,241686,1,0,0:0:0:0:
183,327,241836,1,0,0:0:0:0:
323,243,241986,2,0,L|413:241,1,74.2500028324128
502,116,242286,1,0,0:0:0:0:
292,38,242436,1,0,0:0:0:0:
502,116,242586,1,0,0:0:0:0:
292,38,242736,5,0,0:0:0:0:
292,38,242886,1,0,0:0:0:0:
141,101,243036,2,0,L|58:109,1,74.2500028324128
216,176,243336,2,0,L|299:168,1,74.2500028324128
141,251,243636,1,0,0:0:0:0:
10,349,243786,1,0,0:0:0:0:
226,344,243936,5,0,0:0:0:0:
226,344,244086,1,0,0:0:0:0:
365,258,244236,2,0,L|453:253,1,74.2500028324128
290,169,244536,2,0,L|359:114,1,74.2500028324128
177,139,244836,2,0,L|202:54,1,74.2500028324128
67,179,245136,5,0,0:0:0:0:
67,179,245286,1,0,0:0:0:0:
210,32,245436,2,0,L|188:103,1,74.2500028324128
377,101,245736,2,0,L|318:146,1,74.2500028324128
464,269,246036,1,0,0:0:0:0:
283,343,246186,1,0,0:0:0:0:
452,164,246336,5,0,0:0:0:0:
452,164,246486,1,0,0:0:0:0:
374,307,246636,1,0,0:0:0:0:
214,272,246786,2,0,L|128:271,1,74.2500028324128
39,140,247086,1,0,0:0:0:0:
199,169,247236,1,0,0:0:0:0:
39,140,247386,1,0,0:0:0:0:
199,169,247536,5,0,0:0:0:0:
199,169,247686,1,0,0:0:0:0:
350,107,247836,2,0,L|437:102,1,74.2500028324128
307,241,248136,2,0,L|220:246,1,74.2500028324128
350,375,248436,1,0,0:0:0:0:
473,264,248586,1,0,0:0:0:0:
242,352,248736,5,0,0:0:0:0:
242,352,248886,1,0,0:0:0:0:
92,267,249036,2,0,L|41:193,1,74.2500028324128
199,169,249336,2,0,L|199:79,1,74.2500028324128
342,150,249636,2,0,L|394:76,1,74.2500028324128
470,216,249936,5,0,0:0:0:0:
470,216,250086,1,0,0:0:0:0:
411,52,250236,2,0,L|367:112,1,74.2500028324128
200,56,250536,2,0,L|199:130,1,74.2500028324128
29,173,250836,1,0,0:0:0:0:
71,374,250986,1,0,0:0:0:0:
224,193,251136,6,0,B|247:171|302:172|333:206|332:253|316:277|288:299|248:299|223:290|208:282|208:282|171:257|139:229|135:193|137:150|155:128|197:108|233:93|263:100|300:118|340:124|340:124|393:134|439:131|470:112|488:74|490:39|490:39|469:21|420:26|382:58|354:94|354:94|192:303|192:303|164:334|138:358|118:365|81:357|55:343|44:313|42:265|86:246,1,1485
