osu file format v14

[General]
AudioFilename: audio.mp3
AudioLeadIn: 0
PreviewTime: 12167
Countdown: 0
SampleSet: Normal
StackLeniency: 0.7
Mode: 1
LetterboxInBreaks: 0
WidescreenStoryboard: 1

[Editor]
Bookmarks: 1465,11843,18005,24492,30005,49465,50113,55627,62113,67465
DistanceSpacing: 3.1
BeatDivisor: 4
GridSize: 32
TimelineZoom: 1.5

[Metadata]
Title:Fur Elisa
TitleUnicode:Fur Elisa
Artist:LEAF XCEED Music Division
ArtistUnicode:LEAF XCEED Music Division
Creator:coed
Version:Muzukashii
Source:osu!
Tags:「SELECT」 roberto rtnario ramon nario power metal instrumental für elise bagatelle no. 25 in a minor ludwig van beethoven classical arrangement osu featured artist fa remix
BeatmapID:2532947
BeatmapSetID:1215987

[Difficulty]
HPDrainRate:7
CircleSize:5
OverallDifficulty:5
ApproachRate:5
SliderMultiplier:1.4
SliderTickRate:1

[Events]
//Background and Video events
0,0,"thumb-1920-96469.jpg",0,0
//Break Periods
//Storyboard Layer 0 (Background)
//Storyboard Layer 1 (Fail)
//Storyboard Layer 2 (Pass)
//Storyboard Layer 3 (Foreground)
//Storyboard Layer 4 (Overlay)
//Storyboard Sound Samples

[TimingPoints]
168,324.324324324324,4,1,0,75,1,0
23843,-98.0392156862745,4,1,0,75,0,0
24167,-96.1538461538461,4,1,0,75,0,0
24492,-95.2380952380952,4,1,0,75,0,0
30005,-100,4,1,0,75,0,0
42978,-100,4,1,0,80,0,0
50762,-100,4,1,0,90,0,1
61303,-99.009900990099,4,1,0,90,0,1
61465,-98.0392156862745,4,1,0,90,0,1
61627,-97.0873786407767,4,1,0,90,0,1
61789,-96.1538461538461,4,1,0,90,0,1
62113,-95.2380952380952,4,1,0,90,0,1
66330,-95.2380952380952,4,1,0,90,0,0
67789,-97.0873786407767,4,1,0,75,0,0
67951,-98.0392156862745,4,1,0,75,0,0
68113,-99.009900990099,4,1,0,75,0,0
137843,-99.009900990099,4,1,0,80,0,0
138005,-98.0392156862745,4,1,0,80,0,0
138167,-97.0873786407767,4,1,0,80,0,0
138330,-96.1538461538461,4,1,0,80,0,0
138654,-95.2380952380952,4,1,0,80,0,0
138978,-95.2380952380952,4,1,0,90,0,1
151789,-95.2380952380952,4,1,0,90,0,1
154546,-95.2380952380952,4,1,0,90,0,0

[HitObjects]
256,192,1465,5,12,0:0:0:0:
256,192,2113,1,4,0:0:0:0:
256,192,2762,1,12,0:0:0:0:
256,192,4059,1,4,0:0:0:0:
256,192,4708,1,12,0:0:0:0:
256,192,5357,1,4,0:0:0:0:
256,192,6654,1,4,0:0:0:0:
256,192,7303,1,4,0:0:0:0:
256,192,7951,1,12,0:0:0:0:
256,192,8600,1,12,0:0:0:0:
256,192,9249,1,4,0:0:0:0:
256,192,9897,1,12,0:0:0:0:
256,192,10546,1,4,0:0:0:0:
256,192,11195,1,12,0:0:0:0:
256,192,11843,1,0,0:0:0:0:
256,192,12005,1,8,0:0:0:0:
256,192,12086,1,8,0:0:0:0:
256,192,12167,1,8,0:0:0:0:
256,192,12330,1,8,0:0:0:0:
256,192,12492,1,0,0:0:0:0:
256,192,12816,1,8,0:0:0:0:
256,192,12978,1,8,0:0:0:0:
256,192,13140,1,0,0:0:0:0:
256,192,13465,1,0,0:0:0:0:
256,192,13627,1,8,0:0:0:0:
256,192,13789,1,8,0:0:0:0:
256,192,13951,1,0,0:0:0:0:
256,192,14113,1,0,0:0:0:0:
256,192,14276,1,8,0:0:0:0:
256,192,14357,1,8,0:0:0:0:
256,192,14438,1,8,0:0:0:0:
256,192,14762,1,0,0:0:0:0:
256,192,14924,1,8,0:0:0:0:
256,192,15086,1,8,0:0:0:0:
256,192,15249,1,0,0:0:0:0:
256,192,15411,1,8,0:0:0:0:
256,192,15573,1,8,0:0:0:0:
256,192,15735,1,0,0:0:0:0:
256,192,16059,1,0,0:0:0:0:
256,192,16222,1,0,0:0:0:0:
256,192,16384,1,8,0:0:0:0:
256,192,16546,1,0,0:0:0:0:
256,192,16708,1,8,0:0:0:0:
256,192,16789,1,8,0:0:0:0:
256,192,16870,1,8,0:0:0:0:
256,192,17032,1,0,0:0:0:0:
256,192,17843,1,8,0:0:0:0:
256,192,18005,1,8,0:0:0:0:
256,192,18167,1,8,0:0:0:0:
256,192,18330,1,0,0:0:0:0:
256,192,18492,1,0,0:0:0:0:
256,192,18654,1,8,0:0:0:0:
256,192,18816,1,0,0:0:0:0:
256,192,18978,1,8,0:0:0:0:
256,192,19303,1,0,0:0:0:0:
256,192,19465,1,8,0:0:0:0:
256,192,19627,1,8,0:0:0:0:
256,192,19789,1,0,0:0:0:0:
256,192,19951,1,0,0:0:0:0:
256,192,20113,1,8,0:0:0:0:
256,192,20195,1,8,0:0:0:0:
256,192,20276,1,8,0:0:0:0:
256,192,20600,1,0,0:0:0:0:
256,192,20762,1,8,0:0:0:0:
256,192,20924,1,8,0:0:0:0:
256,192,21086,1,0,0:0:0:0:
256,192,21249,1,0,0:0:0:0:
256,192,21411,1,8,0:0:0:0:
256,192,21573,1,8,0:0:0:0:
256,192,21897,1,0,0:0:0:0:
256,192,22059,1,8,0:0:0:0:
256,192,22140,1,8,0:0:0:0:
256,192,22222,1,8,0:0:0:0:
256,192,22384,1,0,0:0:0:0:
256,192,22546,1,0,0:0:0:0:
256,192,22708,1,8,0:0:0:0:
256,192,22870,1,8,0:0:0:0:
256,192,23195,1,0,0:0:0:0:
256,192,23357,1,0,0:0:0:0:
256,192,23519,1,12,0:0:0:0:
256,192,24167,1,8,0:0:0:0:
256,192,24249,1,8,0:0:0:0:
256,192,24330,1,8,0:0:0:0:
256,192,24492,1,0,0:0:0:0:
256,192,24654,1,8,0:0:0:0:
256,192,24816,1,0,0:0:0:0:
256,192,25140,1,0,0:0:0:0:
256,192,25303,1,8,0:0:0:0:
256,192,25465,1,8,0:0:0:0:
256,192,25627,1,0,0:0:0:0:
256,192,25789,1,0,0:0:0:0:
256,192,25870,1,0,0:0:0:0:
256,192,25951,1,0,0:0:0:0:
256,192,26113,1,8,0:0:0:0:
256,192,26438,1,0,0:0:0:0:
256,192,26600,1,0,0:0:0:0:
256,192,26762,1,8,0:0:0:0:
256,192,26924,1,0,0:0:0:0:
256,192,27086,1,8,0:0:0:0:
256,192,27249,1,8,0:0:0:0:
256,192,27411,1,0,0:0:0:0:
256,192,27735,1,0,0:0:0:0:
256,192,27897,1,8,0:0:0:0:
256,192,28059,1,8,0:0:0:0:
256,192,28222,1,0,0:0:0:0:
256,192,28384,1,8,0:0:0:0:
256,192,28465,1,8,0:0:0:0:
256,192,28546,1,8,0:0:0:0:
256,192,28708,1,4,0:0:0:0:
256,192,30005,1,12,0:0:0:0:
256,192,30654,1,12,0:0:0:0:
256,192,31303,1,8,0:0:0:0:
256,192,31627,1,0,0:0:0:0:
256,192,31789,1,0,0:0:0:0:
256,192,31951,1,8,0:0:0:0:
256,192,32113,1,0,0:0:0:0:
256,192,32276,1,8,0:0:0:0:
256,192,32357,1,8,0:0:0:0:
256,192,32438,1,8,0:0:0:0:
256,192,32600,1,4,0:0:0:0:
256,192,32924,1,8,0:0:0:0:
256,192,33411,1,0,0:0:0:0:
256,192,33573,1,8,0:0:0:0:
256,192,33897,1,0,0:0:0:0:
256,192,34222,1,8,0:0:0:0:
256,192,34708,1,0,0:0:0:0:
256,192,34870,1,8,0:0:0:0:
256,192,35195,1,12,0:0:0:0:
256,192,35519,1,4,0:0:0:0:
256,192,35843,1,12,0:0:0:0:
256,192,36167,1,12,0:0:0:0:
256,192,36492,1,4,0:0:0:0:
256,192,36816,1,8,0:0:0:0:
256,192,37140,1,0,0:0:0:0:
256,192,37303,1,0,0:0:0:0:
256,192,37465,1,8,0:0:0:0:
256,192,37627,1,8,0:0:0:0:
256,192,37789,1,12,0:0:0:0:
256,192,38113,1,8,0:0:0:0:
256,192,38600,1,0,0:0:0:0:
256,192,38762,1,8,0:0:0:0:
256,192,39086,1,0,0:0:0:0:
256,192,39411,1,8,0:0:0:0:
256,192,39735,1,0,0:0:0:0:
256,192,39897,1,0,0:0:0:0:
256,192,40059,1,8,0:0:0:0:
256,192,40384,1,4,0:0:0:0:
256,192,40708,1,8,0:0:0:0:
256,192,40789,1,8,0:0:0:0:
256,192,40870,1,8,0:0:0:0:
256,192,41032,1,12,0:0:0:0:
256,192,41357,1,8,0:0:0:0:
256,192,41681,1,4,0:0:0:0:
256,192,42978,1,4,0:0:0:0:
256,192,43303,1,4,0:0:0:0:
256,192,43627,1,12,0:0:0:0:
256,192,44924,1,4,0:0:0:0:
256,192,45249,1,12,0:0:0:0:
256,192,45573,1,4,0:0:0:0:
256,192,46870,1,8,0:0:0:0:
256,192,47519,1,8,0:0:0:0:
256,192,48167,1,8,0:0:0:0:
256,192,48816,1,8,0:0:0:0:
256,192,49465,1,8,0:0:0:0:
256,192,49789,1,8,0:0:0:0:
256,192,50113,1,0,0:0:0:0:
256,192,50276,1,0,0:0:0:0:
256,192,50438,1,8,0:0:0:0:
256,192,50519,1,8,0:0:0:0:
256,192,50600,1,8,0:0:0:0:
256,192,50762,1,8,0:0:0:0:
256,192,51086,1,0,0:0:0:0:
256,192,51249,1,8,0:0:0:0:
256,192,51411,1,8,0:0:0:0:
256,192,51573,1,0,0:0:0:0:
256,192,51735,1,0,0:0:0:0:
256,192,51897,1,8,0:0:0:0:
256,192,51978,1,8,0:0:0:0:
256,192,52059,1,8,0:0:0:0:
256,192,52384,1,0,0:0:0:0:
256,192,52546,1,8,0:0:0:0:
256,192,52708,1,0,0:0:0:0:
256,192,52870,1,0,0:0:0:0:
256,192,53032,1,8,0:0:0:0:
256,192,53195,1,8,0:0:0:0:
256,192,53357,1,0,0:0:0:0:
256,192,53681,1,0,0:0:0:0:
256,192,53843,1,8,0:0:0:0:
256,192,54005,1,0,0:0:0:0:
256,192,54167,1,8,0:0:0:0:
256,192,54330,1,8,0:0:0:0:
256,192,54411,1,8,0:0:0:0:
256,192,54492,1,8,0:0:0:0:
256,192,54654,1,0,0:0:0:0:
256,192,55465,1,8,0:0:0:0:
256,192,55627,1,0,0:0:0:0:
256,192,55789,1,8,0:0:0:0:
256,192,55951,1,0,0:0:0:0:
256,192,56113,1,0,0:0:0:0:
256,192,56276,1,8,0:0:0:0:
256,192,56438,1,8,0:0:0:0:
256,192,56600,1,0,0:0:0:0:
256,192,56924,1,0,0:0:0:0:
256,192,57005,1,0,0:0:0:0:
256,192,57086,1,0,0:0:0:0:
256,192,57249,1,8,0:0:0:0:
256,192,57411,1,0,0:0:0:0:
256,192,57573,1,0,0:0:0:0:
256,192,57735,1,8,0:0:0:0:
256,192,57897,1,8,0:0:0:0:
256,192,58222,1,8,0:0:0:0:
256,192,58384,1,8,0:0:0:0:
256,192,58546,1,8,0:0:0:0:
256,192,58708,1,0,0:0:0:0:
256,192,58870,1,0,0:0:0:0:
256,192,59032,1,8,0:0:0:0:
256,192,59195,1,8,0:0:0:0:
256,192,59519,1,0,0:0:0:0:
256,192,59681,1,8,0:0:0:0:
256,192,59762,1,8,0:0:0:0:
256,192,59843,1,8,0:0:0:0:
256,192,60005,1,0,0:0:0:0:
256,192,60167,1,0,0:0:0:0:
256,192,60330,1,8,0:0:0:0:
256,192,60492,1,8,0:0:0:0:
256,192,60816,1,0,0:0:0:0:
256,192,60978,1,0,0:0:0:0:
256,192,61140,1,12,0:0:0:0:
256,192,61789,1,8,0:0:0:0:
256,192,61870,1,8,0:0:0:0:
256,192,61951,1,8,0:0:0:0:
256,192,62113,1,8,0:0:0:0:
256,192,62195,1,8,0:0:0:0:
256,192,62276,1,8,0:0:0:0:
256,192,62438,1,0,0:0:0:0:
256,192,62762,1,0,0:0:0:0:
256,192,62924,1,8,0:0:0:0:
256,192,63086,1,8,0:0:0:0:
256,192,63249,1,0,0:0:0:0:
256,192,63411,1,0,0:0:0:0:
256,192,63573,1,0,0:0:0:0:
256,192,63735,1,8,0:0:0:0:
256,192,64059,1,0,0:0:0:0:
256,192,64222,1,8,0:0:0:0:
256,192,64384,1,0,0:0:0:0:
256,192,64546,1,8,0:0:0:0:
256,192,64708,1,8,0:0:0:0:
256,192,64789,1,8,0:0:0:0:
256,192,64870,1,8,0:0:0:0:
256,192,65032,1,0,0:0:0:0:
256,192,65357,1,0,0:0:0:0:
256,192,65519,1,0,0:0:0:0:
256,192,65681,1,8,0:0:0:0:
256,192,65843,1,0,0:0:0:0:
256,192,66005,1,8,0:0:0:0:
256,192,66086,1,8,0:0:0:0:
256,192,66167,1,8,0:0:0:0:
256,192,66330,1,4,0:0:0:0:
256,192,67627,1,4,0:0:0:0:
256,192,67951,1,8,0:0:0:0:
256,192,68276,1,8,0:0:0:0:
256,192,68600,1,0,0:0:0:0:
256,192,68762,1,8,0:0:0:0:
256,192,69249,1,8,0:0:0:0:
256,192,69573,1,8,0:0:0:0:
256,192,69897,1,0,0:0:0:0:
256,192,70059,1,0,0:0:0:0:
256,192,70222,1,12,0:0:0:0:
256,192,70546,1,8,0:0:0:0:
256,192,70870,1,8,0:0:0:0:
256,192,71195,1,0,0:0:0:0:
256,192,71357,1,8,0:0:0:0:
256,192,71843,1,8,0:0:0:0:
256,192,72167,1,8,0:0:0:0:
256,192,72330,1,0,0:0:0:0:
256,192,72411,1,0,0:0:0:0:
256,192,72492,1,0,0:0:0:0:
256,192,72654,1,8,0:0:0:0:
256,192,72816,1,4,0:0:0:0:
256,192,73140,1,8,0:0:0:0:
256,192,73465,1,8,0:0:0:0:
256,192,73789,1,0,0:0:0:0:
256,192,73951,1,8,0:0:0:0:
256,192,74438,1,8,0:0:0:0:
256,192,74762,1,8,0:0:0:0:
256,192,75086,1,0,0:0:0:0:
256,192,75249,1,0,0:0:0:0:
256,192,75411,1,12,0:0:0:0:
256,192,75735,1,8,0:0:0:0:
256,192,76059,1,8,0:0:0:0:
256,192,76384,1,0,0:0:0:0:
256,192,76546,1,12,0:0:0:0:
256,192,78005,1,4,0:0:0:0:
256,192,78330,1,8,0:0:0:0:
256,192,78492,1,0,0:0:0:0:
256,192,78654,1,8,0:0:0:0:
256,192,78978,1,0,0:0:0:0:
256,192,79140,1,8,0:0:0:0:
256,192,79465,1,0,0:0:0:0:
256,192,79627,1,8,0:0:0:0:
256,192,79951,1,8,0:0:0:0:
256,192,80600,1,12,0:0:0:0:
256,192,80924,1,8,0:0:0:0:
256,192,81086,1,0,0:0:0:0:
256,192,81249,1,8,0:0:0:0:
256,192,81573,1,0,0:0:0:0:
256,192,81735,1,8,0:0:0:0:
256,192,82059,1,0,0:0:0:0:
256,192,82222,1,8,0:0:0:0:
256,192,82546,1,8,0:0:0:0:
256,192,82708,1,0,0:0:0:0:
256,192,82789,1,0,0:0:0:0:
256,192,82870,1,0,0:0:0:0:
256,192,83032,1,8,0:0:0:0:
256,192,83195,1,4,0:0:0:0:
256,192,83519,1,8,0:0:0:0:
256,192,83681,1,0,0:0:0:0:
256,192,83843,1,8,0:0:0:0:
256,192,84167,1,0,0:0:0:0:
256,192,84330,1,8,0:0:0:0:
256,192,84492,1,0,0:0:0:0:
256,192,84654,1,0,0:0:0:0:
256,192,84816,1,8,0:0:0:0:
256,192,85140,1,8,0:0:0:0:
256,192,85303,1,0,0:0:0:0:
256,192,85465,1,0,0:0:0:0:
256,192,85546,1,0,0:0:0:0:
256,192,85627,1,0,0:0:0:0:
256,192,85789,1,12,0:0:0:0:
256,192,86113,1,8,0:0:0:0:
256,192,86276,1,0,0:0:0:0:
256,192,86438,1,8,0:0:0:0:
256,192,86924,1,8,0:0:0:0:
256,192,87249,1,0,0:0:0:0:
256,192,87411,1,8,0:0:0:0:
256,192,87735,1,8,0:0:0:0:
256,192,87897,1,0,0:0:0:0:
256,192,88059,1,8,0:0:0:0:
256,192,88222,1,8,0:0:0:0:
256,192,88384,1,4,0:0:0:0:
256,192,88708,1,8,0:0:0:0:
256,192,88870,1,0,0:0:0:0:
256,192,89032,1,8,0:0:0:0:
256,192,89357,1,0,0:0:0:0:
256,192,89519,1,8,0:0:0:0:
256,192,89843,1,0,0:0:0:0:
256,192,90005,1,8,0:0:0:0:
256,192,90330,1,8,0:0:0:0:
256,192,90978,1,12,0:0:0:0:
256,192,91303,1,8,0:0:0:0:
256,192,91465,1,0,0:0:0:0:
256,192,91627,1,8,0:0:0:0:
256,192,91951,1,0,0:0:0:0:
256,192,92113,1,8,0:0:0:0:
256,192,92438,1,0,0:0:0:0:
256,192,92600,1,8,0:0:0:0:
256,192,92924,1,8,0:0:0:0:
256,192,93086,1,0,0:0:0:0:
256,192,93167,1,0,0:0:0:0:
256,192,93249,1,0,0:0:0:0:
256,192,93411,1,8,0:0:0:0:
256,192,93573,1,4,0:0:0:0:
256,192,93897,1,8,0:0:0:0:
256,192,94059,1,0,0:0:0:0:
256,192,94222,1,8,0:0:0:0:
256,192,94546,1,0,0:0:0:0:
256,192,94708,1,8,0:0:0:0:
256,192,95032,1,0,0:0:0:0:
256,192,95195,1,8,0:0:0:0:
256,192,95519,1,8,0:0:0:0:
256,192,96005,1,0,0:0:0:0:
256,192,96167,1,12,0:0:0:0:
256,192,96492,1,8,0:0:0:0:
256,192,96654,1,0,0:0:0:0:
256,192,96816,1,8,0:0:0:0:
256,192,97140,1,0,0:0:0:0:
256,192,97303,1,8,0:0:0:0:
256,192,97465,1,0,0:0:0:0:
256,192,97627,1,0,0:0:0:0:
256,192,97789,1,8,0:0:0:0:
256,192,98113,1,8,0:0:0:0:
256,192,98276,1,8,0:0:0:0:
256,192,98357,1,8,0:0:0:0:
256,192,98438,1,8,0:0:0:0:
256,192,98600,1,8,0:0:0:0:
256,192,98762,1,4,0:0:0:0:
256,192,99086,1,8,0:0:0:0:
256,192,99249,1,0,0:0:0:0:
256,192,99411,1,8,0:0:0:0:
256,192,99897,1,8,0:0:0:0:
256,192,100222,1,0,0:0:0:0:
256,192,100384,1,8,0:0:0:0:
256,192,100708,1,8,0:0:0:0:
256,192,101032,1,0,0:0:0:0:
256,192,101357,1,12,0:0:0:0:
256,192,101681,1,8,0:0:0:0:
256,192,101843,1,0,0:0:0:0:
256,192,102005,1,8,0:0:0:0:
256,192,102330,1,0,0:0:0:0:
256,192,102492,1,8,0:0:0:0:
256,192,102654,1,0,0:0:0:0:
256,192,102816,1,0,0:0:0:0:
256,192,102978,1,8,0:0:0:0:
256,192,103303,1,8,0:0:0:0:
256,192,103465,1,0,0:0:0:0:
256,192,103546,1,0,0:0:0:0:
256,192,103627,1,0,0:0:0:0:
256,192,103789,1,8,0:0:0:0:
256,192,103951,1,4,0:0:0:0:
256,192,104276,1,8,0:0:0:0:
256,192,104438,1,0,0:0:0:0:
256,192,104600,1,8,0:0:0:0:
256,192,105086,1,8,0:0:0:0:
256,192,105411,1,0,0:0:0:0:
256,192,105573,1,8,0:0:0:0:
256,192,105897,1,8,0:0:0:0:
256,192,106059,1,0,0:0:0:0:
256,192,106222,1,0,0:0:0:0:
256,192,106384,1,8,0:0:0:0:
256,192,106546,1,12,0:0:0:0:
256,192,106870,1,8,0:0:0:0:
256,192,107032,1,0,0:0:0:0:
256,192,107195,1,8,0:0:0:0:
256,192,107519,1,0,0:0:0:0:
256,192,107681,1,8,0:0:0:0:
256,192,107843,1,0,0:0:0:0:
256,192,108005,1,0,0:0:0:0:
256,192,108167,1,8,0:0:0:0:
256,192,108492,1,8,0:0:0:0:
256,192,108816,1,8,0:0:0:0:
256,192,108978,1,8,0:0:0:0:
256,192,109140,1,4,0:0:0:0:
256,192,109465,1,8,0:0:0:0:
256,192,109627,1,0,0:0:0:0:
256,192,109789,1,8,0:0:0:0:
256,192,110113,1,0,0:0:0:0:
256,192,110276,1,8,0:0:0:0:
256,192,110438,1,0,0:0:0:0:
256,192,110600,1,0,0:0:0:0:
256,192,110762,1,8,0:0:0:0:
256,192,111086,1,8,0:0:0:0:
256,192,111573,1,8,0:0:0:0:
256,192,111735,1,12,0:0:0:0:
256,192,112059,1,8,0:0:0:0:
256,192,112222,1,0,0:0:0:0:
256,192,112384,1,8,0:0:0:0:
256,192,112708,1,0,0:0:0:0:
256,192,112870,1,8,0:0:0:0:
256,192,113195,1,0,0:0:0:0:
256,192,113357,1,8,0:0:0:0:
256,192,113681,1,8,0:0:0:0:
256,192,113843,1,0,0:0:0:0:
256,192,113924,1,0,0:0:0:0:
256,192,114005,1,0,0:0:0:0:
256,192,114167,1,0,0:0:0:0:
256,192,114330,1,4,0:0:0:0:
256,192,114654,1,8,0:0:0:0:
256,192,114816,1,0,0:0:0:0:
256,192,114978,1,8,0:0:0:0:
256,192,115303,1,0,0:0:0:0:
256,192,115465,1,8,0:0:0:0:
256,192,115789,1,0,0:0:0:0:
256,192,115951,1,8,0:0:0:0:
256,192,116276,1,8,0:0:0:0:
256,192,116438,1,0,0:0:0:0:
256,192,116600,1,0,0:0:0:0:
256,192,116681,1,0,0:0:0:0:
256,192,116762,1,0,0:0:0:0:
256,192,116924,1,12,0:0:0:0:
256,192,117249,1,0,0:0:0:0:
256,192,117573,1,4,0:0:0:0:
256,192,117897,1,0,0:0:0:0:
256,192,118222,1,12,0:0:0:0:
256,192,118546,1,8,0:0:0:0:
256,192,118870,1,8,0:0:0:0:
256,192,118951,1,8,0:0:0:0:
256,192,119032,1,8,0:0:0:0:
256,192,119195,1,8,0:0:0:0:
256,192,119357,1,8,0:0:0:0:
256,192,119519,1,4,0:0:0:0:
256,192,120167,1,4,0:0:0:0:
256,192,120816,1,12,0:0:0:0:
256,192,122113,1,4,0:0:0:0:
256,192,122438,1,0,0:0:0:0:
256,192,122600,1,0,0:0:0:0:
256,192,122762,1,12,0:0:0:0:
256,192,123086,1,0,0:0:0:0:
256,192,123249,1,8,0:0:0:0:
256,192,123411,1,4,0:0:0:0:
256,192,123735,1,8,0:0:0:0:
256,192,124059,1,0,0:0:0:0:
256,192,124222,1,8,0:0:0:0:
256,192,124384,1,0,0:0:0:0:
256,192,124546,1,8,0:0:0:0:
128,96,124708,2,0,L|224:96,7,70.6999985975647
256,192,126005,1,8,0:0:0:0:
256,192,126330,1,8,0:0:0:0:
256,192,126492,1,8,0:0:0:0:
256,192,126654,1,0,0:0:0:0:
256,192,126735,1,0,0:0:0:0:
256,192,126816,1,0,0:0:0:0:
256,192,126978,1,8,0:0:0:0:
256,192,127059,1,8,0:0:0:0:
256,192,127140,1,8,0:0:0:0:
256,192,127303,1,0,0:0:0:0:
256,192,127627,1,0,0:0:0:0:
256,192,127789,1,8,0:0:0:0:
256,192,127951,1,0,0:0:0:0:
256,192,128113,1,8,0:0:0:0:
256,192,128276,1,0,0:0:0:0:
256,192,128438,1,8,0:0:0:0:
256,192,128519,1,8,0:0:0:0:
256,192,128600,1,8,0:0:0:0:
256,192,128924,1,0,0:0:0:0:
256,192,129086,1,8,0:0:0:0:
256,192,129249,1,8,0:0:0:0:
256,192,129411,1,0,0:0:0:0:
256,192,129573,1,0,0:0:0:0:
256,192,129735,1,8,0:0:0:0:
256,192,129897,1,0,0:0:0:0:
256,192,130222,1,0,0:0:0:0:
256,192,130384,1,8,0:0:0:0:
256,192,130546,1,8,0:0:0:0:
256,192,130708,1,0,0:0:0:0:
256,192,130870,1,8,0:0:0:0:
256,192,130951,1,8,0:0:0:0:
256,192,131032,1,8,0:0:0:0:
256,192,131195,1,0,0:0:0:0:
256,192,132005,1,8,0:0:0:0:
256,192,132167,1,0,0:0:0:0:
256,192,132330,1,8,0:0:0:0:
256,192,132492,1,8,0:0:0:0:
256,192,132654,1,0,0:0:0:0:
256,192,132816,1,8,0:0:0:0:
256,192,132978,1,8,0:0:0:0:
256,192,133140,1,0,0:0:0:0:
256,192,133465,1,0,0:0:0:0:
256,192,133627,1,8,0:0:0:0:
256,192,133789,1,8,0:0:0:0:
256,192,133951,1,0,0:0:0:0:
256,192,134113,1,0,0:0:0:0:
256,192,134276,1,8,0:0:0:0:
256,192,134438,1,8,0:0:0:0:
256,192,134762,1,8,0:0:0:0:
256,192,134924,1,8,0:0:0:0:
256,192,135086,1,8,0:0:0:0:
256,192,135249,1,0,0:0:0:0:
256,192,135411,1,0,0:0:0:0:
256,192,135573,1,8,0:0:0:0:
256,192,135735,1,0,0:0:0:0:
256,192,135897,1,8,0:0:0:0:
256,192,136059,1,0,0:0:0:0:
256,192,136222,1,8,0:0:0:0:
256,192,136384,1,8,0:0:0:0:
256,192,136546,1,8,0:0:0:0:
256,192,136708,1,0,0:0:0:0:
256,192,136870,1,8,0:0:0:0:
256,192,137032,1,0,0:0:0:0:
256,192,137357,1,8,0:0:0:0:
256,192,137519,1,0,0:0:0:0:
256,192,137681,1,12,0:0:0:0:
256,192,138330,1,0,0:0:0:0:
256,192,138411,1,0,0:0:0:0:
256,192,138492,1,0,0:0:0:0:
256,192,138654,1,8,0:0:0:0:
256,192,138735,1,8,0:0:0:0:
256,192,138816,1,8,0:0:0:0:
256,192,138978,1,8,0:0:0:0:
256,192,139140,1,0,0:0:0:0:
256,192,139303,1,0,0:0:0:0:
256,192,139384,1,0,0:0:0:0:
256,192,139465,1,0,0:0:0:0:
256,192,139627,1,8,0:0:0:0:
256,192,139789,1,0,0:0:0:0:
256,192,139951,1,0,0:0:0:0:
256,192,140113,1,0,0:0:0:0:
256,192,140276,1,8,0:0:0:0:
256,192,140600,1,8,0:0:0:0:
256,192,140762,1,0,0:0:0:0:
256,192,140924,1,8,0:0:0:0:
256,192,141005,1,8,0:0:0:0:
256,192,141086,1,8,0:0:0:0:
256,192,141249,1,8,0:0:0:0:
256,192,141411,1,8,0:0:0:0:
256,192,141573,1,8,0:0:0:0:
256,192,141735,1,0,0:0:0:0:
256,192,141897,1,0,0:0:0:0:
256,192,142059,1,0,0:0:0:0:
256,192,142222,1,8,0:0:0:0:
256,192,142384,1,0,0:0:0:0:
256,192,142546,1,8,0:0:0:0:
256,192,142708,1,8,0:0:0:0:
256,192,142789,1,8,0:0:0:0:
256,192,142870,1,8,0:0:0:0:
256,192,143681,1,0,0:0:0:0:
256,192,143843,1,8,0:0:0:0:
256,192,144005,1,0,0:0:0:0:
256,192,144167,1,8,0:0:0:0:
256,192,144330,1,0,0:0:0:0:
256,192,144492,1,0,0:0:0:0:
256,192,144654,1,8,0:0:0:0:
256,192,144816,1,8,0:0:0:0:
256,192,145140,1,8,0:0:0:0:
256,192,145303,1,8,0:0:0:0:
256,192,145384,1,8,0:0:0:0:
256,192,145465,1,8,0:0:0:0:
256,192,145627,1,0,0:0:0:0:
256,192,145789,1,8,0:0:0:0:
256,192,145951,1,0,0:0:0:0:
256,192,146113,1,8,0:0:0:0:
256,192,146438,1,8,0:0:0:0:
256,192,146600,1,0,0:0:0:0:
256,192,146762,1,8,0:0:0:0:
256,192,146924,1,0,0:0:0:0:
256,192,147086,1,8,0:0:0:0:
256,192,147249,1,8,0:0:0:0:
256,192,147411,1,8,0:0:0:0:
256,192,147735,1,8,0:0:0:0:
256,192,147897,1,8,0:0:0:0:
256,192,147978,1,8,0:0:0:0:
256,192,148059,1,8,0:0:0:0:
256,192,148222,1,0,0:0:0:0:
256,192,148384,1,0,0:0:0:0:
256,192,148546,1,0,0:0:0:0:
256,192,148708,1,8,0:0:0:0:
256,192,148870,1,0,0:0:0:0:
256,192,148951,1,0,0:0:0:0:
256,192,149032,1,0,0:0:0:0:
256,192,149195,1,0,0:0:0:0:
256,192,149357,1,12,0:0:0:0:
256,192,150005,1,0,0:0:0:0:
256,192,150086,1,0,0:0:0:0:
256,192,150167,1,0,0:0:0:0:
256,192,150330,1,8,0:0:0:0:
256,192,150411,1,8,0:0:0:0:
256,192,150492,1,8,0:0:0:0:
256,192,150654,1,8,0:0:0:0:
256,192,150978,1,8,0:0:0:0:
256,192,151140,1,8,0:0:0:0:
256,192,151222,1,8,0:0:0:0:
256,192,151303,1,8,0:0:0:0:
256,192,151465,1,0,0:0:0:0:
256,192,151627,1,0,0:0:0:0:
256,192,151789,1,0,0:0:0:0:
256,192,151951,1,8,0:0:0:0:
256,192,152276,1,8,0:0:0:0:
256,192,152438,1,8,0:0:0:0:
256,192,152519,1,8,0:0:0:0:
256,192,152600,1,8,0:0:0:0:
256,192,152762,1,0,0:0:0:0:
256,192,152924,1,8,0:0:0:0:
256,192,153086,1,8,0:0:0:0:
256,192,153249,1,8,0:0:0:0:
256,192,153411,1,0,0:0:0:0:
256,192,153573,1,8,0:0:0:0:
256,192,153735,1,8,0:0:0:0:
256,192,153897,1,0,0:0:0:0:
256,192,153978,1,0,0:0:0:0:
256,192,154059,1,0,0:0:0:0:
256,192,154222,1,8,0:0:0:0:
256,192,154303,1,8,0:0:0:0:
256,192,154384,1,8,0:0:0:0:
256,192,154546,1,12,0:0:0:0:
