osu file format v14

[General]
AudioFilename: audio.mp3
AudioLeadIn: 0
PreviewTime: 12167
Countdown: 0
SampleSet: Normal
StackLeniency: 0.7
Mode: 1
LetterboxInBreaks: 0
WidescreenStoryboard: 0

[Editor]
Bookmarks: 1465,11843,30005,50113,67465
DistanceSpacing: 3.1
BeatDivisor: 4
GridSize: 32
TimelineZoom: 2

[Metadata]
Title:Fur Elisa
TitleUnicode:Fur Elisa
Artist:LEAF XCEED Music Division
ArtistUnicode:LEAF XCEED Music Division
Creator:coed
Version:Inner Oni
Source:osu!
Tags:「SELECT」 roberto rtnario ramon nario power metal instrumental für elise bagatelle no. 25 in a minor ludwig van beethoven classical arrangement osu featured artist fa remix
BeatmapID:2530307
BeatmapSetID:1215987

[Difficulty]
HPDrainRate:5
CircleSize:5
OverallDifficulty:6
ApproachRate:5
SliderMultiplier:1.4
SliderTickRate:1

[Events]
//Background and Video events
0,0,"thumb-1920-96469.jpg",0,0
//Break Periods
//Storyboard Layer 0 (Background)
//Storyboard Layer 1 (Fail)
//Storyboard Layer 2 (Pass)
//Storyboard Layer 3 (Foreground)
//Storyboard Layer 4 (Overlay)
//Storyboard Sound Samples

[TimingPoints]
168,324.324324324324,4,1,0,75,1,0
23681,-99.009900990099,4,1,0,75,0,0
23843,-98.0392156862745,4,1,0,75,0,0
24005,-97.0873786407767,4,1,0,75,0,0
24167,-96.1538461538461,4,1,0,75,0,0
24492,-95.2380952380952,4,1,0,75,0,0
30005,-100,4,1,0,75,0,0
42978,-100,4,1,0,80,0,0
50762,-100,4,1,0,90,0,1
61303,-99.009900990099,4,1,0,90,0,1
61465,-98.0392156862745,4,1,0,90,0,1
61627,-97.0873786407767,4,1,0,90,0,1
61789,-96.1538461538461,4,1,0,90,0,1
62113,-95.2380952380952,4,1,0,90,0,1
66330,-95.2380952380952,4,1,0,90,0,0
67465,-96.1538461538461,4,1,0,75,0,0
67789,-97.0873786407767,4,1,0,75,0,0
67951,-98.0392156862745,4,1,0,75,0,0
68113,-99.009900990099,4,1,0,75,0,0
68276,-100,4,1,0,75,0,0
137843,-99.009900990099,4,1,0,80,0,0
138005,-98.0392156862745,4,1,0,80,0,0
138167,-97.0873786407767,4,1,0,80,0,0
138330,-96.1538461538461,4,1,0,80,0,0
138654,-95.2380952380952,4,1,0,80,0,0
138978,-95.2380952380952,4,1,0,90,0,1
149519,-94.3396226415094,4,1,0,90,0,1
149681,-93.4579439252336,4,1,0,90,0,1
149843,-92.5925925925926,4,1,0,90,0,1
150005,-91.743119266055,4,1,0,90,0,1
150330,-90.9090909090909,4,1,0,90,0,1
154546,-90.9090909090909,4,1,0,90,0,0

[HitObjects]
256,192,1465,5,12,0:0:0:0:
256,192,2113,1,4,0:0:0:0:
256,192,2762,1,12,0:0:0:0:
256,192,4059,1,4,0:0:0:0:
256,192,4708,1,12,0:0:0:0:
256,192,5357,1,4,0:0:0:0:
256,192,6654,1,4,0:0:0:0:
256,192,7303,1,4,0:0:0:0:
256,192,7951,1,12,0:0:0:0:
256,192,8600,1,12,0:0:0:0:
256,192,9249,1,4,0:0:0:0:
256,192,9897,1,12,0:0:0:0:
256,192,10546,1,4,0:0:0:0:
256,192,11195,1,12,0:0:0:0:
256,192,11843,1,0,0:0:0:0:
256,192,12005,1,8,0:0:0:0:
256,192,12086,1,8,0:0:0:0:
256,192,12167,1,8,0:0:0:0:
256,192,12330,1,8,0:0:0:0:
256,192,12492,1,0,0:0:0:0:
256,192,12654,1,0,0:0:0:0:
256,192,12816,1,8,0:0:0:0:
256,192,12978,1,8,0:0:0:0:
256,192,13140,1,0,0:0:0:0:
256,192,13303,1,8,0:0:0:0:
256,192,13465,1,0,0:0:0:0:
256,192,13546,1,0,0:0:0:0:
256,192,13627,1,8,0:0:0:0:
256,192,13789,1,8,0:0:0:0:
256,192,13951,1,0,0:0:0:0:
256,192,14113,1,0,0:0:0:0:
256,192,14195,1,0,0:0:0:0:
256,192,14276,1,8,0:0:0:0:
256,192,14357,1,0,0:0:0:0:
256,192,14438,1,8,0:0:0:0:
256,192,14600,1,8,0:0:0:0:
256,192,14681,1,8,0:0:0:0:
256,192,14762,1,0,0:0:0:0:
256,192,14843,1,0,0:0:0:0:
256,192,14924,1,8,0:0:0:0:
256,192,15086,1,0,0:0:0:0:
256,192,15249,1,8,0:0:0:0:
256,192,15330,1,8,0:0:0:0:
256,192,15411,1,8,0:0:0:0:
256,192,15492,1,0,0:0:0:0:
256,192,15573,1,8,0:0:0:0:
256,192,15654,1,8,0:0:0:0:
256,192,15735,1,0,0:0:0:0:
256,192,15897,1,8,0:0:0:0:
256,192,16059,1,0,0:0:0:0:
256,192,16140,1,0,0:0:0:0:
256,192,16222,1,8,0:0:0:0:
256,192,16384,1,0,0:0:0:0:
256,192,16465,1,0,0:0:0:0:
256,192,16546,1,8,0:0:0:0:
256,192,16627,1,0,0:0:0:0:
256,192,16708,1,8,0:0:0:0:
256,192,16789,1,0,0:0:0:0:
256,192,16870,1,8,0:0:0:0:
256,192,16951,1,8,0:0:0:0:
256,192,17032,1,0,0:0:0:0:
256,192,17195,1,8,0:0:0:0:
256,192,17357,1,0,0:0:0:0:
256,192,17438,1,8,0:0:0:0:
256,192,17519,1,8,0:0:0:0:
256,192,17681,1,0,0:0:0:0:
256,192,17843,1,8,0:0:0:0:
256,192,18005,1,8,0:0:0:0:
256,192,18086,1,0,0:0:0:0:
256,192,18167,1,8,0:0:0:0:
256,192,18249,1,8,0:0:0:0:
256,192,18330,1,0,0:0:0:0:
256,192,18492,1,8,0:0:0:0:
256,192,18654,1,0,0:0:0:0:
256,192,18735,1,0,0:0:0:0:
256,192,18816,1,0,0:0:0:0:
256,192,18897,1,8,0:0:0:0:
256,192,18978,1,8,0:0:0:0:
256,192,19140,1,8,0:0:0:0:
256,192,19303,1,0,0:0:0:0:
256,192,19384,1,0,0:0:0:0:
256,192,19465,1,8,0:0:0:0:
256,192,19546,1,0,0:0:0:0:
256,192,19627,1,8,0:0:0:0:
256,192,19789,1,8,0:0:0:0:
256,192,19951,1,0,0:0:0:0:
256,192,20032,1,0,0:0:0:0:
256,192,20113,1,8,0:0:0:0:
256,192,20195,1,8,0:0:0:0:
256,192,20276,1,8,0:0:0:0:
256,192,20357,1,0,0:0:0:0:
256,192,20438,1,8,0:0:0:0:
256,192,20519,1,8,0:0:0:0:
256,192,20600,1,0,0:0:0:0:
256,192,20681,1,0,0:0:0:0:
256,192,20762,1,8,0:0:0:0:
256,192,20924,1,8,0:0:0:0:
256,192,21086,1,0,0:0:0:0:
256,192,21249,1,0,0:0:0:0:
256,192,21330,1,8,0:0:0:0:
256,192,21411,1,8,0:0:0:0:
256,192,21573,1,8,0:0:0:0:
256,192,21654,1,0,0:0:0:0:
256,192,21735,1,8,0:0:0:0:
256,192,21816,1,0,0:0:0:0:
256,192,21897,1,0,0:0:0:0:
256,192,21978,1,0,0:0:0:0:
256,192,22059,1,8,0:0:0:0:
256,192,22140,1,8,0:0:0:0:
256,192,22222,1,0,0:0:0:0:
256,192,22303,1,0,0:0:0:0:
256,192,22384,1,8,0:0:0:0:
256,192,22546,1,0,0:0:0:0:
256,192,22627,1,0,0:0:0:0:
256,192,22708,1,8,0:0:0:0:
256,192,22789,1,8,0:0:0:0:
256,192,22870,1,8,0:0:0:0:
256,192,23032,1,8,0:0:0:0:
256,192,23113,1,8,0:0:0:0:
256,192,23195,1,0,0:0:0:0:
256,192,23276,1,0,0:0:0:0:
256,192,23357,1,8,0:0:0:0:
256,192,23519,1,12,0:0:0:0:
256,192,23681,1,0,0:0:0:0:
256,192,23843,1,8,0:0:0:0:
256,192,24005,1,8,0:0:0:0:
256,192,24167,1,8,0:0:0:0:
256,192,24249,1,8,0:0:0:0:
256,192,24330,1,8,0:0:0:0:
256,192,24492,1,0,0:0:0:0:
256,192,24573,1,8,0:0:0:0:
256,192,24654,1,0,0:0:0:0:
256,192,24816,1,0,0:0:0:0:
256,192,24978,1,8,0:0:0:0:
256,192,25140,1,0,0:0:0:0:
256,192,25222,1,8,0:0:0:0:
256,192,25303,1,8,0:0:0:0:
256,192,25465,1,0,0:0:0:0:
256,192,25546,1,0,0:0:0:0:
256,192,25627,1,8,0:0:0:0:
256,192,25708,1,0,0:0:0:0:
256,192,25789,1,0,0:0:0:0:
256,192,25870,1,0,0:0:0:0:
256,192,25951,1,8,0:0:0:0:
256,192,26032,1,0,0:0:0:0:
256,192,26113,1,8,0:0:0:0:
256,192,26276,1,8,0:0:0:0:
256,192,26438,1,0,0:0:0:0:
256,192,26519,1,8,0:0:0:0:
256,192,26600,1,0,0:0:0:0:
256,192,26681,1,0,0:0:0:0:
256,192,26762,1,8,0:0:0:0:
256,192,26924,1,8,0:0:0:0:
256,192,27005,1,8,0:0:0:0:
256,192,27086,1,0,0:0:0:0:
256,192,27167,1,0,0:0:0:0:
256,192,27249,1,8,0:0:0:0:
256,192,27330,1,0,0:0:0:0:
256,192,27411,1,0,0:0:0:0:
256,192,27573,1,8,0:0:0:0:
256,192,27654,1,0,0:0:0:0:
256,192,27735,1,0,0:0:0:0:
256,192,27816,1,0,0:0:0:0:
256,192,27897,1,8,0:0:0:0:
256,192,27978,1,8,0:0:0:0:
256,192,28059,1,0,0:0:0:0:
256,192,28140,1,0,0:0:0:0:
256,192,28222,1,8,0:0:0:0:
256,192,28303,1,0,0:0:0:0:
256,192,28384,1,8,0:0:0:0:
256,192,28465,1,8,0:0:0:0:
256,192,28546,1,8,0:0:0:0:
256,192,28627,1,8,0:0:0:0:
256,192,28708,1,4,0:0:0:0:
256,192,30005,1,12,0:0:0:0:
256,192,30654,1,12,0:0:0:0:
256,192,31303,1,8,0:0:0:0:
256,192,31384,1,0,0:0:0:0:
256,192,31465,1,0,0:0:0:0:
256,192,31546,1,0,0:0:0:0:
256,192,31627,1,8,0:0:0:0:
256,192,31708,1,0,0:0:0:0:
256,192,31789,1,0,0:0:0:0:
256,192,31870,1,0,0:0:0:0:
256,192,31951,1,8,0:0:0:0:
256,192,32032,1,8,0:0:0:0:
256,192,32113,1,0,0:0:0:0:
256,192,32195,1,0,0:0:0:0:
256,192,32276,1,8,0:0:0:0:
256,192,32357,1,8,0:0:0:0:
256,192,32438,1,8,0:0:0:0:
256,192,32519,1,8,0:0:0:0:
256,192,32600,1,4,0:0:0:0:
256,192,32924,1,8,0:0:0:0:
256,192,33411,1,0,0:0:0:0:
256,192,33573,1,8,0:0:0:0:
256,192,33897,1,0,0:0:0:0:
256,192,34222,1,8,0:0:0:0:
256,192,34546,1,8,0:0:0:0:
256,192,34708,1,0,0:0:0:0:
256,192,34870,1,8,0:0:0:0:
256,192,35195,1,12,0:0:0:0:
256,192,35519,1,4,0:0:0:0:
256,192,35843,1,12,0:0:0:0:
256,192,36167,1,12,0:0:0:0:
256,192,36492,1,4,0:0:0:0:
256,192,36816,1,8,0:0:0:0:
256,192,37140,1,0,0:0:0:0:
256,192,37303,1,0,0:0:0:0:
256,192,37465,1,8,0:0:0:0:
256,192,37627,1,0,0:0:0:0:
256,192,37708,1,0,0:0:0:0:
256,192,37789,1,12,0:0:0:0:
256,192,38113,1,8,0:0:0:0:
256,192,38438,1,0,0:0:0:0:
256,192,38600,1,0,0:0:0:0:
256,192,38762,1,8,0:0:0:0:
256,192,38924,1,8,0:0:0:0:
256,192,39086,1,0,0:0:0:0:
256,192,39411,1,8,0:0:0:0:
256,192,39735,1,0,0:0:0:0:
256,192,39897,1,0,0:0:0:0:
256,192,39978,1,0,0:0:0:0:
256,192,40059,1,8,0:0:0:0:
256,192,40222,1,0,0:0:0:0:
256,192,40384,1,4,0:0:0:0:
256,192,40546,1,0,0:0:0:0:
256,192,40708,1,8,0:0:0:0:
256,192,40789,1,8,0:0:0:0:
256,192,40870,1,0,0:0:0:0:
256,192,40951,1,0,0:0:0:0:
256,192,41032,1,12,0:0:0:0:
256,192,41195,1,0,0:0:0:0:
256,192,41357,1,8,0:0:0:0:
256,192,41438,1,0,0:0:0:0:
256,192,41519,1,8,0:0:0:0:
256,192,41681,1,4,0:0:0:0:
256,192,42978,1,4,0:0:0:0:
256,192,43303,1,4,0:0:0:0:
256,192,43627,1,12,0:0:0:0:
256,192,44924,1,4,0:0:0:0:
256,192,45249,1,12,0:0:0:0:
256,192,45573,1,4,0:0:0:0:
256,192,46870,1,8,0:0:0:0:
256,192,47519,1,8,0:0:0:0:
256,192,48167,1,8,0:0:0:0:
256,192,48492,1,8,0:0:0:0:
256,192,48816,1,8,0:0:0:0:
256,192,49140,1,8,0:0:0:0:
256,192,49465,1,8,0:0:0:0:
256,192,49627,1,8,0:0:0:0:
256,192,49789,1,8,0:0:0:0:
256,192,49951,1,8,0:0:0:0:
256,192,50113,1,0,0:0:0:0:
256,192,50195,1,0,0:0:0:0:
256,192,50276,1,0,0:0:0:0:
256,192,50357,1,0,0:0:0:0:
256,192,50438,1,8,0:0:0:0:
256,192,50519,1,8,0:0:0:0:
256,192,50600,1,8,0:0:0:0:
256,192,50681,1,8,0:0:0:0:
256,192,50762,1,0,0:0:0:0:
256,192,50924,1,8,0:0:0:0:
256,192,51086,1,0,0:0:0:0:
256,192,51167,1,0,0:0:0:0:
256,192,51249,1,8,0:0:0:0:
256,192,51411,1,0,0:0:0:0:
256,192,51492,1,0,0:0:0:0:
256,192,51573,1,8,0:0:0:0:
256,192,51654,1,8,0:0:0:0:
256,192,51735,1,0,0:0:0:0:
256,192,51816,1,0,0:0:0:0:
256,192,51897,1,8,0:0:0:0:
256,192,51978,1,0,0:0:0:0:
256,192,52059,1,8,0:0:0:0:
256,192,52222,1,8,0:0:0:0:
256,192,52303,1,8,0:0:0:0:
256,192,52384,1,0,0:0:0:0:
256,192,52465,1,0,0:0:0:0:
256,192,52546,1,8,0:0:0:0:
256,192,52708,1,0,0:0:0:0:
256,192,52789,1,0,0:0:0:0:
256,192,52870,1,8,0:0:0:0:
256,192,52951,1,8,0:0:0:0:
256,192,53032,1,8,0:0:0:0:
256,192,53113,1,0,0:0:0:0:
256,192,53195,1,8,0:0:0:0:
256,192,53357,1,0,0:0:0:0:
256,192,53519,1,8,0:0:0:0:
256,192,53600,1,0,0:0:0:0:
256,192,53681,1,0,0:0:0:0:
256,192,53762,1,0,0:0:0:0:
256,192,53843,1,8,0:0:0:0:
256,192,53924,1,8,0:0:0:0:
256,192,54005,1,0,0:0:0:0:
256,192,54086,1,0,0:0:0:0:
256,192,54167,1,8,0:0:0:0:
256,192,54249,1,0,0:0:0:0:
256,192,54330,1,8,0:0:0:0:
256,192,54411,1,8,0:0:0:0:
256,192,54492,1,8,0:0:0:0:
256,192,54573,1,8,0:0:0:0:
256,192,54654,1,0,0:0:0:0:
256,192,54816,1,8,0:0:0:0:
256,192,54978,1,0,0:0:0:0:
256,192,55059,1,0,0:0:0:0:
256,192,55140,1,8,0:0:0:0:
256,192,55303,1,0,0:0:0:0:
256,192,55465,1,8,0:0:0:0:
256,192,55627,1,0,0:0:0:0:
256,192,55708,1,8,0:0:0:0:
256,192,55789,1,8,0:0:0:0:
256,192,55870,1,8,0:0:0:0:
256,192,55951,1,0,0:0:0:0:
256,192,56113,1,8,0:0:0:0:
256,192,56195,1,0,0:0:0:0:
256,192,56276,1,8,0:0:0:0:
256,192,56357,1,0,0:0:0:0:
256,192,56438,1,8,0:0:0:0:
256,192,56519,1,8,0:0:0:0:
256,192,56600,1,0,0:0:0:0:
256,192,56762,1,8,0:0:0:0:
256,192,56924,1,0,0:0:0:0:
256,192,57005,1,0,0:0:0:0:
256,192,57086,1,8,0:0:0:0:
256,192,57167,1,0,0:0:0:0:
256,192,57249,1,8,0:0:0:0:
256,192,57411,1,8,0:0:0:0:
256,192,57492,1,0,0:0:0:0:
256,192,57573,1,8,0:0:0:0:
256,192,57654,1,0,0:0:0:0:
256,192,57735,1,8,0:0:0:0:
256,192,57816,1,8,0:0:0:0:
256,192,57897,1,0,0:0:0:0:
256,192,58059,1,8,0:0:0:0:
256,192,58140,1,8,0:0:0:0:
256,192,58222,1,8,0:0:0:0:
256,192,58303,1,0,0:0:0:0:
256,192,58384,1,8,0:0:0:0:
256,192,58465,1,0,0:0:0:0:
256,192,58546,1,0,0:0:0:0:
256,192,58708,1,8,0:0:0:0:
256,192,58789,1,8,0:0:0:0:
256,192,58870,1,0,0:0:0:0:
256,192,58951,1,0,0:0:0:0:
256,192,59032,1,8,0:0:0:0:
256,192,59113,1,0,0:0:0:0:
256,192,59195,1,0,0:0:0:0:
256,192,59357,1,8,0:0:0:0:
256,192,59438,1,0,0:0:0:0:
256,192,59519,1,0,0:0:0:0:
256,192,59600,1,0,0:0:0:0:
256,192,59681,1,8,0:0:0:0:
256,192,59762,1,8,0:0:0:0:
256,192,59843,1,0,0:0:0:0:
256,192,59924,1,0,0:0:0:0:
256,192,60005,1,8,0:0:0:0:
256,192,60086,1,8,0:0:0:0:
256,192,60167,1,0,0:0:0:0:
256,192,60249,1,0,0:0:0:0:
256,192,60330,1,8,0:0:0:0:
256,192,60411,1,8,0:0:0:0:
256,192,60492,1,8,0:0:0:0:
256,192,60573,1,0,0:0:0:0:
256,192,60654,1,8,0:0:0:0:
256,192,60735,1,0,0:0:0:0:
256,192,60816,1,0,0:0:0:0:
256,192,60897,1,0,0:0:0:0:
256,192,60978,1,8,0:0:0:0:
256,192,61059,1,0,0:0:0:0:
256,192,61140,1,12,0:0:0:0:
256,192,61303,1,8,0:0:0:0:
256,192,61465,1,0,0:0:0:0:
256,192,61627,1,8,0:0:0:0:
256,192,61789,1,8,0:0:0:0:
256,192,61870,1,8,0:0:0:0:
256,192,61951,1,8,0:0:0:0:
256,192,62113,1,0,0:0:0:0:
256,192,62195,1,8,0:0:0:0:
256,192,62276,1,8,0:0:0:0:
256,192,62438,1,0,0:0:0:0:
256,192,62519,1,0,0:0:0:0:
256,192,62600,1,8,0:0:0:0:
256,192,62681,1,8,0:0:0:0:
256,192,62762,1,0,0:0:0:0:
256,192,62843,1,0,0:0:0:0:
256,192,62924,1,8,0:0:0:0:
256,192,63005,1,8,0:0:0:0:
256,192,63086,1,8,0:0:0:0:
256,192,63167,1,0,0:0:0:0:
256,192,63249,1,8,0:0:0:0:
256,192,63330,1,8,0:0:0:0:
256,192,63411,1,0,0:0:0:0:
256,192,63492,1,8,0:0:0:0:
256,192,63573,1,8,0:0:0:0:
256,192,63654,1,0,0:0:0:0:
256,192,63735,1,8,0:0:0:0:
256,192,63897,1,8,0:0:0:0:
256,192,63978,1,8,0:0:0:0:
256,192,64059,1,0,0:0:0:0:
256,192,64140,1,0,0:0:0:0:
256,192,64222,1,8,0:0:0:0:
256,192,64303,1,0,0:0:0:0:
256,192,64384,1,0,0:0:0:0:
256,192,64465,1,0,0:0:0:0:
256,192,64546,1,8,0:0:0:0:
256,192,64627,1,0,0:0:0:0:
256,192,64708,1,8,0:0:0:0:
256,192,64789,1,0,0:0:0:0:
256,192,64870,1,8,0:0:0:0:
256,192,64951,1,8,0:0:0:0:
256,192,65032,1,0,0:0:0:0:
256,192,65113,1,0,0:0:0:0:
256,192,65195,1,8,0:0:0:0:
256,192,65276,1,0,0:0:0:0:
256,192,65357,1,0,0:0:0:0:
256,192,65438,1,8,0:0:0:0:
256,192,65519,1,8,0:0:0:0:
256,192,65600,1,0,0:0:0:0:
256,192,65681,1,8,0:0:0:0:
256,192,65762,1,0,0:0:0:0:
256,192,65843,1,8,0:0:0:0:
256,192,65924,1,0,0:0:0:0:
256,192,66005,1,8,0:0:0:0:
256,192,66086,1,8,0:0:0:0:
256,192,66167,1,8,0:0:0:0:
256,192,66249,1,8,0:0:0:0:
256,192,66330,1,4,0:0:0:0:
256,192,67465,1,8,0:0:0:0:
256,192,67546,1,8,0:0:0:0:
256,192,67627,1,4,0:0:0:0:
256,192,67789,1,0,0:0:0:0:
256,192,67951,1,8,0:0:0:0:
256,192,68113,1,0,0:0:0:0:
256,192,68276,1,8,0:0:0:0:
256,192,68438,1,0,0:0:0:0:
256,192,68600,1,0,0:0:0:0:
256,192,68762,1,8,0:0:0:0:
256,192,68924,1,0,0:0:0:0:
256,192,69086,1,0,0:0:0:0:
256,192,69249,1,8,0:0:0:0:
256,192,69411,1,0,0:0:0:0:
256,192,69573,1,8,0:0:0:0:
256,192,69735,1,0,0:0:0:0:
256,192,69897,1,0,0:0:0:0:
256,192,70059,1,0,0:0:0:0:
256,192,70140,1,0,0:0:0:0:
256,192,70222,1,12,0:0:0:0:
256,192,70384,1,0,0:0:0:0:
256,192,70546,1,8,0:0:0:0:
256,192,70708,1,0,0:0:0:0:
256,192,70870,1,8,0:0:0:0:
256,192,71032,1,0,0:0:0:0:
256,192,71195,1,0,0:0:0:0:
256,192,71357,1,8,0:0:0:0:
256,192,71519,1,0,0:0:0:0:
256,192,71681,1,0,0:0:0:0:
256,192,71843,1,8,0:0:0:0:
256,192,72005,1,0,0:0:0:0:
256,192,72167,1,8,0:0:0:0:
256,192,72330,1,8,0:0:0:0:
256,192,72411,1,8,0:0:0:0:
256,192,72492,1,0,0:0:0:0:
256,192,72573,1,0,0:0:0:0:
256,192,72654,1,8,0:0:0:0:
256,192,72735,1,8,0:0:0:0:
256,192,72816,1,4,0:0:0:0:
256,192,72978,1,0,0:0:0:0:
256,192,73140,1,8,0:0:0:0:
256,192,73303,1,0,0:0:0:0:
256,192,73465,1,8,0:0:0:0:
256,192,73627,1,0,0:0:0:0:
256,192,73789,1,0,0:0:0:0:
256,192,73951,1,8,0:0:0:0:
256,192,74113,1,0,0:0:0:0:
256,192,74276,1,0,0:0:0:0:
256,192,74438,1,8,0:0:0:0:
256,192,74600,1,0,0:0:0:0:
256,192,74762,1,8,0:0:0:0:
256,192,74924,1,0,0:0:0:0:
256,192,75086,1,0,0:0:0:0:
256,192,75249,1,0,0:0:0:0:
256,192,75330,1,0,0:0:0:0:
256,192,75411,1,12,0:0:0:0:
256,192,75573,1,0,0:0:0:0:
256,192,75735,1,8,0:0:0:0:
256,192,75897,1,0,0:0:0:0:
256,192,76059,1,8,0:0:0:0:
256,192,76222,1,0,0:0:0:0:
256,192,76384,1,0,0:0:0:0:
256,192,76546,1,12,0:0:0:0:
256,192,78005,1,4,0:0:0:0:
256,192,78167,1,0,0:0:0:0:
256,192,78330,1,8,0:0:0:0:
256,192,78492,1,0,0:0:0:0:
256,192,78654,1,8,0:0:0:0:
256,192,78816,1,0,0:0:0:0:
256,192,78978,1,0,0:0:0:0:
256,192,79140,1,8,0:0:0:0:
256,192,79303,1,0,0:0:0:0:
256,192,79465,1,0,0:0:0:0:
256,192,79627,1,8,0:0:0:0:
256,192,79789,1,0,0:0:0:0:
256,192,79951,1,8,0:0:0:0:
256,192,80113,1,0,0:0:0:0:
256,192,80276,1,0,0:0:0:0:
256,192,80438,1,0,0:0:0:0:
256,192,80519,1,0,0:0:0:0:
256,192,80600,1,12,0:0:0:0:
256,192,80762,1,0,0:0:0:0:
256,192,80924,1,8,0:0:0:0:
256,192,81086,1,0,0:0:0:0:
256,192,81249,1,8,0:0:0:0:
256,192,81411,1,0,0:0:0:0:
256,192,81573,1,0,0:0:0:0:
256,192,81735,1,8,0:0:0:0:
256,192,81897,1,0,0:0:0:0:
256,192,82059,1,0,0:0:0:0:
256,192,82222,1,8,0:0:0:0:
256,192,82384,1,0,0:0:0:0:
256,192,82546,1,8,0:0:0:0:
256,192,82708,1,8,0:0:0:0:
256,192,82789,1,8,0:0:0:0:
256,192,82870,1,0,0:0:0:0:
256,192,82951,1,0,0:0:0:0:
256,192,83032,1,8,0:0:0:0:
256,192,83113,1,8,0:0:0:0:
256,192,83195,1,4,0:0:0:0:
256,192,83357,1,0,0:0:0:0:
256,192,83519,1,8,0:0:0:0:
256,192,83681,1,0,0:0:0:0:
256,192,83843,1,8,0:0:0:0:
256,192,84005,1,0,0:0:0:0:
256,192,84167,1,0,0:0:0:0:
256,192,84330,1,8,0:0:0:0:
256,192,84492,1,0,0:0:0:0:
256,192,84654,1,0,0:0:0:0:
256,192,84735,1,0,0:0:0:0:
256,192,84816,1,8,0:0:0:0:
256,192,84978,1,0,0:0:0:0:
256,192,85140,1,8,0:0:0:0:
256,192,85303,1,8,0:0:0:0:
256,192,85384,1,8,0:0:0:0:
256,192,85465,1,8,0:0:0:0:
256,192,85546,1,8,0:0:0:0:
256,192,85627,1,0,0:0:0:0:
256,192,85708,1,0,0:0:0:0:
256,192,85789,1,12,0:0:0:0:
256,192,85951,1,0,0:0:0:0:
256,192,86113,1,8,0:0:0:0:
256,192,86276,1,0,0:0:0:0:
256,192,86438,1,8,0:0:0:0:
256,192,86600,1,0,0:0:0:0:
256,192,86762,1,0,0:0:0:0:
256,192,86843,1,0,0:0:0:0:
256,192,86924,1,8,0:0:0:0:
256,192,87086,1,0,0:0:0:0:
256,192,87249,1,0,0:0:0:0:
256,192,87411,1,8,0:0:0:0:
256,192,87573,1,0,0:0:0:0:
256,192,87735,1,8,0:0:0:0:
256,192,87816,1,0,0:0:0:0:
256,192,87897,1,0,0:0:0:0:
256,192,87978,1,0,0:0:0:0:
256,192,88059,1,8,0:0:0:0:
256,192,88222,1,8,0:0:0:0:
256,192,88303,1,8,0:0:0:0:
256,192,88384,1,4,0:0:0:0:
256,192,88546,1,0,0:0:0:0:
256,192,88627,1,0,0:0:0:0:
256,192,88708,1,8,0:0:0:0:
256,192,88870,1,0,0:0:0:0:
256,192,89032,1,8,0:0:0:0:
256,192,89195,1,8,0:0:0:0:
256,192,89357,1,0,0:0:0:0:
256,192,89519,1,8,0:0:0:0:
256,192,89600,1,0,0:0:0:0:
256,192,89681,1,0,0:0:0:0:
256,192,89843,1,0,0:0:0:0:
256,192,90005,1,8,0:0:0:0:
256,192,90167,1,0,0:0:0:0:
256,192,90330,1,8,0:0:0:0:
256,192,90411,1,0,0:0:0:0:
256,192,90492,1,0,0:0:0:0:
256,192,90654,1,0,0:0:0:0:
256,192,90735,1,0,0:0:0:0:
256,192,90816,1,0,0:0:0:0:
256,192,90897,1,0,0:0:0:0:
256,192,90978,1,12,0:0:0:0:
256,192,91140,1,0,0:0:0:0:
256,192,91303,1,8,0:0:0:0:
256,192,91465,1,0,0:0:0:0:
256,192,91627,1,8,0:0:0:0:
256,192,91789,1,8,0:0:0:0:
256,192,91951,1,0,0:0:0:0:
256,192,92113,1,8,0:0:0:0:
256,192,92195,1,8,0:0:0:0:
256,192,92276,1,0,0:0:0:0:
256,192,92438,1,0,0:0:0:0:
256,192,92600,1,8,0:0:0:0:
256,192,92762,1,0,0:0:0:0:
256,192,92924,1,8,0:0:0:0:
256,192,93086,1,8,0:0:0:0:
256,192,93167,1,8,0:0:0:0:
256,192,93249,1,0,0:0:0:0:
256,192,93330,1,8,0:0:0:0:
256,192,93411,1,8,0:0:0:0:
256,192,93492,1,8,0:0:0:0:
256,192,93573,1,4,0:0:0:0:
256,192,93735,1,0,0:0:0:0:
256,192,93897,1,8,0:0:0:0:
256,192,94059,1,0,0:0:0:0:
256,192,94222,1,8,0:0:0:0:
256,192,94384,1,0,0:0:0:0:
256,192,94546,1,0,0:0:0:0:
256,192,94708,1,8,0:0:0:0:
256,192,94870,1,0,0:0:0:0:
256,192,95032,1,0,0:0:0:0:
256,192,95113,1,0,0:0:0:0:
256,192,95195,1,8,0:0:0:0:
256,192,95276,1,0,0:0:0:0:
256,192,95357,1,0,0:0:0:0:
256,192,95519,1,8,0:0:0:0:
256,192,95681,1,8,0:0:0:0:
256,192,95843,1,0,0:0:0:0:
256,192,96005,1,0,0:0:0:0:
256,192,96086,1,0,0:0:0:0:
256,192,96167,1,12,0:0:0:0:
256,192,96330,1,0,0:0:0:0:
256,192,96492,1,8,0:0:0:0:
256,192,96654,1,0,0:0:0:0:
256,192,96816,1,8,0:0:0:0:
256,192,96978,1,0,0:0:0:0:
256,192,97140,1,0,0:0:0:0:
256,192,97303,1,8,0:0:0:0:
256,192,97465,1,0,0:0:0:0:
256,192,97546,1,0,0:0:0:0:
256,192,97627,1,8,0:0:0:0:
256,192,97708,1,0,0:0:0:0:
256,192,97789,1,8,0:0:0:0:
256,192,97951,1,0,0:0:0:0:
256,192,98113,1,8,0:0:0:0:
256,192,98276,1,0,0:0:0:0:
256,192,98357,1,0,0:0:0:0:
256,192,98438,1,8,0:0:0:0:
256,192,98519,1,0,0:0:0:0:
256,192,98600,1,8,0:0:0:0:
256,192,98681,1,8,0:0:0:0:
256,192,98762,1,4,0:0:0:0:
256,192,98924,1,0,0:0:0:0:
256,192,99005,1,0,0:0:0:0:
256,192,99086,1,8,0:0:0:0:
256,192,99249,1,0,0:0:0:0:
256,192,99411,1,8,0:0:0:0:
256,192,99573,1,0,0:0:0:0:
256,192,99735,1,0,0:0:0:0:
256,192,99897,1,8,0:0:0:0:
256,192,99978,1,8,0:0:0:0:
256,192,100059,1,0,0:0:0:0:
256,192,100222,1,0,0:0:0:0:
256,192,100384,1,8,0:0:0:0:
256,192,100546,1,0,0:0:0:0:
256,192,100708,1,8,0:0:0:0:
256,192,100870,1,0,0:0:0:0:
256,192,101032,1,0,0:0:0:0:
256,192,101113,1,0,0:0:0:0:
256,192,101195,1,0,0:0:0:0:
256,192,101276,1,0,0:0:0:0:
256,192,101357,1,12,0:0:0:0:
256,192,101519,1,0,0:0:0:0:
256,192,101681,1,8,0:0:0:0:
256,192,101762,1,0,0:0:0:0:
256,192,101843,1,0,0:0:0:0:
256,192,102005,1,8,0:0:0:0:
256,192,102167,1,0,0:0:0:0:
256,192,102330,1,0,0:0:0:0:
256,192,102411,1,0,0:0:0:0:
256,192,102492,1,8,0:0:0:0:
256,192,102654,1,0,0:0:0:0:
256,192,102816,1,0,0:0:0:0:
256,192,102978,1,8,0:0:0:0:
256,192,103140,1,0,0:0:0:0:
256,192,103222,1,0,0:0:0:0:
256,192,103303,1,8,0:0:0:0:
256,192,103384,1,0,0:0:0:0:
256,192,103465,1,0,0:0:0:0:
256,192,103546,1,8,0:0:0:0:
256,192,103627,1,0,0:0:0:0:
256,192,103708,1,0,0:0:0:0:
256,192,103789,1,8,0:0:0:0:
256,192,103870,1,8,0:0:0:0:
256,192,103951,1,4,0:0:0:0:
256,192,104113,1,0,0:0:0:0:
256,192,104276,1,8,0:0:0:0:
256,192,104438,1,0,0:0:0:0:
256,192,104600,1,8,0:0:0:0:
256,192,104762,1,8,0:0:0:0:
256,192,104924,1,0,0:0:0:0:
256,192,105086,1,8,0:0:0:0:
256,192,105167,1,0,0:0:0:0:
256,192,105249,1,0,0:0:0:0:
256,192,105411,1,0,0:0:0:0:
256,192,105573,1,8,0:0:0:0:
256,192,105735,1,0,0:0:0:0:
256,192,105897,1,8,0:0:0:0:
256,192,106059,1,0,0:0:0:0:
256,192,106140,1,8,0:0:0:0:
256,192,106222,1,0,0:0:0:0:
256,192,106303,1,0,0:0:0:0:
256,192,106384,1,8,0:0:0:0:
256,192,106465,1,0,0:0:0:0:
256,192,106546,1,12,0:0:0:0:
256,192,106708,1,0,0:0:0:0:
256,192,106870,1,8,0:0:0:0:
256,192,106951,1,8,0:0:0:0:
256,192,107032,1,0,0:0:0:0:
256,192,107113,1,0,0:0:0:0:
256,192,107195,1,8,0:0:0:0:
256,192,107357,1,0,0:0:0:0:
256,192,107519,1,0,0:0:0:0:
256,192,107681,1,8,0:0:0:0:
256,192,107762,1,8,0:0:0:0:
256,192,107843,1,0,0:0:0:0:
256,192,108005,1,0,0:0:0:0:
256,192,108086,1,0,0:0:0:0:
256,192,108167,1,8,0:0:0:0:
256,192,108330,1,0,0:0:0:0:
256,192,108411,1,0,0:0:0:0:
256,192,108492,1,8,0:0:0:0:
256,192,108573,1,8,0:0:0:0:
256,192,108654,1,0,0:0:0:0:
256,192,108735,1,0,0:0:0:0:
256,192,108816,1,8,0:0:0:0:
256,192,108897,1,0,0:0:0:0:
256,192,108978,1,8,0:0:0:0:
256,192,109059,1,8,0:0:0:0:
256,192,109140,1,4,0:0:0:0:
256,192,109303,1,0,0:0:0:0:
256,192,109384,1,0,0:0:0:0:
256,192,109465,1,8,0:0:0:0:
256,192,109627,1,0,0:0:0:0:
256,192,109789,1,8,0:0:0:0:
256,192,109951,1,0,0:0:0:0:
256,192,110113,1,0,0:0:0:0:
256,192,110276,1,8,0:0:0:0:
256,192,110357,1,0,0:0:0:0:
256,192,110438,1,0,0:0:0:0:
256,192,110600,1,0,0:0:0:0:
256,192,110762,1,8,0:0:0:0:
256,192,110924,1,0,0:0:0:0:
256,192,111005,1,0,0:0:0:0:
256,192,111086,1,8,0:0:0:0:
256,192,111167,1,8,0:0:0:0:
256,192,111249,1,0,0:0:0:0:
256,192,111411,1,0,0:0:0:0:
256,192,111492,1,0,0:0:0:0:
256,192,111573,1,0,0:0:0:0:
256,192,111654,1,0,0:0:0:0:
256,192,111735,1,12,0:0:0:0:
256,192,111897,1,0,0:0:0:0:
256,192,112059,1,8,0:0:0:0:
256,192,112222,1,0,0:0:0:0:
256,192,112384,1,8,0:0:0:0:
256,192,112546,1,0,0:0:0:0:
256,192,112708,1,0,0:0:0:0:
256,192,112870,1,8,0:0:0:0:
256,192,112951,1,8,0:0:0:0:
256,192,113032,1,0,0:0:0:0:
256,192,113195,1,0,0:0:0:0:
256,192,113357,1,8,0:0:0:0:
256,192,113519,1,0,0:0:0:0:
256,192,113681,1,8,0:0:0:0:
256,192,113843,1,0,0:0:0:0:
256,192,113924,1,0,0:0:0:0:
256,192,114005,1,8,0:0:0:0:
256,192,114086,1,0,0:0:0:0:
256,192,114167,1,0,0:0:0:0:
256,192,114249,1,8,0:0:0:0:
256,192,114330,1,4,0:0:0:0:
256,192,114492,1,0,0:0:0:0:
256,192,114654,1,8,0:0:0:0:
256,192,114816,1,0,0:0:0:0:
256,192,114897,1,0,0:0:0:0:
256,192,114978,1,8,0:0:0:0:
256,192,115140,1,0,0:0:0:0:
256,192,115303,1,0,0:0:0:0:
256,192,115465,1,8,0:0:0:0:
256,192,115546,1,8,0:0:0:0:
256,192,115627,1,0,0:0:0:0:
256,192,115789,1,0,0:0:0:0:
256,192,115951,1,8,0:0:0:0:
256,192,116032,1,0,0:0:0:0:
256,192,116113,1,0,0:0:0:0:
256,192,116276,1,8,0:0:0:0:
256,192,116438,1,0,0:0:0:0:
256,192,116600,1,0,0:0:0:0:
256,192,116681,1,0,0:0:0:0:
256,192,116762,1,0,0:0:0:0:
256,192,116843,1,0,0:0:0:0:
256,192,116924,1,12,0:0:0:0:
256,192,117086,1,0,0:0:0:0:
256,192,117249,1,0,0:0:0:0:
256,192,117411,1,8,0:0:0:0:
256,192,117573,1,4,0:0:0:0:
256,192,117735,1,0,0:0:0:0:
256,192,117897,1,8,0:0:0:0:
256,192,118059,1,0,0:0:0:0:
256,192,118222,1,12,0:0:0:0:
256,192,118384,1,0,0:0:0:0:
256,192,118546,1,8,0:0:0:0:
256,192,118708,1,0,0:0:0:0:
256,192,118870,1,8,0:0:0:0:
256,192,118951,1,8,0:0:0:0:
256,192,119032,1,8,0:0:0:0:
256,192,119113,1,8,0:0:0:0:
256,192,119195,1,8,0:0:0:0:
256,192,119276,1,8,0:0:0:0:
256,192,119357,1,8,0:0:0:0:
256,192,119438,1,8,0:0:0:0:
256,192,119519,1,4,0:0:0:0:
256,192,120167,1,4,0:0:0:0:
256,192,120816,1,12,0:0:0:0:
256,192,122113,1,4,0:0:0:0:
256,192,122438,1,0,0:0:0:0:
256,192,122519,1,8,0:0:0:0:
256,192,122600,1,0,0:0:0:0:
256,192,122681,1,0,0:0:0:0:
256,192,122762,1,12,0:0:0:0:
256,192,123086,1,0,0:0:0:0:
256,192,123167,1,8,0:0:0:0:
256,192,123249,1,8,0:0:0:0:
256,192,123330,1,8,0:0:0:0:
256,192,123411,1,4,0:0:0:0:
256,192,123735,1,8,0:0:0:0:
256,192,123897,1,0,0:0:0:0:
256,192,123978,1,0,0:0:0:0:
256,192,124059,1,0,0:0:0:0:
256,192,124222,1,8,0:0:0:0:
256,192,124384,1,0,0:0:0:0:
256,192,124546,1,8,0:0:0:0:
192,96,124708,2,0,L|288:96,7,70
256,192,126005,1,8,0:0:0:0:
256,192,126167,1,0,0:0:0:0:
256,192,126330,1,8,0:0:0:0:
256,192,126492,1,8,0:0:0:0:
256,192,126654,1,0,0:0:0:0:
256,192,126735,1,0,0:0:0:0:
256,192,126816,1,8,0:0:0:0:
256,192,126897,1,8,0:0:0:0:
256,192,126978,1,0,0:0:0:0:
256,192,127059,1,8,0:0:0:0:
256,192,127140,1,0,0:0:0:0:
256,192,127222,1,8,0:0:0:0:
256,192,127303,1,0,0:0:0:0:
256,192,127465,1,8,0:0:0:0:
256,192,127627,1,0,0:0:0:0:
256,192,127708,1,0,0:0:0:0:
256,192,127789,1,8,0:0:0:0:
256,192,127951,1,0,0:0:0:0:
256,192,128032,1,0,0:0:0:0:
256,192,128113,1,8,0:0:0:0:
256,192,128195,1,8,0:0:0:0:
256,192,128276,1,0,0:0:0:0:
256,192,128357,1,0,0:0:0:0:
256,192,128438,1,8,0:0:0:0:
256,192,128519,1,8,0:0:0:0:
256,192,128600,1,8,0:0:0:0:
256,192,128762,1,8,0:0:0:0:
256,192,128924,1,0,0:0:0:0:
256,192,129005,1,0,0:0:0:0:
256,192,129086,1,8,0:0:0:0:
256,192,129167,1,0,0:0:0:0:
256,192,129249,1,8,0:0:0:0:
256,192,129330,1,0,0:0:0:0:
256,192,129411,1,8,0:0:0:0:
256,192,129492,1,8,0:0:0:0:
256,192,129573,1,0,0:0:0:0:
256,192,129654,1,0,0:0:0:0:
256,192,129735,1,8,0:0:0:0:
256,192,129816,1,8,0:0:0:0:
256,192,129897,1,0,0:0:0:0:
256,192,130059,1,8,0:0:0:0:
256,192,130140,1,0,0:0:0:0:
256,192,130222,1,0,0:0:0:0:
256,192,130303,1,0,0:0:0:0:
256,192,130384,1,8,0:0:0:0:
256,192,130465,1,8,0:0:0:0:
256,192,130546,1,0,0:0:0:0:
256,192,130627,1,8,0:0:0:0:
256,192,130708,1,8,0:0:0:0:
256,192,130789,1,8,0:0:0:0:
256,192,130870,1,0,0:0:0:0:
256,192,130951,1,0,0:0:0:0:
256,192,131032,1,8,0:0:0:0:
256,192,131113,1,8,0:0:0:0:
256,192,131195,1,0,0:0:0:0:
256,192,131357,1,8,0:0:0:0:
256,192,131438,1,8,0:0:0:0:
256,192,131519,1,0,0:0:0:0:
256,192,131600,1,0,0:0:0:0:
256,192,131681,1,8,0:0:0:0:
256,192,131843,1,0,0:0:0:0:
256,192,132005,1,8,0:0:0:0:
256,192,132086,1,8,0:0:0:0:
256,192,132167,1,0,0:0:0:0:
256,192,132249,1,0,0:0:0:0:
256,192,132330,1,8,0:0:0:0:
256,192,132411,1,8,0:0:0:0:
256,192,132492,1,0,0:0:0:0:
256,192,132654,1,8,0:0:0:0:
256,192,132735,1,8,0:0:0:0:
256,192,132816,1,0,0:0:0:0:
256,192,132897,1,0,0:0:0:0:
256,192,132978,1,8,0:0:0:0:
256,192,133059,1,0,0:0:0:0:
256,192,133140,1,0,0:0:0:0:
256,192,133303,1,8,0:0:0:0:
256,192,133384,1,0,0:0:0:0:
256,192,133465,1,0,0:0:0:0:
256,192,133546,1,0,0:0:0:0:
256,192,133627,1,8,0:0:0:0:
256,192,133708,1,8,0:0:0:0:
256,192,133789,1,0,0:0:0:0:
256,192,133951,1,8,0:0:0:0:
256,192,134032,1,8,0:0:0:0:
256,192,134113,1,0,0:0:0:0:
256,192,134195,1,0,0:0:0:0:
256,192,134276,1,8,0:0:0:0:
256,192,134357,1,8,0:0:0:0:
256,192,134438,1,0,0:0:0:0:
256,192,134519,1,8,0:0:0:0:
256,192,134600,1,8,0:0:0:0:
256,192,134681,1,0,0:0:0:0:
256,192,134762,1,8,0:0:0:0:
256,192,134843,1,0,0:0:0:0:
256,192,134924,1,8,0:0:0:0:
256,192,135005,1,8,0:0:0:0:
256,192,135086,1,0,0:0:0:0:
256,192,135249,1,8,0:0:0:0:
256,192,135330,1,8,0:0:0:0:
256,192,135411,1,0,0:0:0:0:
256,192,135492,1,0,0:0:0:0:
256,192,135573,1,8,0:0:0:0:
256,192,135654,1,0,0:0:0:0:
256,192,135735,1,0,0:0:0:0:
256,192,135816,1,0,0:0:0:0:
256,192,135897,1,8,0:0:0:0:
256,192,135978,1,8,0:0:0:0:
256,192,136059,1,0,0:0:0:0:
256,192,136140,1,0,0:0:0:0:
256,192,136222,1,8,0:0:0:0:
256,192,136303,1,0,0:0:0:0:
256,192,136384,1,8,0:0:0:0:
256,192,136465,1,0,0:0:0:0:
256,192,136546,1,8,0:0:0:0:
256,192,136627,1,8,0:0:0:0:
256,192,136708,1,0,0:0:0:0:
256,192,136789,1,0,0:0:0:0:
256,192,136870,1,8,0:0:0:0:
256,192,136951,1,8,0:0:0:0:
256,192,137032,1,0,0:0:0:0:
256,192,137195,1,8,0:0:0:0:
256,192,137276,1,8,0:0:0:0:
256,192,137357,1,8,0:0:0:0:
256,192,137438,1,0,0:0:0:0:
256,192,137519,1,8,0:0:0:0:
256,192,137681,1,12,0:0:0:0:
256,192,137843,1,0,0:0:0:0:
256,192,138005,1,8,0:0:0:0:
256,192,138167,1,8,0:0:0:0:
256,192,138330,1,0,0:0:0:0:
256,192,138411,1,8,0:0:0:0:
256,192,138492,1,8,0:0:0:0:
256,192,138654,1,8,0:0:0:0:
256,192,138735,1,8,0:0:0:0:
256,192,138816,1,8,0:0:0:0:
256,192,138978,1,8,0:0:0:0:
256,192,139059,1,0,0:0:0:0:
256,192,139140,1,0,0:0:0:0:
256,192,139222,1,0,0:0:0:0:
256,192,139303,1,8,0:0:0:0:
256,192,139384,1,0,0:0:0:0:
256,192,139465,1,0,0:0:0:0:
256,192,139546,1,0,0:0:0:0:
256,192,139627,1,8,0:0:0:0:
256,192,139708,1,8,0:0:0:0:
256,192,139789,1,0,0:0:0:0:
256,192,139870,1,0,0:0:0:0:
256,192,139951,1,8,0:0:0:0:
256,192,140032,1,8,0:0:0:0:
256,192,140113,1,0,0:0:0:0:
256,192,140195,1,0,0:0:0:0:
256,192,140276,1,8,0:0:0:0:
256,192,140357,1,8,0:0:0:0:
256,192,140438,1,8,0:0:0:0:
256,192,140519,1,0,0:0:0:0:
256,192,140600,1,8,0:0:0:0:
256,192,140681,1,0,0:0:0:0:
256,192,140762,1,0,0:0:0:0:
256,192,140843,1,0,0:0:0:0:
256,192,140924,1,8,0:0:0:0:
256,192,141005,1,8,0:0:0:0:
256,192,141086,1,0,0:0:0:0:
256,192,141167,1,0,0:0:0:0:
256,192,141249,1,8,0:0:0:0:
256,192,141330,1,0,0:0:0:0:
256,192,141411,1,8,0:0:0:0:
256,192,141492,1,0,0:0:0:0:
256,192,141573,1,8,0:0:0:0:
256,192,141654,1,0,0:0:0:0:
256,192,141735,1,0,0:0:0:0:
256,192,141816,1,0,0:0:0:0:
256,192,141897,1,8,0:0:0:0:
256,192,141978,1,8,0:0:0:0:
256,192,142059,1,0,0:0:0:0:
256,192,142140,1,0,0:0:0:0:
256,192,142222,1,8,0:0:0:0:
256,192,142303,1,8,0:0:0:0:
256,192,142384,1,0,0:0:0:0:
256,192,142465,1,0,0:0:0:0:
256,192,142546,1,8,0:0:0:0:
256,192,142627,1,0,0:0:0:0:
256,192,142708,1,8,0:0:0:0:
256,192,142789,1,0,0:0:0:0:
256,192,142870,1,8,0:0:0:0:
256,192,142951,1,8,0:0:0:0:
256,192,143032,1,0,0:0:0:0:
256,192,143113,1,0,0:0:0:0:
256,192,143195,1,8,0:0:0:0:
256,192,143276,1,8,0:0:0:0:
256,192,143357,1,0,0:0:0:0:
256,192,143438,1,0,0:0:0:0:
256,192,143519,1,8,0:0:0:0:
256,192,143600,1,0,0:0:0:0:
256,192,143681,1,0,0:0:0:0:
256,192,143762,1,0,0:0:0:0:
256,192,143843,1,8,0:0:0:0:
256,192,143924,1,0,0:0:0:0:
256,192,144005,1,8,0:0:0:0:
256,192,144086,1,0,0:0:0:0:
256,192,144167,1,8,0:0:0:0:
256,192,144249,1,0,0:0:0:0:
256,192,144330,1,0,0:0:0:0:
256,192,144411,1,0,0:0:0:0:
256,192,144492,1,8,0:0:0:0:
256,192,144573,1,8,0:0:0:0:
256,192,144654,1,8,0:0:0:0:
256,192,144735,1,0,0:0:0:0:
256,192,144816,1,8,0:0:0:0:
256,192,144897,1,0,0:0:0:0:
256,192,144978,1,0,0:0:0:0:
256,192,145059,1,0,0:0:0:0:
256,192,145140,1,8,0:0:0:0:
256,192,145222,1,0,0:0:0:0:
256,192,145303,1,8,0:0:0:0:
256,192,145384,1,0,0:0:0:0:
256,192,145465,1,8,0:0:0:0:
256,192,145546,1,8,0:0:0:0:
256,192,145627,1,0,0:0:0:0:
256,192,145708,1,0,0:0:0:0:
256,192,145789,1,8,0:0:0:0:
256,192,145870,1,8,0:0:0:0:
256,192,145951,1,0,0:0:0:0:
256,192,146032,1,0,0:0:0:0:
256,192,146113,1,8,0:0:0:0:
256,192,146195,1,8,0:0:0:0:
256,192,146276,1,8,0:0:0:0:
256,192,146357,1,0,0:0:0:0:
256,192,146438,1,8,0:0:0:0:
256,192,146519,1,8,0:0:0:0:
256,192,146600,1,0,0:0:0:0:
256,192,146681,1,0,0:0:0:0:
256,192,146762,1,8,0:0:0:0:
256,192,146843,1,0,0:0:0:0:
256,192,146924,1,0,0:0:0:0:
256,192,147005,1,0,0:0:0:0:
256,192,147086,1,8,0:0:0:0:
256,192,147167,1,0,0:0:0:0:
256,192,147249,1,0,0:0:0:0:
256,192,147330,1,0,0:0:0:0:
256,192,147411,1,8,0:0:0:0:
256,192,147492,1,8,0:0:0:0:
256,192,147573,1,0,0:0:0:0:
256,192,147654,1,0,0:0:0:0:
256,192,147735,1,8,0:0:0:0:
256,192,147816,1,0,0:0:0:0:
256,192,147897,1,8,0:0:0:0:
256,192,147978,1,0,0:0:0:0:
256,192,148059,1,8,0:0:0:0:
256,192,148140,1,8,0:0:0:0:
256,192,148222,1,0,0:0:0:0:
256,192,148303,1,0,0:0:0:0:
256,192,148384,1,8,0:0:0:0:
256,192,148465,1,0,0:0:0:0:
256,192,148546,1,0,0:0:0:0:
256,192,148627,1,0,0:0:0:0:
256,192,148708,1,8,0:0:0:0:
256,192,148789,1,8,0:0:0:0:
256,192,148870,1,8,0:0:0:0:
256,192,148951,1,8,0:0:0:0:
256,192,149032,1,0,0:0:0:0:
256,192,149113,1,0,0:0:0:0:
256,192,149195,1,0,0:0:0:0:
256,192,149276,1,0,0:0:0:0:
256,192,149357,1,12,0:0:0:0:
256,192,149519,1,0,0:0:0:0:
256,192,149681,1,8,0:0:0:0:
256,192,149843,1,8,0:0:0:0:
256,192,150005,1,8,0:0:0:0:
256,192,150086,1,8,0:0:0:0:
256,192,150167,1,0,0:0:0:0:
256,192,150330,1,0,0:0:0:0:
256,192,150411,1,8,0:0:0:0:
256,192,150492,1,8,0:0:0:0:
256,192,150654,1,8,0:0:0:0:
256,192,150735,1,8,0:0:0:0:
256,192,150816,1,0,0:0:0:0:
256,192,150897,1,0,0:0:0:0:
256,192,150978,1,8,0:0:0:0:
256,192,151059,1,0,0:0:0:0:
256,192,151140,1,0,0:0:0:0:
256,192,151222,1,0,0:0:0:0:
256,192,151303,1,8,0:0:0:0:
256,192,151384,1,0,0:0:0:0:
256,192,151465,1,0,0:0:0:0:
256,192,151546,1,0,0:0:0:0:
256,192,151627,1,8,0:0:0:0:
256,192,151708,1,0,0:0:0:0:
256,192,151789,1,8,0:0:0:0:
256,192,151870,1,0,0:0:0:0:
256,192,151951,1,8,0:0:0:0:
256,192,152032,1,0,0:0:0:0:
256,192,152113,1,0,0:0:0:0:
256,192,152195,1,0,0:0:0:0:
256,192,152276,1,8,0:0:0:0:
256,192,152357,1,8,0:0:0:0:
256,192,152438,1,0,0:0:0:0:
256,192,152519,1,0,0:0:0:0:
256,192,152600,1,8,0:0:0:0:
256,192,152681,1,0,0:0:0:0:
256,192,152762,1,0,0:0:0:0:
256,192,152843,1,0,0:0:0:0:
256,192,152924,1,8,0:0:0:0:
256,192,153005,1,0,0:0:0:0:
256,192,153086,1,8,0:0:0:0:
256,192,153167,1,8,0:0:0:0:
256,192,153249,1,8,0:0:0:0:
256,192,153330,1,0,0:0:0:0:
256,192,153411,1,0,0:0:0:0:
256,192,153492,1,0,0:0:0:0:
256,192,153573,1,8,0:0:0:0:
256,192,153654,1,0,0:0:0:0:
256,192,153735,1,8,0:0:0:0:
256,192,153816,1,0,0:0:0:0:
256,192,153897,1,8,0:0:0:0:
256,192,153978,1,8,0:0:0:0:
256,192,154059,1,8,0:0:0:0:
256,192,154140,1,0,0:0:0:0:
256,192,154222,1,8,0:0:0:0:
256,192,154303,1,8,0:0:0:0:
256,192,154384,1,8,0:0:0:0:
256,192,154465,1,0,0:0:0:0:
256,192,154546,1,12,0:0:0:0:
