osu file format v14

[General]
AudioFilename: audio.ogg
AudioLeadIn: 0
PreviewTime: 72727
Countdown: 0
SampleSet: Soft
StackLeniency: 0.7
Mode: 3
LetterboxInBreaks: 0
SpecialStyle: 0
WidescreenStoryboard: 1

[Editor]
Bookmarks: 5699,19545,32972,46398,59825,63181,66538,69895,72832,73251,86678,100105,113531,126958,130314,133671,137028,140384,153391,153811,154230,154650,155489,168077,168916,172272,174790,175629,178986
DistanceSpacing: 1
BeatDivisor: 4
GridSize: 32
TimelineZoom: 1.9

[Metadata]
Title:Eve, Psyche & The Bluebeard's wife
TitleUnicode:이브, 프시케 그리고 푸른 수염의 아내
Artist:LE SSERAFIM
ArtistUnicode:르세라핌
Creator:turt-
Version:Normal
Source:
Tags:korean pop kpop k-pop rnb r&b rhythm and blues i'm im a mess LESSERAFIM The 1st Studio Album UNFORGIVEN 하이브 HYBE 쏘스뮤직 Source Music SouMu 김채원 Kim Chae Won Chaewon 사쿠라 宮脇咲良 Miyawaki Sakura 허윤진 Huh Yun Jin Yunjin 카즈하 中村一葉 Nakamura Kazuha 홍은채 Hong Eun Chae Eunchae Score Megatone 13 hitman bang Supreme Boi Maia Wright Max Thulin Benjmn Gusten Dahlqvist Arineh Karimi 이형석 Lee Hyeong Seok PNP danke lalala studio
BeatmapID:4180159
BeatmapSetID:1999444

[Difficulty]
HPDrainRate:7
CircleSize:4
OverallDifficulty:7
ApproachRate:5
SliderMultiplier:1.4
SliderTickRate:1

[Events]
//Background and Video events
0,0,"chaewon.png",0,0
//Break Periods
//Storyboard Layer 0 (Background)
//Storyboard Layer 1 (Fail)
//Storyboard Layer 2 (Pass)
//Storyboard Layer 3 (Foreground)
//Storyboard Layer 4 (Overlay)
//Storyboard Sound Samples

[TimingPoints]
245,419.58041958042,4,2,1,60,1,0
6119,419.58041958042,4,2,1,60,1,1
19545,-100,4,2,1,60,0,0
73251,-100,4,2,1,60,0,1
86678,-100,4,2,1,60,0,0

[HitObjects]
320,192,245,5,0,0:0:0:0:
64,192,559,1,0,0:0:0:0:
320,192,874,1,0,0:0:0:0:
192,192,1084,1,0,0:0:0:0:
448,192,1293,1,0,0:0:0:0:
64,192,1398,1,0,0:0:0:0:
192,192,1713,1,0,0:0:0:0:
192,192,1923,1,0,0:0:0:0:
448,192,2238,1,0,0:0:0:0:
192,192,2552,1,0,0:0:0:0:
320,192,2762,1,0,0:0:0:0:
64,192,2972,1,0,0:0:0:0:
448,192,3077,1,0,0:0:0:0:
320,192,3391,1,0,0:0:0:0:
320,192,3601,1,0,0:0:0:0:
64,192,3916,1,0,0:0:0:0:
320,192,4231,1,0,0:0:0:0:
192,192,4440,1,0,0:0:0:0:
448,192,4650,1,0,0:0:0:0:
64,192,4755,1,0,0:0:0:0:
192,192,5070,1,0,0:0:0:0:
192,192,5279,1,0,0:0:0:0:
64,192,5594,1,0,0:0:0:0:
448,192,5699,1,0,0:0:0:0:
192,192,5909,1,0,0:0:0:0:
64,192,6119,5,0,0:0:0:0:
320,192,6119,1,0,0:0:0:0:
320,192,6538,1,0,0:0:0:0:
64,192,6538,1,0,0:0:0:0:
320,192,6958,1,0,0:0:0:0:
64,192,6958,1,0,0:0:0:0:
448,192,7377,1,0,0:0:0:0:
64,192,7377,1,0,0:0:0:0:
320,192,7587,1,0,0:0:0:0:
192,192,7797,1,0,0:0:0:0:
448,192,7797,1,0,0:0:0:0:
192,192,8216,1,0,0:0:0:0:
448,192,8216,1,0,0:0:0:0:
192,192,8636,1,0,0:0:0:0:
448,192,8636,1,0,0:0:0:0:
64,192,9056,1,0,0:0:0:0:
320,192,9265,1,0,0:0:0:0:
448,192,9475,1,0,0:0:0:0:
192,192,9475,1,0,0:0:0:0:
192,192,9895,1,0,0:0:0:0:
448,192,9895,1,0,0:0:0:0:
192,192,10314,1,0,0:0:0:0:
448,192,10314,1,0,0:0:0:0:
448,192,10734,1,0,0:0:0:0:
64,192,10734,1,0,0:0:0:0:
192,192,10944,1,0,0:0:0:0:
320,192,11153,1,0,0:0:0:0:
64,192,11153,1,0,0:0:0:0:
320,192,11573,1,0,0:0:0:0:
64,192,11573,1,0,0:0:0:0:
320,192,11993,1,0,0:0:0:0:
64,192,11993,1,0,0:0:0:0:
448,192,12412,1,0,0:0:0:0:
192,192,12622,1,0,0:0:0:0:
64,192,12832,1,0,0:0:0:0:
320,192,12832,1,0,0:0:0:0:
64,192,13251,1,0,0:0:0:0:
320,192,13461,1,0,0:0:0:0:
448,192,13671,1,0,0:0:0:0:
192,192,13671,1,0,0:0:0:0:
448,192,14091,1,0,0:0:0:0:
320,192,14300,1,0,0:0:0:0:
64,192,14510,1,0,0:0:0:0:
192,192,14510,1,0,0:0:0:0:
320,192,14720,1,0,0:0:0:0:
192,192,14930,1,0,0:0:0:0:
448,192,14930,1,0,0:0:0:0:
448,192,15349,1,0,0:0:0:0:
64,192,15349,1,0,0:0:0:0:
64,192,15769,1,0,0:0:0:0:
320,192,15769,1,0,0:0:0:0:
192,192,15979,1,0,0:0:0:0:
448,192,16188,1,0,0:0:0:0:
320,192,16188,1,0,0:0:0:0:
448,192,16608,1,0,0:0:0:0:
192,192,16608,1,0,0:0:0:0:
64,192,17028,1,0,0:0:0:0:
448,192,17028,1,0,0:0:0:0:
320,192,17447,1,0,0:0:0:0:
192,192,17657,1,0,0:0:0:0:
448,192,17867,1,0,0:0:0:0:
320,192,17867,1,0,0:0:0:0:
192,192,18286,1,0,0:0:0:0:
320,192,18496,1,0,0:0:0:0:
64,192,18706,1,0,0:0:0:0:
192,192,18706,1,0,0:0:0:0:
320,192,19021,1,0,0:0:0:0:
320,192,19335,1,0,0:0:0:0:
448,192,19545,128,0,19965:0:0:0:0:
64,192,19545,1,0,0:0:0:0:
192,192,19965,128,0,20384:0:0:0:0:
320,192,19965,1,0,0:0:0:0:
64,192,20384,1,0,0:0:0:0:
448,192,20384,1,0,0:0:0:0:
320,192,20594,1,0,0:0:0:0:
320,192,20804,1,0,0:0:0:0:
64,192,21014,1,0,0:0:0:0:
320,192,21014,1,0,0:0:0:0:
192,192,21223,1,0,0:0:0:0:
448,192,21223,1,0,0:0:0:0:
320,192,21433,1,0,0:0:0:0:
64,192,21643,1,0,0:0:0:0:
192,192,21643,1,0,0:0:0:0:
64,192,22063,1,0,0:0:0:0:
448,192,22063,1,0,0:0:0:0:
320,192,22377,1,0,0:0:0:0:
64,192,22692,1,0,0:0:0:0:
320,192,22692,1,0,0:0:0:0:
448,192,22902,128,0,23321:0:0:0:0:
192,192,22902,1,0,0:0:0:0:
192,192,23321,128,0,23741:0:0:0:0:
64,192,23321,1,0,0:0:0:0:
320,192,23531,1,0,0:0:0:0:
64,192,23741,1,0,0:0:0:0:
448,192,23741,1,0,0:0:0:0:
320,192,23951,1,0,0:0:0:0:
192,192,24160,1,0,0:0:0:0:
64,192,24370,1,0,0:0:0:0:
448,192,24370,1,0,0:0:0:0:
320,192,24580,1,0,0:0:0:0:
192,192,24580,1,0,0:0:0:0:
192,192,24790,1,0,0:0:0:0:
64,192,25000,1,0,0:0:0:0:
448,192,25000,1,0,0:0:0:0:
64,192,25419,1,0,0:0:0:0:
320,192,25419,1,0,0:0:0:0:
448,192,25524,1,0,0:0:0:0:
192,192,25734,1,0,0:0:0:0:
192,192,26049,1,0,0:0:0:0:
320,192,26153,1,0,0:0:0:0:
64,192,26258,1,0,0:0:0:0:
448,192,26258,128,0,26678:0:0:0:0:
192,192,26678,128,0,27098:0:0:0:0:
320,192,26678,1,0,0:0:0:0:
64,192,27098,1,0,0:0:0:0:
448,192,27098,1,0,0:0:0:0:
448,192,27307,1,0,0:0:0:0:
192,192,27517,1,0,0:0:0:0:
192,192,27727,1,0,0:0:0:0:
320,192,27727,1,0,0:0:0:0:
64,192,27937,1,0,0:0:0:0:
448,192,27937,1,0,0:0:0:0:
192,192,28146,1,0,0:0:0:0:
448,192,28356,1,0,0:0:0:0:
320,192,28356,1,0,0:0:0:0:
64,192,28776,1,0,0:0:0:0:
320,192,28776,1,0,0:0:0:0:
192,192,29091,1,0,0:0:0:0:
192,192,29405,1,0,0:0:0:0:
320,192,29405,1,0,0:0:0:0:
448,192,29615,128,0,30035:0:0:0:0:
64,192,29615,1,0,0:0:0:0:
192,192,29825,1,0,0:0:0:0:
192,192,30035,128,0,30454:0:0:0:0:
320,192,30035,1,0,0:0:0:0:
64,192,30454,1,0,0:0:0:0:
448,192,30454,1,0,0:0:0:0:
320,192,30769,1,0,0:0:0:0:
64,192,31084,1,0,0:0:0:0:
320,192,31084,1,0,0:0:0:0:
192,192,31293,1,0,0:0:0:0:
448,192,31293,1,0,0:0:0:0:
448,192,31503,1,0,0:0:0:0:
64,192,31713,128,0,31923:0:0:0:0:
192,192,31713,1,0,0:0:0:0:
448,192,32132,1,0,0:0:0:0:
320,192,32132,1,0,0:0:0:0:
192,192,32237,1,0,0:0:0:0:
320,192,32447,1,0,0:0:0:0:
320,192,32762,1,0,0:0:0:0:
192,192,32867,1,0,0:0:0:0:
64,192,32972,1,0,0:0:0:0:
448,192,32972,128,0,33391:0:0:0:0:
192,192,33391,1,0,0:0:0:0:
320,192,33391,128,0,33811:0:0:0:0:
64,192,33811,1,0,0:0:0:0:
448,192,33811,1,0,0:0:0:0:
192,192,34021,1,0,0:0:0:0:
192,192,34230,1,0,0:0:0:0:
64,192,34440,1,0,0:0:0:0:
320,192,34440,1,0,0:0:0:0:
192,192,34650,1,0,0:0:0:0:
448,192,34650,1,0,0:0:0:0:
320,192,34860,1,0,0:0:0:0:
64,192,35070,1,0,0:0:0:0:
192,192,35070,1,0,0:0:0:0:
64,192,35489,1,0,0:0:0:0:
448,192,35489,1,0,0:0:0:0:
320,192,35804,1,0,0:0:0:0:
64,192,36119,1,0,0:0:0:0:
320,192,36119,1,0,0:0:0:0:
192,192,36328,1,0,0:0:0:0:
448,192,36328,128,0,36748:0:0:0:0:
192,192,36748,128,0,37167:0:0:0:0:
64,192,36748,1,0,0:0:0:0:
320,192,36958,1,0,0:0:0:0:
64,192,37167,1,0,0:0:0:0:
448,192,37167,1,0,0:0:0:0:
192,192,37377,1,0,0:0:0:0:
320,192,37587,1,0,0:0:0:0:
448,192,37797,1,0,0:0:0:0:
192,192,37797,1,0,0:0:0:0:
320,192,38007,1,0,0:0:0:0:
64,192,38007,1,0,0:0:0:0:
192,192,38216,1,0,0:0:0:0:
448,192,38426,1,0,0:0:0:0:
64,192,38426,1,0,0:0:0:0:
320,192,38846,1,0,0:0:0:0:
448,192,38846,1,0,0:0:0:0:
192,192,38951,1,0,0:0:0:0:
320,192,39160,1,0,0:0:0:0:
320,192,39475,1,0,0:0:0:0:
192,192,39580,1,0,0:0:0:0:
64,192,39685,1,0,0:0:0:0:
448,192,39685,128,0,40105:0:0:0:0:
192,192,40105,128,0,40524:0:0:0:0:
320,192,40105,1,0,0:0:0:0:
64,192,40524,1,0,0:0:0:0:
448,192,40524,1,0,0:0:0:0:
192,192,40734,1,0,0:0:0:0:
320,192,40944,1,0,0:0:0:0:
192,192,41153,1,0,0:0:0:0:
64,192,41153,1,0,0:0:0:0:
448,192,41363,1,0,0:0:0:0:
320,192,41363,1,0,0:0:0:0:
192,192,41573,1,0,0:0:0:0:
448,192,41783,1,0,0:0:0:0:
64,192,41783,1,0,0:0:0:0:
192,192,42202,1,0,0:0:0:0:
448,192,42202,1,0,0:0:0:0:
320,192,42517,1,0,0:0:0:0:
320,192,42832,1,0,0:0:0:0:
192,192,42832,1,0,0:0:0:0:
64,192,43042,1,0,0:0:0:0:
448,192,43042,128,0,43461:0:0:0:0:
192,192,43251,1,0,0:0:0:0:
320,192,43461,1,0,0:0:0:0:
192,192,43461,128,0,43881:0:0:0:0:
64,192,43881,1,0,0:0:0:0:
448,192,43881,1,0,0:0:0:0:
320,192,44195,1,0,0:0:0:0:
192,192,44510,1,0,0:0:0:0:
320,192,44510,1,0,0:0:0:0:
64,192,44720,1,0,0:0:0:0:
448,192,44720,1,0,0:0:0:0:
320,192,44930,1,0,0:0:0:0:
192,192,45139,1,0,0:0:0:0:
64,192,45139,1,0,0:0:0:0:
320,192,45559,1,0,0:0:0:0:
448,192,45559,1,0,0:0:0:0:
192,192,45664,1,0,0:0:0:0:
64,192,45769,1,0,0:0:0:0:
448,192,45874,1,0,0:0:0:0:
320,192,45979,1,0,0:0:0:0:
192,192,46188,1,0,0:0:0:0:
320,192,46293,1,0,0:0:0:0:
448,192,46398,128,0,46818:0:0:0:0:
64,192,46398,1,0,0:0:0:0:
320,192,46818,128,0,47237:0:0:0:0:
64,192,46818,1,0,0:0:0:0:
192,192,47237,128,0,47552:0:0:0:0:
64,192,47237,1,0,0:0:0:0:
64,192,47552,128,0,47867:0:0:0:0:
448,192,47552,1,0,0:0:0:0:
192,192,47867,128,0,48077:0:0:0:0:
320,192,47867,1,0,0:0:0:0:
448,192,48077,128,0,48496:0:0:0:0:
64,192,48077,1,0,0:0:0:0:
320,192,48496,128,0,48916:0:0:0:0:
64,192,48496,1,0,0:0:0:0:
192,192,48916,128,0,49230:0:0:0:0:
64,192,48916,1,0,0:0:0:0:
64,192,49230,128,0,49545:0:0:0:0:
448,192,49230,1,0,0:0:0:0:
192,192,49545,1,0,0:0:0:0:
320,192,49545,1,0,0:0:0:0:
320,192,49755,1,0,0:0:0:0:
192,192,49860,1,0,0:0:0:0:
64,192,49965,1,0,0:0:0:0:
320,192,50174,1,0,0:0:0:0:
448,192,50174,1,0,0:0:0:0:
192,192,50384,1,0,0:0:0:0:
320,192,50384,1,0,0:0:0:0:
64,192,50594,1,0,0:0:0:0:
192,192,50594,1,0,0:0:0:0:
192,192,51014,1,0,0:0:0:0:
320,192,51119,1,0,0:0:0:0:
448,192,51223,1,0,0:0:0:0:
64,192,51433,1,0,0:0:0:0:
192,192,51433,1,0,0:0:0:0:
320,192,51643,1,0,0:0:0:0:
192,192,51643,1,0,0:0:0:0:
320,192,51853,1,0,0:0:0:0:
448,192,51853,1,0,0:0:0:0:
320,192,52272,1,0,0:0:0:0:
64,192,52272,1,0,0:0:0:0:
64,192,52482,1,0,0:0:0:0:
320,192,52482,1,0,0:0:0:0:
448,192,52692,1,0,0:0:0:0:
192,192,52692,1,0,0:0:0:0:
64,192,52902,1,0,0:0:0:0:
192,192,53007,1,0,0:0:0:0:
320,192,53112,1,0,0:0:0:0:
448,192,53112,128,0,53531:0:0:0:0:
192,192,53321,1,0,0:0:0:0:
64,192,53531,128,0,53951:0:0:0:0:
320,192,53531,1,0,0:0:0:0:
192,192,53951,128,0,54265:0:0:0:0:
320,192,53951,1,0,0:0:0:0:
320,192,54265,128,0,54580:0:0:0:0:
448,192,54265,1,0,0:0:0:0:
192,192,54580,128,0,54790:0:0:0:0:
64,192,54580,1,0,0:0:0:0:
448,192,54790,128,0,55209:0:0:0:0:
320,192,54790,1,0,0:0:0:0:
64,192,55209,128,0,55629:0:0:0:0:
320,192,55209,1,0,0:0:0:0:
192,192,55629,128,0,55944:0:0:0:0:
320,192,55629,1,0,0:0:0:0:
320,192,55944,128,0,56258:0:0:0:0:
448,192,55944,1,0,0:0:0:0:
192,192,56258,1,0,0:0:0:0:
64,192,56258,1,0,0:0:0:0:
320,192,56468,1,0,0:0:0:0:
192,192,56573,1,0,0:0:0:0:
64,192,56678,1,0,0:0:0:0:
320,192,56888,1,0,0:0:0:0:
448,192,56888,1,0,0:0:0:0:
192,192,57098,1,0,0:0:0:0:
320,192,57098,1,0,0:0:0:0:
192,192,57307,1,0,0:0:0:0:
64,192,57307,1,0,0:0:0:0:
64,192,57727,1,0,0:0:0:0:
192,192,57832,1,0,0:0:0:0:
320,192,57937,1,0,0:0:0:0:
64,192,58146,1,0,0:0:0:0:
192,192,58146,1,0,0:0:0:0:
192,192,58356,1,0,0:0:0:0:
320,192,58356,1,0,0:0:0:0:
320,192,58566,1,0,0:0:0:0:
448,192,58566,1,0,0:0:0:0:
64,192,58776,1,0,0:0:0:0:
448,192,58986,1,0,0:0:0:0:
320,192,59091,1,0,0:0:0:0:
64,192,59195,1,0,0:0:0:0:
192,192,59300,1,0,0:0:0:0:
320,192,59405,1,0,0:0:0:0:
192,192,59615,1,0,0:0:0:0:
320,192,59720,1,0,0:0:0:0:
64,192,59825,1,0,0:0:0:0:
448,192,59825,128,0,60244:0:0:0:0:
320,192,60244,1,0,0:0:0:0:
64,192,60244,1,0,0:0:0:0:
320,192,60664,128,0,60979:0:0:0:0:
64,192,60664,1,0,0:0:0:0:
448,192,60979,1,0,0:0:0:0:
192,192,60979,1,0,0:0:0:0:
64,192,61293,128,0,61503:0:0:0:0:
320,192,61293,1,0,0:0:0:0:
192,192,61503,128,0,61923:0:0:0:0:
448,192,61503,1,0,0:0:0:0:
320,192,61923,1,0,0:0:0:0:
64,192,61923,1,0,0:0:0:0:
64,192,62132,128,0,62342:0:0:0:0:
448,192,62342,128,0,62552:0:0:0:0:
192,192,62342,1,0,0:0:0:0:
320,192,62552,128,0,62762:0:0:0:0:
192,192,62762,1,0,0:0:0:0:
64,192,62972,1,0,0:0:0:0:
320,192,62972,1,0,0:0:0:0:
448,192,63181,1,0,0:0:0:0:
320,192,63286,1,0,0:0:0:0:
192,192,63391,1,0,0:0:0:0:
64,192,63601,1,0,0:0:0:0:
192,192,63601,1,0,0:0:0:0:
320,192,63811,1,0,0:0:0:0:
192,192,63811,1,0,0:0:0:0:
448,192,64021,1,0,0:0:0:0:
320,192,64021,1,0,0:0:0:0:
64,192,64440,1,0,0:0:0:0:
192,192,64545,1,0,0:0:0:0:
320,192,64650,1,0,0:0:0:0:
448,192,64860,1,0,0:0:0:0:
320,192,64860,1,0,0:0:0:0:
192,192,65070,1,0,0:0:0:0:
320,192,65070,1,0,0:0:0:0:
192,192,65279,1,0,0:0:0:0:
64,192,65279,1,0,0:0:0:0:
448,192,65699,1,0,0:0:0:0:
320,192,65804,1,0,0:0:0:0:
64,192,65909,1,0,0:0:0:0:
192,192,66014,1,0,0:0:0:0:
320,192,66119,128,0,66538:0:0:0:0:
64,192,66328,1,0,0:0:0:0:
192,192,66538,1,0,0:0:0:0:
448,192,66538,128,0,66958:0:0:0:0:
192,192,66748,1,0,0:0:0:0:
320,192,66958,1,0,0:0:0:0:
64,192,66958,1,0,0:0:0:0:
320,192,67377,128,0,67692:0:0:0:0:
64,192,67377,1,0,0:0:0:0:
448,192,67692,1,0,0:0:0:0:
192,192,67692,1,0,0:0:0:0:
64,192,68007,128,0,68216:0:0:0:0:
320,192,68007,1,0,0:0:0:0:
448,192,68216,128,0,68636:0:0:0:0:
192,192,68216,1,0,0:0:0:0:
64,192,68636,1,0,0:0:0:0:
192,192,68636,1,0,0:0:0:0:
320,192,68846,128,0,69056:0:0:0:0:
192,192,69056,128,0,69265:0:0:0:0:
448,192,69056,1,0,0:0:0:0:
448,192,69265,128,0,69475:0:0:0:0:
64,192,69475,1,0,0:0:0:0:
192,192,69475,1,0,0:0:0:0:
64,192,69685,1,0,0:0:0:0:
320,192,69685,1,0,0:0:0:0:
448,192,69895,1,0,0:0:0:0:
320,192,70000,1,0,0:0:0:0:
192,192,70105,1,0,0:0:0:0:
64,192,70314,1,0,0:0:0:0:
192,192,70314,1,0,0:0:0:0:
192,192,70524,1,0,0:0:0:0:
320,192,70524,1,0,0:0:0:0:
320,192,70734,1,0,0:0:0:0:
448,192,70734,1,0,0:0:0:0:
448,192,71153,1,0,0:0:0:0:
320,192,71258,1,0,0:0:0:0:
192,192,71363,1,0,0:0:0:0:
64,192,71573,1,0,0:0:0:0:
192,192,71573,1,0,0:0:0:0:
192,192,71783,1,0,0:0:0:0:
320,192,71783,1,0,0:0:0:0:
320,192,71993,1,0,0:0:0:0:
448,192,71993,1,0,0:0:0:0:
64,192,72202,1,0,0:0:0:0:
320,192,72412,1,0,0:0:0:0:
192,192,72517,1,0,0:0:0:0:
64,192,72622,1,0,0:0:0:0:
448,192,72727,1,0,0:0:0:0:
320,192,72832,1,0,0:0:0:0:
192,192,73042,1,0,0:0:0:0:
320,192,73146,1,0,0:0:0:0:
64,192,73251,1,0,0:0:0:0:
448,192,73251,1,0,0:0:0:0:
192,192,73461,1,0,0:0:0:0:
64,192,73671,1,0,0:0:0:0:
448,192,73671,1,0,0:0:0:0:
320,192,73881,1,0,0:0:0:0:
64,192,74091,1,0,0:0:0:0:
448,192,74091,1,0,0:0:0:0:
192,192,74300,1,0,0:0:0:0:
64,192,74510,1,0,0:0:0:0:
448,192,74510,1,0,0:0:0:0:
320,192,74720,1,0,0:0:0:0:
64,192,74930,1,0,0:0:0:0:
448,192,74930,1,0,0:0:0:0:
192,192,75139,1,0,0:0:0:0:
64,192,75349,1,0,0:0:0:0:
448,192,75349,1,0,0:0:0:0:
320,192,75559,1,0,0:0:0:0:
64,192,75769,1,0,0:0:0:0:
448,192,75769,1,0,0:0:0:0:
320,192,76188,1,0,0:0:0:0:
320,192,76398,1,0,0:0:0:0:
448,192,76608,1,0,0:0:0:0:
192,192,76608,1,0,0:0:0:0:
320,192,76818,1,0,0:0:0:0:
448,192,77028,1,0,0:0:0:0:
192,192,77028,1,0,0:0:0:0:
320,192,77237,1,0,0:0:0:0:
448,192,77447,1,0,0:0:0:0:
64,192,77447,1,0,0:0:0:0:
320,192,77657,1,0,0:0:0:0:
448,192,77867,1,0,0:0:0:0:
64,192,77867,1,0,0:0:0:0:
192,192,78077,1,0,0:0:0:0:
320,192,78286,1,0,0:0:0:0:
64,192,78286,1,0,0:0:0:0:
192,192,78496,1,0,0:0:0:0:
320,192,78706,1,0,0:0:0:0:
64,192,78706,1,0,0:0:0:0:
192,192,78916,1,0,0:0:0:0:
64,192,79125,1,0,0:0:0:0:
448,192,79125,1,0,0:0:0:0:
64,192,79545,1,0,0:0:0:0:
448,192,79545,1,0,0:0:0:0:
64,192,79755,1,0,0:0:0:0:
192,192,79965,1,0,0:0:0:0:
320,192,79965,1,0,0:0:0:0:
448,192,80384,1,0,0:0:0:0:
64,192,80384,1,0,0:0:0:0:
448,192,80594,1,0,0:0:0:0:
320,192,80804,1,0,0:0:0:0:
192,192,80804,1,0,0:0:0:0:
64,192,81223,1,0,0:0:0:0:
320,192,81223,1,0,0:0:0:0:
192,192,81433,1,0,0:0:0:0:
64,192,81643,1,0,0:0:0:0:
448,192,81643,1,0,0:0:0:0:
320,192,81853,1,0,0:0:0:0:
448,192,82063,1,0,0:0:0:0:
192,192,82063,1,0,0:0:0:0:
448,192,82482,1,0,0:0:0:0:
64,192,82482,1,0,0:0:0:0:
64,192,82902,128,0,83321:0:0:0:0:
320,192,82902,1,0,0:0:0:0:
320,192,83321,128,0,83741:0:0:0:0:
448,192,83321,1,0,0:0:0:0:
448,192,83741,1,0,0:0:0:0:
192,192,83741,128,0,84160:0:0:0:0:
64,192,84160,1,0,0:0:0:0:
448,192,84160,128,0,84580:0:0:0:0:
320,192,84580,1,0,0:0:0:0:
64,192,84580,1,0,0:0:0:0:
192,192,84790,1,0,0:0:0:0:
448,192,85000,1,0,0:0:0:0:
320,192,85000,1,0,0:0:0:0:
192,192,85419,1,0,0:0:0:0:
448,192,85419,1,0,0:0:0:0:
320,192,85629,1,0,0:0:0:0:
192,192,85839,1,0,0:0:0:0:
64,192,85839,1,0,0:0:0:0:
192,192,86153,1,0,0:0:0:0:
448,192,86258,1,0,0:0:0:0:
320,192,86468,1,0,0:0:0:0:
192,192,86573,1,0,0:0:0:0:
64,192,86678,1,0,0:0:0:0:
448,192,86678,128,0,87098:0:0:0:0:
192,192,87098,128,0,87517:0:0:0:0:
64,192,87098,1,0,0:0:0:0:
320,192,87307,1,0,0:0:0:0:
64,192,87517,1,0,0:0:0:0:
448,192,87517,1,0,0:0:0:0:
448,192,87727,1,0,0:0:0:0:
64,192,87937,1,0,0:0:0:0:
448,192,88356,1,0,0:0:0:0:
192,192,88356,1,0,0:0:0:0:
320,192,88566,1,0,0:0:0:0:
192,192,88776,1,0,0:0:0:0:
64,192,88776,1,0,0:0:0:0:
448,192,88986,1,0,0:0:0:0:
64,192,89195,1,0,0:0:0:0:
320,192,89195,1,0,0:0:0:0:
64,192,89615,128,0,89825:0:0:0:0:
192,192,89825,128,0,90035:0:0:0:0:
320,192,90035,128,0,90454:0:0:0:0:
448,192,90454,1,0,0:0:0:0:
192,192,90664,1,0,0:0:0:0:
64,192,90874,1,0,0:0:0:0:
320,192,90874,1,0,0:0:0:0:
448,192,91084,1,0,0:0:0:0:
64,192,91293,1,0,0:0:0:0:
448,192,91503,1,0,0:0:0:0:
320,192,91503,1,0,0:0:0:0:
192,192,91713,1,0,0:0:0:0:
448,192,91713,1,0,0:0:0:0:
192,192,91923,1,0,0:0:0:0:
448,192,92132,1,0,0:0:0:0:
64,192,92132,1,0,0:0:0:0:
192,192,92342,1,0,0:0:0:0:
320,192,92552,1,0,0:0:0:0:
448,192,92552,1,0,0:0:0:0:
64,192,92867,1,0,0:0:0:0:
192,192,93181,1,0,0:0:0:0:
320,192,93181,1,0,0:0:0:0:
64,192,93391,1,0,0:0:0:0:
448,192,93391,128,0,93811:0:0:0:0:
192,192,93811,128,0,94230:0:0:0:0:
64,192,93811,1,0,0:0:0:0:
320,192,94021,1,0,0:0:0:0:
64,192,94230,1,0,0:0:0:0:
448,192,94230,1,0,0:0:0:0:
448,192,94440,1,0,0:0:0:0:
320,192,94545,1,0,0:0:0:0:
64,192,94650,1,0,0:0:0:0:
320,192,94860,1,0,0:0:0:0:
448,192,94860,1,0,0:0:0:0:
64,192,95070,1,0,0:0:0:0:
448,192,95070,1,0,0:0:0:0:
192,192,95279,1,0,0:0:0:0:
448,192,95489,1,0,0:0:0:0:
64,192,95489,1,0,0:0:0:0:
320,192,95699,1,0,0:0:0:0:
64,192,95909,1,0,0:0:0:0:
448,192,95909,1,0,0:0:0:0:
192,192,96014,1,0,0:0:0:0:
320,192,96119,1,0,0:0:0:0:
64,192,96328,128,0,96538:0:0:0:0:
192,192,96538,128,0,96748:0:0:0:0:
448,192,96538,1,0,0:0:0:0:
320,192,96748,128,0,97167:0:0:0:0:
448,192,97167,1,0,0:0:0:0:
64,192,97167,1,0,0:0:0:0:
320,192,97377,1,0,0:0:0:0:
192,192,97587,1,0,0:0:0:0:
64,192,97587,1,0,0:0:0:0:
448,192,97797,1,0,0:0:0:0:
320,192,97902,1,0,0:0:0:0:
64,192,98007,1,0,0:0:0:0:
320,192,98216,1,0,0:0:0:0:
448,192,98216,1,0,0:0:0:0:
64,192,98426,1,0,0:0:0:0:
320,192,98426,1,0,0:0:0:0:
448,192,98636,1,0,0:0:0:0:
192,192,98846,1,0,0:0:0:0:
64,192,98846,1,0,0:0:0:0:
320,192,99056,1,0,0:0:0:0:
448,192,99265,1,0,0:0:0:0:
320,192,99370,1,0,0:0:0:0:
192,192,99475,1,0,0:0:0:0:
64,192,99580,1,0,0:0:0:0:
320,192,99685,1,0,0:0:0:0:
192,192,99895,1,0,0:0:0:0:
320,192,100000,1,0,0:0:0:0:
64,192,100105,1,0,0:0:0:0:
448,192,100105,128,0,100524:0:0:0:0:
192,192,100524,128,0,100944:0:0:0:0:
320,192,100524,1,0,0:0:0:0:
64,192,100944,1,0,0:0:0:0:
320,192,100944,1,0,0:0:0:0:
448,192,101153,1,0,0:0:0:0:
320,192,101363,1,0,0:0:0:0:
448,192,101573,1,0,0:0:0:0:
192,192,101573,1,0,0:0:0:0:
320,192,101783,1,0,0:0:0:0:
64,192,101783,1,0,0:0:0:0:
192,192,101993,1,0,0:0:0:0:
320,192,102202,1,0,0:0:0:0:
448,192,102202,1,0,0:0:0:0:
64,192,102622,1,0,0:0:0:0:
192,192,102727,1,0,0:0:0:0:
320,192,102832,1,0,0:0:0:0:
448,192,102937,1,0,0:0:0:0:
192,192,103042,1,0,0:0:0:0:
320,192,103251,1,0,0:0:0:0:
64,192,103251,1,0,0:0:0:0:
192,192,103461,1,0,0:0:0:0:
448,192,103461,128,0,103881:0:0:0:0:
192,192,103881,128,0,104300:0:0:0:0:
64,192,103881,1,0,0:0:0:0:
320,192,104091,1,0,0:0:0:0:
64,192,104300,1,0,0:0:0:0:
448,192,104300,1,0,0:0:0:0:
320,192,104510,1,0,0:0:0:0:
448,192,104720,1,0,0:0:0:0:
192,192,104930,1,0,0:0:0:0:
64,192,104930,1,0,0:0:0:0:
320,192,105139,1,0,0:0:0:0:
448,192,105139,1,0,0:0:0:0:
192,192,105349,1,0,0:0:0:0:
64,192,105559,1,0,0:0:0:0:
320,192,105559,1,0,0:0:0:0:
448,192,105979,1,0,0:0:0:0:
320,192,106084,1,0,0:0:0:0:
64,192,106188,1,0,0:0:0:0:
192,192,106293,1,0,0:0:0:0:
320,192,106398,1,0,0:0:0:0:
192,192,106608,1,0,0:0:0:0:
320,192,106713,1,0,0:0:0:0:
64,192,106818,1,0,0:0:0:0:
448,192,106818,128,0,107237:0:0:0:0:
192,192,107237,128,0,107657:0:0:0:0:
320,192,107237,1,0,0:0:0:0:
64,192,107657,1,0,0:0:0:0:
448,192,107657,1,0,0:0:0:0:
320,192,107867,1,0,0:0:0:0:
192,192,108077,1,0,0:0:0:0:
448,192,108286,1,0,0:0:0:0:
320,192,108286,1,0,0:0:0:0:
64,192,108496,1,0,0:0:0:0:
192,192,108496,1,0,0:0:0:0:
320,192,108706,1,0,0:0:0:0:
320,192,108916,128,0,109335:0:0:0:0:
64,192,108916,1,0,0:0:0:0:
64,192,109335,1,0,0:0:0:0:
192,192,109440,1,0,0:0:0:0:
320,192,109545,1,0,0:0:0:0:
448,192,109650,1,0,0:0:0:0:
192,192,109755,1,0,0:0:0:0:
64,192,109965,1,0,0:0:0:0:
320,192,109965,128,0,110384:0:0:0:0:
192,192,110174,1,0,0:0:0:0:
448,192,110384,128,0,110804:0:0:0:0:
64,192,110594,1,0,0:0:0:0:
64,192,110804,1,0,0:0:0:0:
64,192,111014,1,0,0:0:0:0:
320,192,111119,1,0,0:0:0:0:
192,192,111223,1,0,0:0:0:0:
448,192,111328,1,0,0:0:0:0:
192,192,111433,1,0,0:0:0:0:
448,192,111643,1,0,0:0:0:0:
320,192,111643,1,0,0:0:0:0:
320,192,111853,1,0,0:0:0:0:
192,192,111853,1,0,0:0:0:0:
448,192,112063,1,0,0:0:0:0:
192,192,112272,1,0,0:0:0:0:
64,192,112272,1,0,0:0:0:0:
448,192,112692,1,0,0:0:0:0:
320,192,112797,1,0,0:0:0:0:
64,192,112902,1,0,0:0:0:0:
192,192,113007,1,0,0:0:0:0:
320,192,113112,1,0,0:0:0:0:
192,192,113321,1,0,0:0:0:0:
320,192,113426,1,0,0:0:0:0:
64,192,113531,1,0,0:0:0:0:
448,192,113531,128,0,113951:0:0:0:0:
320,192,113951,128,0,114370:0:0:0:0:
64,192,113951,1,0,0:0:0:0:
64,192,114370,1,0,0:0:0:0:
192,192,114370,128,0,114685:0:0:0:0:
64,192,114685,128,0,115000:0:0:0:0:
448,192,114685,1,0,0:0:0:0:
192,192,115000,128,0,115209:0:0:0:0:
320,192,115000,1,0,0:0:0:0:
448,192,115209,128,0,115629:0:0:0:0:
64,192,115209,1,0,0:0:0:0:
320,192,115629,128,0,116049:0:0:0:0:
64,192,115629,1,0,0:0:0:0:
192,192,116049,128,0,116363:0:0:0:0:
64,192,116049,1,0,0:0:0:0:
64,192,116363,128,0,116678:0:0:0:0:
448,192,116363,1,0,0:0:0:0:
192,192,116678,1,0,0:0:0:0:
320,192,116678,1,0,0:0:0:0:
448,192,116888,1,0,0:0:0:0:
320,192,116993,1,0,0:0:0:0:
192,192,117098,1,0,0:0:0:0:
320,192,117307,1,0,0:0:0:0:
448,192,117307,1,0,0:0:0:0:
192,192,117517,1,0,0:0:0:0:
320,192,117517,1,0,0:0:0:0:
64,192,117727,1,0,0:0:0:0:
192,192,117727,1,0,0:0:0:0:
64,192,118146,1,0,0:0:0:0:
192,192,118251,1,0,0:0:0:0:
320,192,118356,1,0,0:0:0:0:
64,192,118566,1,0,0:0:0:0:
192,192,118566,1,0,0:0:0:0:
320,192,118776,1,0,0:0:0:0:
192,192,118776,1,0,0:0:0:0:
320,192,118986,1,0,0:0:0:0:
448,192,118986,1,0,0:0:0:0:
320,192,119405,1,0,0:0:0:0:
64,192,119405,1,0,0:0:0:0:
320,192,119615,1,0,0:0:0:0:
64,192,119615,1,0,0:0:0:0:
448,192,119825,1,0,0:0:0:0:
192,192,119825,1,0,0:0:0:0:
64,192,120035,1,0,0:0:0:0:
192,192,120139,1,0,0:0:0:0:
448,192,120244,128,0,120664:0:0:0:0:
320,192,120244,1,0,0:0:0:0:
64,192,120664,128,0,121084:0:0:0:0:
320,192,120664,1,0,0:0:0:0:
192,192,121084,128,0,121398:0:0:0:0:
320,192,121084,1,0,0:0:0:0:
320,192,121398,128,0,121713:0:0:0:0:
448,192,121398,1,0,0:0:0:0:
192,192,121713,128,0,121923:0:0:0:0:
64,192,121713,1,0,0:0:0:0:
448,192,121923,128,0,122342:0:0:0:0:
320,192,121923,1,0,0:0:0:0:
64,192,122342,128,0,122762:0:0:0:0:
320,192,122342,1,0,0:0:0:0:
192,192,122762,128,0,123077:0:0:0:0:
320,192,122762,1,0,0:0:0:0:
320,192,123077,128,0,123391:0:0:0:0:
448,192,123077,1,0,0:0:0:0:
192,192,123391,1,0,0:0:0:0:
64,192,123391,1,0,0:0:0:0:
448,192,123601,1,0,0:0:0:0:
320,192,123706,1,0,0:0:0:0:
192,192,123811,1,0,0:0:0:0:
320,192,124021,1,0,0:0:0:0:
448,192,124021,1,0,0:0:0:0:
320,192,124230,1,0,0:0:0:0:
192,192,124230,1,0,0:0:0:0:
192,192,124440,1,0,0:0:0:0:
64,192,124440,1,0,0:0:0:0:
64,192,124860,1,0,0:0:0:0:
192,192,124965,1,0,0:0:0:0:
320,192,125070,1,0,0:0:0:0:
64,192,125279,1,0,0:0:0:0:
192,192,125279,1,0,0:0:0:0:
192,192,125489,1,0,0:0:0:0:
320,192,125489,1,0,0:0:0:0:
320,192,125699,1,0,0:0:0:0:
448,192,125699,1,0,0:0:0:0:
64,192,125909,1,0,0:0:0:0:
448,192,126119,1,0,0:0:0:0:
320,192,126223,1,0,0:0:0:0:
192,192,126328,1,0,0:0:0:0:
64,192,126433,1,0,0:0:0:0:
320,192,126538,1,0,0:0:0:0:
192,192,126748,1,0,0:0:0:0:
320,192,126853,1,0,0:0:0:0:
448,192,126958,128,0,127377:0:0:0:0:
64,192,126958,1,0,0:0:0:0:
192,192,127377,1,0,0:0:0:0:
320,192,127377,1,0,0:0:0:0:
320,192,127797,128,0,128112:0:0:0:0:
64,192,127797,1,0,0:0:0:0:
192,192,128112,1,0,0:0:0:0:
448,192,128112,1,0,0:0:0:0:
192,192,128426,128,0,128636:0:0:0:0:
448,192,128426,1,0,0:0:0:0:
64,192,128636,128,0,129056:0:0:0:0:
320,192,128636,1,0,0:0:0:0:
448,192,129056,1,0,0:0:0:0:
192,192,129056,1,0,0:0:0:0:
192,192,129265,128,0,129475:0:0:0:0:
448,192,129475,128,0,129685:0:0:0:0:
64,192,129475,1,0,0:0:0:0:
320,192,129685,128,0,129895:0:0:0:0:
192,192,129895,1,0,0:0:0:0:
448,192,129895,1,0,0:0:0:0:
64,192,130105,1,0,0:0:0:0:
192,192,130105,1,0,0:0:0:0:
448,192,130314,1,0,0:0:0:0:
320,192,130419,1,0,0:0:0:0:
192,192,130524,1,0,0:0:0:0:
448,192,130734,1,0,0:0:0:0:
320,192,130734,1,0,0:0:0:0:
192,192,130944,1,0,0:0:0:0:
320,192,130944,1,0,0:0:0:0:
192,192,131153,1,0,0:0:0:0:
64,192,131153,1,0,0:0:0:0:
64,192,131573,1,0,0:0:0:0:
192,192,131678,1,0,0:0:0:0:
320,192,131783,1,0,0:0:0:0:
64,192,131993,1,0,0:0:0:0:
192,192,131993,1,0,0:0:0:0:
192,192,132202,1,0,0:0:0:0:
320,192,132202,1,0,0:0:0:0:
448,192,132412,1,0,0:0:0:0:
320,192,132412,1,0,0:0:0:0:
448,192,132832,1,0,0:0:0:0:
320,192,132937,1,0,0:0:0:0:
64,192,133042,1,0,0:0:0:0:
192,192,133146,1,0,0:0:0:0:
320,192,133251,1,0,0:0:0:0:
192,192,133461,1,0,0:0:0:0:
320,192,133566,1,0,0:0:0:0:
64,192,133671,1,0,0:0:0:0:
448,192,133671,128,0,134091:0:0:0:0:
192,192,133881,1,0,0:0:0:0:
320,192,134091,1,0,0:0:0:0:
64,192,134091,1,0,0:0:0:0:
320,192,134510,128,0,134825:0:0:0:0:
64,192,134510,1,0,0:0:0:0:
192,192,134825,1,0,0:0:0:0:
448,192,134825,1,0,0:0:0:0:
448,192,135139,1,0,0:0:0:0:
192,192,135139,128,0,135349:0:0:0:0:
64,192,135349,128,0,135769:0:0:0:0:
320,192,135349,1,0,0:0:0:0:
320,192,135769,1,0,0:0:0:0:
192,192,135769,1,0,0:0:0:0:
192,192,135979,128,0,136188:0:0:0:0:
448,192,136188,128,0,136398:0:0:0:0:
64,192,136188,1,0,0:0:0:0:
320,192,136398,128,0,136818:0:0:0:0:
192,192,136608,1,0,0:0:0:0:
64,192,136818,1,0,0:0:0:0:
448,192,136818,1,0,0:0:0:0:
448,192,137028,1,0,0:0:0:0:
320,192,137132,1,0,0:0:0:0:
192,192,137237,1,0,0:0:0:0:
320,192,137447,1,0,0:0:0:0:
448,192,137447,1,0,0:0:0:0:
320,192,137657,1,0,0:0:0:0:
192,192,137657,1,0,0:0:0:0:
192,192,137867,1,0,0:0:0:0:
64,192,137867,1,0,0:0:0:0:
192,192,138286,1,0,0:0:0:0:
320,192,138391,1,0,0:0:0:0:
448,192,138496,1,0,0:0:0:0:
192,192,138706,1,0,0:0:0:0:
64,192,138706,1,0,0:0:0:0:
192,192,138916,1,0,0:0:0:0:
320,192,138916,1,0,0:0:0:0:
448,192,139125,1,0,0:0:0:0:
320,192,139125,1,0,0:0:0:0:
64,192,139335,1,0,0:0:0:0:
192,192,139545,1,0,0:0:0:0:
448,192,139755,1,0,0:0:0:0:
320,192,139860,1,0,0:0:0:0:
64,192,139965,128,0,140384:0:0:0:0:
192,192,140174,1,0,0:0:0:0:
320,192,140279,1,0,0:0:0:0:
448,192,140384,128,0,140804:0:0:0:0:
192,192,140804,128,0,141014:0:0:0:0:
320,192,140804,1,0,0:0:0:0:
64,192,141014,128,0,141223:0:0:0:0:
320,192,141223,128,0,141433:0:0:0:0:
192,192,141433,128,0,141643:0:0:0:0:
64,192,141643,128,0,142063:0:0:0:0:
448,192,141643,1,0,0:0:0:0:
320,192,142063,128,0,142272:0:0:0:0:
192,192,142272,128,0,142482:0:0:0:0:
448,192,142482,128,0,142692:0:0:0:0:
64,192,142482,1,0,0:0:0:0:
192,192,142692,128,0,142902:0:0:0:0:
320,192,142902,128,0,143112:0:0:0:0:
64,192,143112,128,0,143321:0:0:0:0:
448,192,143321,128,0,143531:0:0:0:0:
192,192,143321,1,0,0:0:0:0:
320,192,143531,1,0,0:0:0:0:
192,192,143741,128,0,144160:0:0:0:0:
64,192,144160,1,0,0:0:0:0:
320,192,144160,1,0,0:0:0:0:
192,192,145000,1,0,0:0:0:0:
448,192,145000,1,0,0:0:0:0:
448,192,145419,128,0,145839:0:0:0:0:
64,192,145839,1,0,0:0:0:0:
320,192,145839,1,0,0:0:0:0:
320,192,146258,128,0,146678:0:0:0:0:
64,192,146678,128,0,147098:0:0:0:0:
192,192,146678,1,0,0:0:0:0:
320,192,146888,1,0,0:0:0:0:
448,192,147098,128,0,147517:0:0:0:0:
320,192,147517,128,0,147727:0:0:0:0:
192,192,147517,1,0,0:0:0:0:
448,192,147727,128,0,147937:0:0:0:0:
64,192,147937,128,0,148146:0:0:0:0:
192,192,148146,128,0,148356:0:0:0:0:
448,192,148356,128,0,148776:0:0:0:0:
320,192,148356,1,0,0:0:0:0:
320,192,148776,128,0,148986:0:0:0:0:
64,192,148986,128,0,149195:0:0:0:0:
448,192,149195,128,0,149405:0:0:0:0:
192,192,149195,1,0,0:0:0:0:
320,192,149405,128,0,149615:0:0:0:0:
448,192,149615,128,0,150035:0:0:0:0:
64,192,150035,128,0,150454:0:0:0:0:
320,192,150035,1,0,0:0:0:0:
192,192,150244,1,0,0:0:0:0:
320,192,150454,128,0,151084:0:0:0:0:
64,192,150874,1,0,0:0:0:0:
192,192,150874,1,0,0:0:0:0:
192,192,151084,128,0,152132:0:0:0:0:
448,192,151713,1,0,0:0:0:0:
320,192,151713,1,0,0:0:0:0:
64,192,152132,128,0,152972:0:0:0:0:
448,192,152552,1,0,0:0:0:0:
320,192,152552,1,0,0:0:0:0:
192,192,152972,128,0,153391:0:0:0:0:
448,192,153391,128,0,153811:0:0:0:0:
64,192,153811,128,0,154230:0:0:0:0:
320,192,153811,128,0,154230:0:0:0:0:
448,192,154230,128,0,154650:0:0:0:0:
192,192,154230,128,0,154650:0:0:0:0:
64,192,154650,128,0,154965:0:0:0:0:
448,192,154965,1,0,0:0:0:0:
320,192,155070,1,0,0:0:0:0:
192,192,155279,1,0,0:0:0:0:
320,192,155384,1,0,0:0:0:0:
64,192,155489,1,0,0:0:0:0:
448,192,155489,128,0,155909:0:0:0:0:
320,192,155909,128,0,156328:0:0:0:0:
64,192,155909,1,0,0:0:0:0:
192,192,156328,128,0,156643:0:0:0:0:
64,192,156328,1,0,0:0:0:0:
64,192,156643,128,0,156958:0:0:0:0:
448,192,156643,1,0,0:0:0:0:
192,192,156958,128,0,157167:0:0:0:0:
320,192,156958,1,0,0:0:0:0:
448,192,157167,128,0,157587:0:0:0:0:
64,192,157167,1,0,0:0:0:0:
320,192,157587,128,0,158007:0:0:0:0:
64,192,157587,1,0,0:0:0:0:
192,192,158007,128,0,158321:0:0:0:0:
64,192,158007,1,0,0:0:0:0:
64,192,158321,128,0,158636:0:0:0:0:
448,192,158321,1,0,0:0:0:0:
192,192,158636,1,0,0:0:0:0:
320,192,158636,1,0,0:0:0:0:
448,192,158846,1,0,0:0:0:0:
320,192,158951,1,0,0:0:0:0:
192,192,159056,1,0,0:0:0:0:
320,192,159265,1,0,0:0:0:0:
448,192,159265,1,0,0:0:0:0:
320,192,159475,1,0,0:0:0:0:
192,192,159475,1,0,0:0:0:0:
64,192,159685,1,0,0:0:0:0:
192,192,159685,1,0,0:0:0:0:
64,192,160105,1,0,0:0:0:0:
192,192,160209,1,0,0:0:0:0:
320,192,160314,1,0,0:0:0:0:
64,192,160524,1,0,0:0:0:0:
192,192,160524,1,0,0:0:0:0:
192,192,160734,1,0,0:0:0:0:
320,192,160734,1,0,0:0:0:0:
320,192,160944,1,0,0:0:0:0:
448,192,160944,1,0,0:0:0:0:
64,192,161363,1,0,0:0:0:0:
320,192,161363,1,0,0:0:0:0:
64,192,161573,1,0,0:0:0:0:
320,192,161573,1,0,0:0:0:0:
192,192,161783,1,0,0:0:0:0:
448,192,161783,1,0,0:0:0:0:
64,192,161993,1,0,0:0:0:0:
192,192,162098,1,0,0:0:0:0:
320,192,162202,1,0,0:0:0:0:
448,192,162202,128,0,162622:0:0:0:0:
64,192,162622,128,0,163042:0:0:0:0:
320,192,162622,1,0,0:0:0:0:
192,192,163042,128,0,163356:0:0:0:0:
320,192,163042,1,0,0:0:0:0:
320,192,163356,128,0,163671:0:0:0:0:
448,192,163356,1,0,0:0:0:0:
192,192,163671,128,0,163881:0:0:0:0:
64,192,163671,1,0,0:0:0:0:
448,192,163881,128,0,164300:0:0:0:0:
320,192,163881,1,0,0:0:0:0:
64,192,164300,128,0,164720:0:0:0:0:
320,192,164300,1,0,0:0:0:0:
192,192,164720,128,0,165035:0:0:0:0:
320,192,164720,1,0,0:0:0:0:
320,192,165035,128,0,165349:0:0:0:0:
448,192,165035,1,0,0:0:0:0:
192,192,165349,1,0,0:0:0:0:
64,192,165349,1,0,0:0:0:0:
448,192,165559,1,0,0:0:0:0:
320,192,165664,1,0,0:0:0:0:
192,192,165769,1,0,0:0:0:0:
64,192,165979,1,0,0:0:0:0:
192,192,165979,1,0,0:0:0:0:
320,192,166188,1,0,0:0:0:0:
192,192,166188,1,0,0:0:0:0:
448,192,166398,1,0,0:0:0:0:
320,192,166398,1,0,0:0:0:0:
64,192,166818,1,0,0:0:0:0:
192,192,166923,1,0,0:0:0:0:
320,192,167028,1,0,0:0:0:0:
320,192,167237,1,0,0:0:0:0:
448,192,167237,1,0,0:0:0:0:
320,192,167447,1,0,0:0:0:0:
192,192,167447,1,0,0:0:0:0:
192,192,167657,1,0,0:0:0:0:
64,192,167657,1,0,0:0:0:0:
320,192,168077,128,0,168391:0:0:0:0:
64,192,168077,1,0,0:0:0:0:
64,192,168391,128,0,168601:0:0:0:0:
320,192,168601,1,0,0:0:0:0:
192,192,168706,128,0,168916:0:0:0:0:
64,192,168916,128,0,169335:0:0:0:0:
448,192,168916,1,0,0:0:0:0:
192,192,169335,128,0,169650:0:0:0:0:
448,192,169335,128,0,169650:0:0:0:0:
320,192,169755,128,0,170070:0:0:0:0:
64,192,169755,1,0,0:0:0:0:
64,192,170070,128,0,170279:0:0:0:0:
320,192,170279,1,0,0:0:0:0:
192,192,170384,128,0,170594:0:0:0:0:
64,192,170594,128,0,171014:0:0:0:0:
448,192,170594,1,0,0:0:0:0:
192,192,171014,128,0,171328:0:0:0:0:
448,192,171014,128,0,171328:0:0:0:0:
320,192,171433,1,0,0:0:0:0:
448,192,171538,1,0,0:0:0:0:
192,192,171643,1,0,0:0:0:0:
64,192,171748,1,0,0:0:0:0:
320,192,171853,1,0,0:0:0:0:
192,192,172063,1,0,0:0:0:0:
448,192,172063,1,0,0:0:0:0:
320,192,172272,1,0,0:0:0:0:
192,192,172377,1,0,0:0:0:0:
64,192,172482,1,0,0:0:0:0:
320,192,172692,1,0,0:0:0:0:
448,192,172692,1,0,0:0:0:0:
192,192,172902,1,0,0:0:0:0:
320,192,172902,1,0,0:0:0:0:
64,192,173112,1,0,0:0:0:0:
192,192,173112,1,0,0:0:0:0:
192,192,173531,1,0,0:0:0:0:
320,192,173636,1,0,0:0:0:0:
448,192,173741,1,0,0:0:0:0:
64,192,173951,1,0,0:0:0:0:
192,192,173951,1,0,0:0:0:0:
320,192,174160,1,0,0:0:0:0:
192,192,174160,1,0,0:0:0:0:
448,192,174370,1,0,0:0:0:0:
320,192,174370,1,0,0:0:0:0:
192,192,174790,128,0,175105:0:0:0:0:
448,192,174790,1,0,0:0:0:0:
448,192,175105,128,0,175314:0:0:0:0:
192,192,175314,1,0,0:0:0:0:
320,192,175419,128,0,175629:0:0:0:0:
448,192,175629,128,0,176049:0:0:0:0:
64,192,175629,1,0,0:0:0:0:
64,192,176049,128,0,176363:0:0:0:0:
320,192,176049,128,0,176363:0:0:0:0:
192,192,176468,128,0,176783:0:0:0:0:
448,192,176468,1,0,0:0:0:0:
448,192,176783,128,0,176993:0:0:0:0:
192,192,176993,1,0,0:0:0:0:
320,192,177098,128,0,177307:0:0:0:0:
448,192,177307,128,0,177727:0:0:0:0:
64,192,177307,1,0,0:0:0:0:
64,192,177727,128,0,178042:0:0:0:0:
320,192,177727,128,0,178042:0:0:0:0:
192,192,178146,1,0,0:0:0:0:
64,192,178251,1,0,0:0:0:0:
320,192,178356,1,0,0:0:0:0:
448,192,178461,1,0,0:0:0:0:
192,192,178566,1,0,0:0:0:0:
64,192,178776,1,0,0:0:0:0:
320,192,178776,1,0,0:0:0:0:
192,192,178986,1,0,0:0:0:0:
320,192,179091,1,0,0:0:0:0:
448,192,179195,1,0,0:0:0:0:
64,192,179405,1,0,0:0:0:0:
192,192,179405,1,0,0:0:0:0:
320,192,179615,1,0,0:0:0:0:
192,192,179615,1,0,0:0:0:0:
320,192,179825,1,0,0:0:0:0:
448,192,179825,1,0,0:0:0:0:
320,192,180244,1,0,0:0:0:0:
192,192,180349,1,0,0:0:0:0:
64,192,180454,1,0,0:0:0:0:
320,192,180664,1,0,0:0:0:0:
448,192,180664,1,0,0:0:0:0:
320,192,180874,1,0,0:0:0:0:
192,192,180874,1,0,0:0:0:0:
64,192,181084,1,0,0:0:0:0:
192,192,181084,1,0,0:0:0:0:
448,192,181293,128,0,181818:0:0:0:0:
192,192,181503,1,0,0:0:0:0:
64,192,181503,1,0,0:0:0:0:
320,192,181818,1,0,0:0:0:0:
192,192,181923,1,0,0:0:0:0:
64,192,182132,1,0,0:0:0:0:
320,192,182237,1,0,0:0:0:0:
