osu file format v14

[General]
AudioFilename: audio.mp3
AudioLeadIn: 0
PreviewTime: 60492
Countdown: 0
SampleSet: Normal
StackLeniency: 0
Mode: 1
LetterboxInBreaks: 0
WidescreenStoryboard: 0

[Editor]
Bookmarks: 1992,16761,31530,46299,55530,61068,75838,88761,91992
DistanceSpacing: 0.7
BeatDivisor: 4
GridSize: 16
TimelineZoom: 1.4

[Metadata]
Title:Tari Ubur Ubur (Hendro Engkeng Remix) (Cut Ver.)
TitleUnicode:Tari Ubur Ubur (Hendro Engkeng Remix) (Cut Ver.)
Artist:LBDJS
ArtistUnicode:LBDJS
Creator:Nytrocide_
Version:Paket Oni
Source:
Tags:ganyumymommy nytro indonesian indonesia indihome advertisement commercial meme goyang mas pras agus edm electronic dance
BeatmapID:3479183
BeatmapSetID:1702760

[Difficulty]
HPDrainRate:6
CircleSize:4
OverallDifficulty:6
ApproachRate:9.6
SliderMultiplier:1.6
SliderTickRate:1

[Events]
//Background and Video events
0,0,"bg.jpg",0,0
//Break Periods
//Storyboard Layer 0 (Background)
//Storyboard Layer 1 (Fail)
//Storyboard Layer 2 (Pass)
//Storyboard Layer 3 (Foreground)
//Storyboard Layer 4 (Overlay)
//Storyboard Sound Samples

[TimingPoints]
1992,461.538461538462,4,1,0,45,1,0
1992,-100,4,1,0,45,0,0
14915,-100,4,1,0,55,0,0
15145,-99.009900990099,4,1,0,55,0,0
15261,-98.0392156862745,4,1,0,55,0,0
15376,-97.0873786407767,4,1,0,55,0,0
15607,-96.1538461538461,4,1,0,55,0,0
15722,-95.2380952380952,4,1,0,55,0,0
15838,-94.3396226415094,4,1,0,55,0,0
16068,-93.4579439252336,4,1,0,55,0,0
16184,-92.5925925925926,4,1,0,55,0,0
16299,-91.743119266055,4,1,0,55,0,0
16761,-95.2380952380952,4,1,0,55,0,0
31068,-95.2380952380952,4,1,0,60,0,0
31530,-86.9565217391304,4,1,0,60,0,0
45838,-86.9565217391304,4,1,0,60,0,0
46299,-100,4,1,0,65,0,0
55530,-100,4,1,0,65,0,0
55645,-99.009900990099,4,1,0,65,0,0
55760,-98.0392156862745,4,1,0,65,0,0
55876,-97.0873786407767,4,1,0,65,0,0
55991,-96.1538461538461,4,1,0,70,0,0
56221,-94.3396226415094,4,1,0,70,0,0
56453,-92.5925925925926,4,1,0,70,0,0
56684,-90.9090909090909,4,1,0,70,0,0
56799,-90.0900900900901,4,1,0,70,0,0
56914,-89.2857142857143,4,1,0,70,0,0
57145,-87.719298245614,4,1,0,70,0,0
57376,-86.2068965517241,4,1,0,70,0,0
58530,-86.9565217391304,4,1,0,70,0,0
58645,-87.719298245614,4,1,0,70,0,0
58761,-88.4955752212389,4,1,0,70,0,0
58992,-90.0900900900901,4,1,0,70,0,0
59222,-91.743119266055,4,1,0,70,0,0
60607,-85.4700854700855,4,1,0,70,0,0
61068,-80,4,1,0,70,0,1
73992,-80,4,1,0,70,0,1
75376,-80,4,1,0,70,0,0
75838,-80,4,1,0,70,0,1
88761,-80,4,1,0,65,0,1
90607,-80,4,1,0,70,0,0
91068,-83.3333333333333,4,1,0,55,0,0
91530,-86.9565217391304,4,1,0,50,0,0
91992,-90.9090909090909,4,1,0,45,0,0

[Colours]
Combo1 : 150,150,150
Combo2 : 255,30,90

[HitObjects]
208,240,1992,5,4,0:0:0:0:
304,144,2338,1,8,0:0:0:0:
208,144,2684,1,0,0:0:0:0:
304,144,2915,1,8,0:0:0:0:
304,144,3145,1,8,0:0:0:0:
208,144,3376,1,0,0:0:0:0:
208,144,3838,1,0,0:0:0:0:
304,144,4184,1,8,0:0:0:0:
208,144,4530,1,0,0:0:0:0:
208,144,4645,1,0,0:0:0:0:
304,144,4761,1,8,0:0:0:0:
304,144,4992,1,8,0:0:0:0:
208,144,5222,1,0,0:0:0:0:
208,144,5453,1,0,0:0:0:0:
208,144,5684,1,0,0:0:0:0:
304,144,6030,1,8,0:0:0:0:
208,144,6376,1,0,0:0:0:0:
304,144,6607,1,8,0:0:0:0:
304,144,6838,1,8,0:0:0:0:
304,144,7068,1,8,0:0:0:0:
208,144,7530,1,0,0:0:0:0:
304,144,7876,1,8,0:0:0:0:
208,144,8222,1,0,0:0:0:0:
208,144,8338,1,0,0:0:0:0:
304,144,8453,1,8,0:0:0:0:
208,144,8684,1,0,0:0:0:0:
304,144,8915,1,8,0:0:0:0:
208,144,9145,1,0,0:0:0:0:
208,144,9376,1,0,0:0:0:0:
304,144,9722,1,8,0:0:0:0:
208,144,10068,1,0,0:0:0:0:
304,144,10299,1,8,0:0:0:0:
304,144,10530,1,8,0:0:0:0:
208,144,10761,1,0,0:0:0:0:
208,144,11222,1,0,0:0:0:0:
304,144,11568,1,8,0:0:0:0:
208,144,11914,1,0,0:0:0:0:
208,144,12030,1,0,0:0:0:0:
304,144,12145,1,8,0:0:0:0:
304,144,12376,1,8,0:0:0:0:
304,144,12607,1,8,0:0:0:0:
304,144,13068,1,8,0:0:0:0:
208,144,13299,1,0,0:0:0:0:
304,144,13415,1,8,0:0:0:0:
304,144,13530,1,8,0:0:0:0:
208,144,13761,1,0,0:0:0:0:
304,144,13992,1,8,0:0:0:0:
208,144,14222,1,0,0:0:0:0:
208,144,14453,1,0,0:0:0:0:
304,144,14915,1,8,0:0:0:0:
208,144,15145,1,0,0:0:0:0:
208,144,15261,1,0,0:0:0:0:
304,144,15376,1,8,0:0:0:0:
208,144,15607,1,0,0:0:0:0:
208,144,15722,1,0,0:0:0:0:
304,144,15838,1,8,0:0:0:0:
304,144,16068,1,8,0:0:0:0:
208,144,16184,1,0,0:0:0:0:
304,240,16299,1,12,0:0:0:0:
208,240,16761,1,4,0:0:0:0:
208,144,16992,1,0,0:0:0:0:
208,144,17107,1,0,0:0:0:0:
304,144,17222,1,8,0:0:0:0:
208,144,17453,1,0,0:0:0:0:
208,144,17684,1,0,0:0:0:0:
208,144,17915,1,0,0:0:0:0:
208,144,18030,1,0,0:0:0:0:
304,144,18145,1,8,0:0:0:0:
304,144,18376,1,8,0:0:0:0:
208,144,18607,1,0,0:0:0:0:
208,144,18838,1,0,0:0:0:0:
304,144,18953,1,8,0:0:0:0:
304,144,19068,1,8,0:0:0:0:
304,144,19299,1,8,0:0:0:0:
304,144,19530,1,8,0:0:0:0:
208,144,19761,1,0,0:0:0:0:
304,144,19992,1,8,0:0:0:0:
208,144,20453,1,0,0:0:0:0:
208,144,20684,1,0,0:0:0:0:
208,144,20799,1,0,0:0:0:0:
304,144,20915,1,8,0:0:0:0:
304,144,21145,1,8,0:0:0:0:
304,144,21376,1,8,0:0:0:0:
208,144,21607,1,0,0:0:0:0:
208,144,21722,1,0,0:0:0:0:
304,144,21838,1,8,0:0:0:0:
304,144,22068,1,8,0:0:0:0:
208,144,22299,1,0,0:0:0:0:
208,144,22530,1,0,0:0:0:0:
304,144,22645,1,8,0:0:0:0:
304,144,22761,1,8,0:0:0:0:
304,144,22992,1,8,0:0:0:0:
304,144,23222,1,8,0:0:0:0:
208,144,23453,1,0,0:0:0:0:
304,144,23684,1,8,0:0:0:0:
304,144,24145,1,8,0:0:0:0:
208,144,24376,1,0,0:0:0:0:
304,144,24492,1,8,0:0:0:0:
208,144,24607,1,0,0:0:0:0:
208,144,24838,1,0,0:0:0:0:
304,144,25068,1,8,0:0:0:0:
208,144,25299,1,0,0:0:0:0:
304,144,25415,1,8,0:0:0:0:
304,144,25530,1,8,0:0:0:0:
304,144,25761,1,8,0:0:0:0:
208,144,25992,1,0,0:0:0:0:
304,144,26222,1,8,0:0:0:0:
304,144,26338,1,8,0:0:0:0:
304,144,26453,1,8,0:0:0:0:
208,144,26684,1,0,0:0:0:0:
304,144,26915,1,8,0:0:0:0:
208,144,27145,1,0,0:0:0:0:
304,144,27376,1,8,0:0:0:0:
304,144,27838,1,8,0:0:0:0:
208,144,28068,1,0,0:0:0:0:
208,144,28184,1,0,0:0:0:0:
208,144,28299,1,0,0:0:0:0:
208,144,28530,1,0,0:0:0:0:
304,144,28761,1,8,0:0:0:0:
208,144,28992,1,0,0:0:0:0:
208,144,29107,1,0,0:0:0:0:
304,144,29222,1,8,0:0:0:0:
304,144,29453,1,8,0:0:0:0:
304,144,29684,1,8,0:0:0:0:
208,144,29914,1,0,0:0:0:0:
208,144,30030,1,0,0:0:0:0:
304,144,30145,1,8,0:0:0:0:
304,144,30375,1,8,0:0:0:0:
208,144,30491,1,0,0:0:0:0:
208,144,30607,1,0,0:0:0:0:
304,144,30838,1,8,0:0:0:0:
208,144,30953,1,0,0:0:0:0:
304,240,31068,1,12,0:0:0:0:
208,240,31530,1,4,0:0:0:0:
208,144,31761,1,0,0:0:0:0:
208,144,31876,1,0,0:0:0:0:
304,144,31991,1,8,0:0:0:0:
304,144,32222,1,8,0:0:0:0:
208,144,32453,1,0,0:0:0:0:
208,144,32684,1,0,0:0:0:0:
208,144,32799,1,0,0:0:0:0:
304,144,32915,1,8,0:0:0:0:
208,144,33030,1,0,0:0:0:0:
304,144,33145,1,8,0:0:0:0:
304,144,33376,1,8,0:0:0:0:
208,144,33607,1,0,0:0:0:0:
304,144,33722,1,8,0:0:0:0:
304,144,33838,1,8,0:0:0:0:
208,144,34068,1,0,0:0:0:0:
304,144,34299,1,8,0:0:0:0:
304,144,34761,1,8,0:0:0:0:
208,144,34876,1,0,0:0:0:0:
304,144,34992,1,8,0:0:0:0:
208,144,35107,1,0,0:0:0:0:
304,144,35222,1,8,0:0:0:0:
208,144,35453,1,0,0:0:0:0:
208,144,35568,1,0,0:0:0:0:
304,144,35684,1,8,0:0:0:0:
208,144,35915,1,0,0:0:0:0:
304,144,36145,1,8,0:0:0:0:
208,144,36376,1,0,0:0:0:0:
304,144,36607,1,8,0:0:0:0:
208,144,36722,1,0,0:0:0:0:
208,144,36838,1,0,0:0:0:0:
208,144,37068,1,0,0:0:0:0:
208,144,37299,1,0,0:0:0:0:
304,144,37415,1,8,0:0:0:0:
304,144,37530,1,8,0:0:0:0:
208,144,37761,1,0,0:0:0:0:
304,144,37992,1,8,0:0:0:0:
304,144,38453,1,8,0:0:0:0:
208,144,38684,1,0,0:0:0:0:
304,144,38915,1,8,0:0:0:0:
304,144,39145,1,8,0:0:0:0:
304,144,39261,1,8,0:0:0:0:
208,144,39376,1,0,0:0:0:0:
208,144,39607,1,0,0:0:0:0:
304,144,39838,1,8,0:0:0:0:
208,144,40068,1,0,0:0:0:0:
304,144,40299,1,8,0:0:0:0:
208,144,40415,1,0,0:0:0:0:
208,144,40530,1,0,0:0:0:0:
304,144,40645,1,8,0:0:0:0:
208,144,40761,1,0,0:0:0:0:
304,144,40992,1,8,0:0:0:0:
208,144,41107,1,0,0:0:0:0:
304,144,41222,1,8,0:0:0:0:
304,144,41453,1,8,0:0:0:0:
208,144,41684,1,0,0:0:0:0:
304,144,42145,1,8,0:0:0:0:
208,144,42261,1,0,0:0:0:0:
304,144,42376,1,8,0:0:0:0:
208,144,42492,1,0,0:0:0:0:
304,144,42607,1,8,0:0:0:0:
208,144,42838,1,0,0:0:0:0:
208,144,42953,1,0,0:0:0:0:
304,144,43068,1,8,0:0:0:0:
208,144,43299,1,0,0:0:0:0:
304,144,43530,1,8,0:0:0:0:
208,144,43761,1,0,0:0:0:0:
304,144,43992,1,8,0:0:0:0:
304,144,44222,1,8,0:0:0:0:
208,144,44453,1,0,0:0:0:0:
208,144,44683,1,0,0:0:0:0:
304,144,44799,1,8,0:0:0:0:
304,144,44914,1,8,0:0:0:0:
304,144,45144,1,8,0:0:0:0:
208,144,45260,1,0,0:0:0:0:
304,144,45376,1,8,0:0:0:0:
208,144,45607,1,0,0:0:0:0:
208,144,45722,1,0,0:0:0:0:
304,240,45838,1,12,0:0:0:0:
208,240,46299,1,4,0:0:0:0:
208,144,46645,1,0,0:0:0:0:
304,144,46761,1,8,0:0:0:0:
304,144,47222,1,8,0:0:0:0:
208,144,47453,1,0,0:0:0:0:
208,144,47568,1,0,0:0:0:0:
304,144,47684,1,8,0:0:0:0:
208,144,47915,1,0,0:0:0:0:
304,144,48145,1,8,0:0:0:0:
304,144,48492,1,8,0:0:0:0:
304,144,48607,1,8,0:0:0:0:
304,144,48838,1,8,0:0:0:0:
304,144,49068,1,8,0:0:0:0:
208,144,49299,1,0,0:0:0:0:
208,144,49414,1,0,0:0:0:0:
304,144,49530,1,8,0:0:0:0:
304,144,49761,1,8,0:0:0:0:
304,144,49992,1,8,0:0:0:0:
208,144,50338,1,0,0:0:0:0:
304,144,50453,1,8,0:0:0:0:
304,144,50915,1,8,0:0:0:0:
208,144,51145,1,0,0:0:0:0:
208,144,51261,1,0,0:0:0:0:
304,144,51376,1,8,0:0:0:0:
304,144,51492,1,8,0:0:0:0:
208,144,51607,1,0,0:0:0:0:
304,144,51838,1,8,0:0:0:0:
304,144,52299,1,8,0:0:0:0:
304,144,52761,1,8,0:0:0:0:
208,144,52992,1,0,0:0:0:0:
208,144,53107,1,0,0:0:0:0:
304,144,53222,1,8,0:0:0:0:
304,144,53453,1,8,0:0:0:0:
304,144,53568,1,8,0:0:0:0:
304,144,53684,1,8,0:0:0:0:
208,144,53915,1,0,0:0:0:0:
304,144,54145,1,8,0:0:0:0:
304,144,54376,1,8,0:0:0:0:
304,144,54607,1,8,0:0:0:0:
208,144,54838,1,0,0:0:0:0:
304,144,55068,1,8,0:0:0:0:
208,144,55299,1,0,0:0:0:0:
304,144,55530,1,8,0:0:0:0:
304,144,55645,1,8,0:0:0:0:
208,144,55761,1,0,0:0:0:0:
208,144,55876,1,0,0:0:0:0:
304,144,55992,1,8,0:0:0:0:
208,144,56222,1,0,0:0:0:0:
304,144,56453,1,8,0:0:0:0:
208,144,56684,1,0,0:0:0:0:
208,144,56800,1,0,0:0:0:0:
304,144,56915,1,8,0:0:0:0:
304,144,57145,1,8,0:0:0:0:
208,144,57376,1,0,0:0:0:0:
208,144,57492,1,0,0:0:0:0:
208,144,57607,1,0,0:0:0:0:
208,144,57722,1,0,0:0:0:0:
304,144,57838,1,8,0:0:0:0:
304,144,58068,1,8,0:0:0:0:
208,144,58299,1,0,0:0:0:0:
304,144,58530,1,8,0:0:0:0:
208,144,58645,1,0,0:0:0:0:
208,144,58761,1,0,0:0:0:0:
304,144,58992,1,8,0:0:0:0:
304,240,59222,1,12,0:0:0:0:
304,144,59568,1,8,0:0:0:0:
208,144,59684,1,0,0:0:0:0:
208,144,59915,1,0,0:0:0:0:
208,144,60145,1,0,0:0:0:0:
304,240,60607,1,12,0:0:0:0:
208,240,61068,1,4,0:0:0:0:
304,144,61530,1,8,0:0:0:0:
304,144,61761,1,8,0:0:0:0:
304,144,61876,1,8,0:0:0:0:
208,144,61992,1,0,0:0:0:0:
304,144,62222,1,8,0:0:0:0:
208,144,62338,1,0,0:0:0:0:
208,144,62453,1,0,0:0:0:0:
208,144,62684,1,0,0:0:0:0:
304,144,62915,1,8,0:0:0:0:
304,144,63145,1,8,0:0:0:0:
304,144,63376,1,8,0:0:0:0:
304,144,63607,1,8,0:0:0:0:
208,144,63838,1,0,0:0:0:0:
304,144,64068,1,8,0:0:0:0:
304,144,64184,1,8,0:0:0:0:
304,144,64299,1,8,0:0:0:0:
208,144,64415,1,0,0:0:0:0:
304,144,64530,1,8,0:0:0:0:
208,240,64761,1,4,0:0:0:0:
304,144,65222,1,8,0:0:0:0:
304,144,65453,1,8,0:0:0:0:
304,144,65568,1,8,0:0:0:0:
208,144,65684,1,0,0:0:0:0:
304,144,65915,1,8,0:0:0:0:
208,144,66030,1,0,0:0:0:0:
208,144,66146,1,0,0:0:0:0:
304,144,66261,1,8,0:0:0:0:
304,144,66376,1,8,0:0:0:0:
208,144,66607,1,0,0:0:0:0:
208,144,66838,1,0,0:0:0:0:
208,144,67068,1,0,0:0:0:0:
208,144,67299,1,0,0:0:0:0:
304,144,67530,1,8,0:0:0:0:
304,144,67761,1,8,0:0:0:0:
304,144,67992,1,8,0:0:0:0:
208,144,68107,1,0,0:0:0:0:
304,144,68222,1,8,0:0:0:0:
208,240,68453,1,4,0:0:0:0:
304,144,68915,1,8,0:0:0:0:
304,144,69145,1,8,0:0:0:0:
304,144,69261,1,8,0:0:0:0:
208,144,69376,1,0,0:0:0:0:
208,144,69607,1,0,0:0:0:0:
304,144,69723,1,8,0:0:0:0:
208,144,69838,1,0,0:0:0:0:
208,144,70068,1,0,0:0:0:0:
304,144,70299,1,8,0:0:0:0:
304,144,70530,1,8,0:0:0:0:
304,144,70761,1,8,0:0:0:0:
304,144,70992,1,8,0:0:0:0:
208,144,71222,1,0,0:0:0:0:
304,144,71453,1,8,0:0:0:0:
304,144,71568,1,8,0:0:0:0:
208,144,71684,1,0,0:0:0:0:
208,144,71799,1,0,0:0:0:0:
304,144,71915,1,8,0:0:0:0:
208,240,72145,1,4,0:0:0:0:
304,144,72607,1,8,0:0:0:0:
304,144,72838,1,8,0:0:0:0:
304,144,72953,1,8,0:0:0:0:
208,144,73068,1,0,0:0:0:0:
304,144,73299,1,8,0:0:0:0:
208,144,73414,1,0,0:0:0:0:
208,144,73529,1,0,0:0:0:0:
304,144,73761,1,8,0:0:0:0:
208,240,73992,1,4,0:0:0:0:
208,144,74338,1,0,0:0:0:0:
208,144,74454,1,0,0:0:0:0:
208,144,74684,1,0,0:0:0:0:
304,144,74915,1,8,0:0:0:0:
208,144,75145,1,0,0:0:0:0:
304,240,75376,1,12,0:0:0:0:
208,240,75838,1,4,0:0:0:0:
304,144,76299,1,8,0:0:0:0:
304,144,76530,1,8,0:0:0:0:
304,144,76645,1,8,0:0:0:0:
208,144,76761,1,0,0:0:0:0:
208,144,76992,1,0,0:0:0:0:
208,144,77222,1,0,0:0:0:0:
208,144,77338,1,0,0:0:0:0:
304,144,77453,1,8,0:0:0:0:
304,144,77568,1,8,0:0:0:0:
208,144,77684,1,0,0:0:0:0:
208,144,77915,1,0,0:0:0:0:
208,144,78145,1,0,0:0:0:0:
208,144,78376,1,0,0:0:0:0:
304,144,78607,1,8,0:0:0:0:
208,144,78838,1,0,0:0:0:0:
304,144,79068,1,8,0:0:0:0:
208,144,79184,1,0,0:0:0:0:
304,144,79299,1,8,0:0:0:0:
208,240,79530,1,4,0:0:0:0:
304,144,79992,1,8,0:0:0:0:
304,144,80222,1,8,0:0:0:0:
304,144,80338,1,8,0:0:0:0:
208,144,80453,1,0,0:0:0:0:
208,144,80684,1,0,0:0:0:0:
208,144,80915,1,0,0:0:0:0:
304,144,81030,1,8,0:0:0:0:
208,144,81145,1,0,0:0:0:0:
304,144,81261,1,8,0:0:0:0:
208,144,81376,1,0,0:0:0:0:
208,144,81607,1,0,0:0:0:0:
208,144,81838,1,0,0:0:0:0:
208,144,82068,1,0,0:0:0:0:
304,144,82299,1,8,0:0:0:0:
304,144,82415,1,8,0:0:0:0:
208,144,82530,1,0,0:0:0:0:
304,144,82761,1,8,0:0:0:0:
208,144,82876,1,0,0:0:0:0:
304,144,82992,1,8,0:0:0:0:
208,240,83222,1,4,0:0:0:0:
304,144,83684,1,8,0:0:0:0:
304,144,83915,1,8,0:0:0:0:
304,144,84030,1,8,0:0:0:0:
208,144,84145,1,0,0:0:0:0:
208,144,84376,1,0,0:0:0:0:
304,144,84607,1,8,0:0:0:0:
208,144,84722,1,0,0:0:0:0:
304,144,84838,1,8,0:0:0:0:
304,144,84953,1,8,0:0:0:0:
208,144,85068,1,0,0:0:0:0:
208,144,85299,1,0,0:0:0:0:
208,144,85530,1,0,0:0:0:0:
208,144,85761,1,0,0:0:0:0:
304,144,85992,1,8,0:0:0:0:
304,144,86222,1,8,0:0:0:0:
304,144,86453,1,8,0:0:0:0:
208,144,86568,1,0,0:0:0:0:
304,144,86684,1,8,0:0:0:0:
208,240,86915,1,4,0:0:0:0:
304,144,87376,1,8,0:0:0:0:
304,144,87607,1,8,0:0:0:0:
304,144,87722,1,8,0:0:0:0:
208,144,87838,1,0,0:0:0:0:
208,144,88068,1,0,0:0:0:0:
304,144,88299,1,8,0:0:0:0:
208,144,88415,1,0,0:0:0:0:
208,144,88530,1,0,0:0:0:0:
304,144,88645,1,8,0:0:0:0:
304,144,88761,1,8,0:0:0:0:
208,144,88992,1,0,0:0:0:0:
208,144,89107,1,0,0:0:0:0:
304,144,89222,1,8,0:0:0:0:
208,144,89453,1,0,0:0:0:0:
304,144,89568,1,8,0:0:0:0:
304,144,89684,1,8,0:0:0:0:
304,144,89915,1,8,0:0:0:0:
304,144,90145,1,8,0:0:0:0:
208,144,90376,1,0,0:0:0:0:
304,240,90607,1,12,0:0:0:0:
208,144,91068,1,0,0:0:0:0:
208,144,91530,1,0,0:0:0:0:
208,144,91992,1,0,0:0:0:0:
