osu file format v14

[General]
AudioFilename: audio.mp3
AudioLeadIn: 0
PreviewTime: 60492
Countdown: 0
SampleSet: Normal
StackLeniency: 0
Mode: 1
LetterboxInBreaks: 0
WidescreenStoryboard: 1

[Editor]
Bookmarks: 1992,16761,31530,46299,55530,61068,75838,88761,91992
DistanceSpacing: 0.7
BeatDivisor: 4
GridSize: 16
TimelineZoom: 1.4

[Metadata]
Title:Tari Ubur Ubur (Hendro Engkeng Remix) (Cut Ver.)
TitleUnicode:Tari Ubur Ubur (Hendro Engkeng Remix) (Cut Ver.)
Artist:LBDJS
ArtistUnicode:LBDJS
Creator:Nytrocide_
Version:Paket Futsuu
Source:
Tags:ganyumymommy nytro indonesian indonesia indihome advertisement commercial meme goyang mas pras agus edm electronic dance
BeatmapID:3479766
BeatmapSetID:1702760

[Difficulty]
HPDrainRate:8
CircleSize:3
OverallDifficulty:4
ApproachRate:8
SliderMultiplier:1.4
SliderTickRate:1

[Events]
//Background and Video events
0,0,"bg.jpg",0,0
//Break Periods
//Storyboard Layer 0 (Background)
//Storyboard Layer 1 (Fail)
//Storyboard Layer 2 (Pass)
//Storyboard Layer 3 (Foreground)
//Storyboard Layer 4 (Overlay)
//Storyboard Sound Samples

[TimingPoints]
1992,461.538461538462,4,1,0,45,1,0
1992,-100,4,1,0,45,0,0
14915,-100,4,1,0,55,0,0
16761,-100,4,1,0,55,0,0
29684,-100,4,1,0,60,0,0
31530,-100,4,1,0,60,0,0
44453,-100,4,1,0,65,0,0
46299,-100,4,1,0,65,0,0
55530,-100,4,1,0,70,0,0
61068,-100,4,1,0,70,0,1
73992,-100,4,1,0,70,0,1
75376,-100,4,1,0,70,0,0
75838,-100,4,1,0,75,0,1
88761,-100,4,1,0,65,0,1
90607,-100,4,1,0,60,0,0
91068,-100,4,1,0,55,0,0
91530,-100,4,1,0,50,0,0
91992,-100,4,1,0,45,0,0

[Colours]
Combo1 : 150,150,150
Combo2 : 255,30,90

[HitObjects]
208,240,1992,5,4,0:0:0:0:
208,144,2684,1,0,0:0:0:0:
304,144,2915,1,8,0:0:0:0:
208,144,3838,1,0,0:0:0:0:
304,144,4530,1,8,0:0:0:0:
208,144,4761,1,0,0:0:0:0:
304,144,5222,1,8,0:0:0:0:
208,144,5684,1,0,0:0:0:0:
208,144,6376,1,0,0:0:0:0:
304,144,6607,1,8,0:0:0:0:
208,144,7530,1,0,0:0:0:0:
208,144,8222,1,0,0:0:0:0:
304,144,8453,1,8,0:0:0:0:
304,144,8915,1,8,0:0:0:0:
208,144,9376,1,0,0:0:0:0:
304,144,10068,1,8,0:0:0:0:
304,144,10299,1,8,0:0:0:0:
208,144,11222,1,0,0:0:0:0:
208,144,11915,1,0,0:0:0:0:
304,144,12145,1,8,0:0:0:0:
304,144,12607,1,8,0:0:0:0:
208,144,12838,1,0,0:0:0:0:
208,144,13068,1,0,0:0:0:0:
304,144,13761,1,8,0:0:0:0:
208,144,13992,1,0,0:0:0:0:
208,144,14453,1,0,0:0:0:0:
208,144,14915,1,0,0:0:0:0:
208,144,15607,1,0,0:0:0:0:
208,144,15838,1,0,0:0:0:0:
304,240,16299,1,12,0:0:0:0:
208,240,16761,1,4,0:0:0:0:
208,144,17684,1,0,0:0:0:0:
304,144,18145,1,8,0:0:0:0:
208,144,18376,1,0,0:0:0:0:
208,144,18607,1,0,0:0:0:0:
304,144,19068,1,8,0:0:0:0:
208,144,19530,1,0,0:0:0:0:
208,144,20453,1,0,0:0:0:0:
304,144,20915,1,8,0:0:0:0:
208,144,21376,1,0,0:0:0:0:
304,144,21838,1,8,0:0:0:0:
304,144,22068,1,8,0:0:0:0:
208,144,22299,1,0,0:0:0:0:
208,144,22761,1,8,0:0:0:0:
304,144,23222,1,8,0:0:0:0:
304,144,24145,1,8,0:0:0:0:
304,144,24607,1,8,0:0:0:0:
208,144,25068,1,0,0:0:0:0:
304,144,25530,1,8,0:0:0:0:
208,144,25761,1,0,0:0:0:0:
208,144,25992,1,0,0:0:0:0:
304,144,26453,1,8,0:0:0:0:
208,144,26915,1,0,0:0:0:0:
208,144,27838,1,0,0:0:0:0:
304,144,28299,1,8,0:0:0:0:
208,144,28761,1,0,0:0:0:0:
208,144,28992,1,0,0:0:0:0:
304,144,29222,1,8,0:0:0:0:
208,144,29684,1,0,0:0:0:0:
208,144,30376,1,0,0:0:0:0:
208,144,30838,1,0,0:0:0:0:
304,240,31068,1,12,0:0:0:0:
208,240,31530,1,4,0:0:0:0:
208,144,32453,1,0,0:0:0:0:
208,144,32915,1,0,0:0:0:0:
208,144,33376,1,0,0:0:0:0:
304,144,33607,1,8,0:0:0:0:
304,144,33838,1,8,0:0:0:0:
304,144,34299,1,8,0:0:0:0:
304,144,34761,1,8,0:0:0:0:
208,144,34992,1,0,0:0:0:0:
208,144,35222,1,0,0:0:0:0:
304,144,35684,1,8,0:0:0:0:
208,144,35915,1,0,0:0:0:0:
304,144,36145,1,8,0:0:0:0:
304,144,36607,1,8,0:0:0:0:
208,144,37068,1,0,0:0:0:0:
304,144,37530,1,8,0:0:0:0:
304,144,37992,1,8,0:0:0:0:
304,144,38915,1,8,0:0:0:0:
208,144,39376,1,0,0:0:0:0:
304,144,39838,1,8,0:0:0:0:
208,144,40068,1,0,0:0:0:0:
304,144,40299,1,8,0:0:0:0:
208,144,40761,1,0,0:0:0:0:
208,144,41222,1,0,0:0:0:0:
304,144,41453,1,8,0:0:0:0:
208,144,41684,1,0,0:0:0:0:
304,144,42145,1,8,0:0:0:0:
208,144,42607,1,0,0:0:0:0:
208,144,42838,1,0,0:0:0:0:
304,144,43068,1,8,0:0:0:0:
304,144,43530,1,8,0:0:0:0:
304,144,43992,1,8,0:0:0:0:
208,144,44453,1,0,0:0:0:0:
304,144,45376,1,8,0:0:0:0:
304,240,45838,1,12,0:0:0:0:
208,240,46299,1,4,0:0:0:0:
304,144,46761,1,8,0:0:0:0:
208,144,47222,1,0,0:0:0:0:
208,144,47453,1,0,0:0:0:0:
304,144,47684,1,8,0:0:0:0:
304,144,48145,1,8,0:0:0:0:
304,144,48607,1,8,0:0:0:0:
208,144,48838,1,0,0:0:0:0:
304,144,49068,1,8,0:0:0:0:
304,144,49992,1,8,0:0:0:0:
304,144,50453,1,8,0:0:0:0:
208,144,50915,1,0,0:0:0:0:
304,144,51145,1,8,0:0:0:0:
304,144,51376,1,8,0:0:0:0:
208,144,51838,1,0,0:0:0:0:
208,144,52299,1,0,0:0:0:0:
304,144,52761,1,8,0:0:0:0:
208,144,53684,1,0,0:0:0:0:
304,144,54145,1,8,0:0:0:0:
304,144,54607,1,8,0:0:0:0:
304,144,55068,1,8,0:0:0:0:
208,144,55530,1,0,0:0:0:0:
208,144,55761,1,0,0:0:0:0:
208,144,55992,1,0,0:0:0:0:
304,144,56453,1,8,0:0:0:0:
304,144,56684,1,8,0:0:0:0:
304,144,56915,1,8,0:0:0:0:
208,144,57376,1,0,0:0:0:0:
304,144,57838,1,8,0:0:0:0:
304,144,58068,1,8,0:0:0:0:
304,144,58299,1,8,0:0:0:0:
208,144,58761,1,0,0:0:0:0:
304,240,59222,1,12,0:0:0:0:
208,144,59684,1,0,0:0:0:0:
208,144,60145,1,0,0:0:0:0:
304,240,60607,1,12,0:0:0:0:
208,240,61068,1,4,0:0:0:0:
304,144,61992,1,8,0:0:0:0:
208,144,62453,1,0,0:0:0:0:
208,144,62684,1,0,0:0:0:0:
304,144,62915,1,8,0:0:0:0:
304,144,63376,1,8,0:0:0:0:
304,144,63607,1,8,0:0:0:0:
304,144,63838,1,8,0:0:0:0:
208,144,64299,1,0,0:0:0:0:
304,144,64530,1,8,0:0:0:0:
208,144,64761,1,0,0:0:0:0:
304,144,65222,1,8,0:0:0:0:
304,144,65684,1,8,0:0:0:0:
208,144,66145,1,0,0:0:0:0:
304,144,66376,1,8,0:0:0:0:
208,144,66607,1,0,0:0:0:0:
208,144,67068,1,0,0:0:0:0:
304,144,67299,1,8,0:0:0:0:
304,144,67530,1,8,0:0:0:0:
208,144,67761,1,0,0:0:0:0:
304,144,67992,1,8,0:0:0:0:
208,144,68453,1,0,0:0:0:0:
304,144,69376,1,8,0:0:0:0:
208,144,69838,1,0,0:0:0:0:
208,144,70068,1,0,0:0:0:0:
304,144,70299,1,8,0:0:0:0:
208,144,70761,1,0,0:0:0:0:
208,144,70992,1,0,0:0:0:0:
208,144,71222,1,0,0:0:0:0:
208,144,71684,1,0,0:0:0:0:
304,144,71915,1,8,0:0:0:0:
208,144,72145,1,0,0:0:0:0:
304,144,72607,1,8,0:0:0:0:
304,144,73068,1,8,0:0:0:0:
208,144,73530,1,0,0:0:0:0:
304,144,73761,1,8,0:0:0:0:
208,240,73992,1,4,0:0:0:0:
208,144,74915,1,0,0:0:0:0:
304,240,75376,1,12,0:0:0:0:
208,240,75838,1,4,0:0:0:0:
304,144,76299,1,8,0:0:0:0:
304,144,76530,1,8,0:0:0:0:
208,144,76761,1,0,0:0:0:0:
304,144,77222,1,8,0:0:0:0:
208,144,77684,1,0,0:0:0:0:
304,144,77915,1,8,0:0:0:0:
208,144,78145,1,0,0:0:0:0:
208,144,78376,1,0,0:0:0:0:
304,144,78607,1,8,0:0:0:0:
304,144,79068,1,8,0:0:0:0:
208,144,79530,1,0,0:0:0:0:
304,144,79992,1,8,0:0:0:0:
208,144,80222,1,0,0:0:0:0:
208,144,80453,1,0,0:0:0:0:
304,144,80915,1,8,0:0:0:0:
208,144,81376,1,0,0:0:0:0:
208,144,81607,1,0,0:0:0:0:
304,144,81838,1,8,0:0:0:0:
208,144,82068,1,0,0:0:0:0:
304,144,82299,1,8,0:0:0:0:
208,144,83222,1,0,0:0:0:0:
304,144,83684,1,8,0:0:0:0:
304,144,83915,1,8,0:0:0:0:
208,144,84145,1,0,0:0:0:0:
304,144,84607,1,8,0:0:0:0:
208,144,85068,1,0,0:0:0:0:
304,144,85299,1,8,0:0:0:0:
208,144,85530,1,0,0:0:0:0:
208,144,85761,1,0,0:0:0:0:
304,144,85992,1,8,0:0:0:0:
304,144,86453,1,8,0:0:0:0:
208,144,86915,1,0,0:0:0:0:
304,144,87376,1,8,0:0:0:0:
208,144,87607,1,0,0:0:0:0:
208,144,87838,1,0,0:0:0:0:
208,144,88299,1,0,0:0:0:0:
304,144,88530,1,8,0:0:0:0:
208,144,88761,1,0,0:0:0:0:
208,144,89222,1,0,0:0:0:0:
208,144,89453,1,0,0:0:0:0:
304,144,89684,1,8,0:0:0:0:
208,144,89915,1,0,0:0:0:0:
304,144,90145,1,8,0:0:0:0:
304,240,90607,1,12,0:0:0:0:
