osu file format v14

[General]
AudioFilename: audio.mp3
AudioLeadIn: 0
PreviewTime: 60549
Countdown: 0
SampleSet: Soft
StackLeniency: 0.4
Mode: 0
LetterboxInBreaks: 0
WidescreenStoryboard: 0

[Editor]
DistanceSpacing: 0.7
BeatDivisor: 8
GridSize: 8
TimelineZoom: 2.1

[Metadata]
Title:Tari Ubur Ubur (Hendro Engkeng Remix) (Cut Ver.)
TitleUnicode:Tari Ubur Ubur (Hendro Engkeng Remix) (Cut Ver.)
Artist:LBDJS
ArtistUnicode:LBDJS
Creator:Aakki
Version:Paket Streamix
Source:
Tags:chiga nyantiaz theblank xandit indihome meme mas pras agus indonesian indonesia electronic dance instrumental edm
BeatmapID:2669883
BeatmapSetID:1285848

[Difficulty]
HPDrainRate:6
CircleSize:5
OverallDifficulty:8.8
ApproachRate:9.4
SliderMultiplier:2.3
SliderTickRate:1

[Events]
//Background and Video events
0,0,"bg.jpg",0,0
//Break Periods
//Storyboard Layer 0 (Background)
//Storyboard Layer 1 (Fail)
//Storyboard Layer 2 (Pass)
//Storyboard Layer 3 (Foreground)
//Storyboard Layer 4 (Overlay)
//Storyboard Sound Samples

[TimingPoints]
1992,461.538461538462,4,2,1,50,1,0
1992,-125,4,2,1,50,0,0
6261,-125,4,2,1,5,0,0
6376,-125,4,2,1,50,0,0
9376,-125,4,2,1,60,0,0
13068,-125,4,2,1,70,0,0
16299,-100,4,2,1,70,0,0
16702,-100,4,2,1,5,0,0
16761,-111.111111111111,4,2,1,70,0,0
31068,-90.9090909090909,4,2,1,70,0,0
31471,-90.9090909090909,4,2,1,5,0,0
31530,-133.333333333333,4,2,1,80,0,0
33260,-133.333333333333,4,2,1,5,0,0
33376,-133.333333333333,4,2,1,80,0,0
35106,-133.333333333333,4,2,1,5,0,0
35222,-133.333333333333,4,2,1,80,0,0
36952,-133.333333333333,4,2,1,5,0,0
37068,-133.333333333333,4,2,1,80,0,0
38798,-133.333333333333,4,2,1,5,0,0
38915,-133.333333333333,4,2,1,80,0,0
40645,-133.333333333333,4,2,1,5,0,0
40761,-133.333333333333,4,2,1,80,0,0
42491,-133.333333333333,4,2,1,5,0,0
42607,-133.333333333333,4,2,1,80,0,0
44337,-133.333333333333,4,2,1,5,0,0
44453,-133.333333333333,4,2,1,80,0,0
45838,-90.9090909090909,4,2,1,80,0,0
46241,-90.9090909090909,4,2,1,5,0,0
46299,-125,4,2,2,70,0,0
52299,-111.111111111111,4,2,2,70,0,0
52761,-100,4,2,2,70,0,0
53222,-90.9090909090909,4,2,2,70,0,0
53684,-66.6666666666667,4,2,2,70,0,0
57838,-80,4,2,2,70,0,0
58299,-100,4,2,2,70,0,0
58761,-133.333333333333,4,2,2,70,0,0
59222,-133.333333333333,4,2,1,60,0,0
60607,-66.6666666666667,4,2,2,60,0,0
60722,-66.6666666666667,4,2,2,5,0,0
61068,-58.8235294117647,4,2,1,100,0,1
61414,-58.8235294117647,4,2,1,5,0,1
61530,-58.8235294117647,4,2,1,100,0,1
62626,-58.8235294117647,4,2,1,5,0,1
62684,-58.8235294117647,4,2,1,100,0,1
62857,-58.8235294117647,4,2,1,5,0,1
62915,-58.8235294117647,4,2,1,100,0,1
64703,-58.8235294117647,4,2,1,5,0,1
64761,-58.8235294117647,4,2,1,100,0,1
65107,-58.8235294117647,4,2,1,5,0,1
65222,-58.8235294117647,4,2,1,100,0,1
68165,-58.8235294117647,4,2,1,5,0,1
68222,-58.8235294117647,4,2,1,100,0,1
68395,-58.8235294117647,4,2,1,5,0,1
68453,-58.8235294117647,4,2,1,100,0,1
68799,-58.8235294117647,4,2,1,5,0,1
68915,-58.8235294117647,4,2,1,100,0,1
72088,-58.8235294117647,4,2,1,5,0,1
72145,-58.8235294117647,4,2,1,100,0,1
72491,-58.8235294117647,4,2,1,5,0,1
72607,-58.8235294117647,4,2,1,100,0,1
73992,-58.8235294117647,4,2,1,60,0,1
75376,-58.8235294117647,4,2,2,60,0,1
75492,-58.8235294117647,4,2,2,5,0,1
75838,-58.8235294117647,4,2,1,100,0,1
76184,-58.8235294117647,4,2,1,5,0,1
76299,-58.8235294117647,4,2,1,100,0,1
77857,-58.8235294117647,4,2,1,5,0,1
77915,-58.8235294117647,4,2,1,100,0,1
78318,-58.8235294117647,4,2,1,5,0,1
78376,-58.8235294117647,4,2,1,100,0,1
78780,-58.8235294117647,4,2,1,5,0,1
78838,-58.8235294117647,4,2,1,100,0,1
79242,-58.8235294117647,4,2,1,5,0,1
79299,-58.8235294117647,4,2,1,100,0,1
79876,-58.8235294117647,4,2,1,5,0,1
79992,-58.8235294117647,4,2,1,100,0,1
81549,-58.8235294117647,4,2,1,5,0,1
81607,-58.8235294117647,4,2,1,100,0,1
82011,-58.8235294117647,4,2,1,5,0,1
82068,-58.8235294117647,4,2,1,100,0,1
82703,-58.8235294117647,4,2,1,5,0,1
82761,-58.8235294117647,4,2,1,100,0,1
83165,-58.8235294117647,4,2,1,5,0,1
83222,-58.8235294117647,4,2,1,100,0,1
83568,-58.8235294117647,4,2,1,5,0,1
83684,-58.8235294117647,4,2,1,100,0,1
85242,-58.8235294117647,4,2,1,5,0,1
85299,-58.8235294117647,4,2,1,100,0,1
85703,-58.8235294117647,4,2,1,5,0,1
85761,-58.8235294117647,4,2,1,100,0,1
86165,-58.8235294117647,4,2,1,5,0,1
86222,-58.8235294117647,4,2,1,100,0,1
86626,-58.8235294117647,4,2,1,5,0,1
86684,-58.8235294117647,4,2,1,100,0,1
87261,-58.8235294117647,4,2,1,5,0,1
87376,-58.8235294117647,4,2,1,100,0,1
90491,-58.8235294117647,4,2,1,5,0,1
90607,-500,4,2,1,100,0,0

[Colours]
Combo1 : 93,93,93
Combo2 : 252,20,20
Combo3 : 192,192,192

[HitObjects]
188,341,1992,5,6,0:0:0:0:
136,275,2338,1,2,0:0:0:0:
164,184,2684,2,0,P|209:180|248:204,2,92,2|2|2,0:0|0:0|0:0,0:0:0:0:
192,247,3376,1,2,0:0:0:0:
164,108,3838,5,2,0:0:0:0:
242,162,4184,1,2,0:0:0:0:
311,118,4530,1,2,0:0:0:0:
331,123,4645,1,0,0:0:0:0:
353,128,4761,2,0,L|448:116,2,92,2|2|2,0:0|0:0|0:0,0:0:0:0:
353,128,5684,5,2,0:0:0:0:
264,232,6030,2,0,B|240:224|211:248|227:247|202:276|162:268,1,92,2|0,0:0|0:0,0:0:0:0:
122,232,6376,2,0,L|107:135,2,92,2|2|2,0:0|0:0|0:0,0:0:0:0:
136,312,7068,1,2,0:0:0:0:
107,141,7530,5,2,0:0:0:0:
210,94,7876,1,2,0:0:0:0:
291,160,8222,1,2,0:0:0:0:
294,176,8338,1,0,0:0:0:0:
299,193,8453,2,0,L|392:177,2,92,2|2|2,0:0|0:0|0:0,0:0:0:0:
299,193,9376,6,0,B|271:212|218:184|243:170|207:140|171:155,2,138,2|2|2,0:0|0:0|0:0,0:0:0:0:
361,146,10299,2,0,P|375:103|357:58,2,92,2|2|2,0:0|0:0|0:0,0:0:0:0:
361,146,11222,5,2,0:0:0:0:
447,244,11568,1,2,0:0:0:0:
342,323,11915,1,2,0:0:0:0:
321,328,12030,1,0,0:0:0:0:
301,335,12145,2,0,L|198:319,2,92,2|2|2,0:0|0:0|0:0,0:0:0:0:
404,300,12838,1,2,0:0:0:0:
306,179,13068,6,0,B|296:126|296:126|315:94|315:94|304:28,2,138,2|2|2,0:0|0:0|0:0,0:0:0:0:
244,245,13992,2,0,P|182:257|145:234,2,92,2|2|10,0:0|0:0|0:0,0:0:0:0:
204,162,14684,1,8,0:0:0:0:
87,238,14915,6,0,P|93:275|103:290,3,46,10|8|8|10,0:0|0:0|0:0|0:0,0:0:0:0:
39,185,15376,6,0,P|23:205|13:233,3,46,8|8|10|8,0:0|0:0|0:0|0:0,0:0:0:0:
73,121,15838,6,0,P|53:116|33:117,7,23,10|8|8|8|10|8|8|8,0:0|0:0|0:0|0:0|0:0|0:0|0:0|0:0,0:0:0:0:
97,135,16299,6,0,B|167:130|167:130|211:163|211:163|291:156,1,201.25,10|0,0:1|2:0,0:0:0:0:
332,106,16761,6,0,P|388:90|439:151,1,103.499996841431,6|2,3:2|0:0,0:0:0:0:
486,226,17222,2,0,P|463:214|434:208,1,51.7499984207154,10|0,0:3|0:0,0:0:0:0:
391,254,17453,1,2,0:0:0:0:
286,156,17684,1,2,0:0:0:0:
323,306,17915,1,0,0:0:0:0:
315,331,18030,1,2,0:0:0:0:
309,355,18145,1,10,0:3:0:0:
151,272,18376,1,2,0:0:0:0:
286,156,18607,5,2,0:0:0:0:
228,278,18838,2,0,B|237:332,1,51.7499984207154
184,206,19068,1,8,0:3:0:0:
405,263,19299,1,0,0:0:0:0:
443,87,19530,1,0,0:0:0:0:
425,172,19761,1,0,0:0:0:0:
341,155,19992,1,8,0:3:0:0:
359,70,20223,1,2,0:0:0:0:
283,207,20453,6,0,B|241:212|241:212|225:226|225:226|177:233,1,103.499996841431,2|2,0:0|0:0,0:0:0:0:
157,239,20799,1,0,0:0:0:0:
157,239,20915,1,10,0:3:0:0:
78,154,21145,1,2,0:0:0:0:
150,310,21376,1,2,0:0:0:0:
224,155,21607,1,0,0:0:0:0:
223,139,21722,1,2,0:0:0:0:
223,122,21838,1,10,0:3:0:0:
356,254,22068,1,2,0:0:0:0:
506,132,22299,6,0,P|456:105|403:112,1,103.499996841431,2|0,0:0|0:0,0:0:0:0:
386,131,22645,1,0,0:0:0:0:
386,131,22761,1,8,0:3:0:0:
470,250,22992,1,0,0:0:0:0:
380,335,23222,1,0,0:0:0:0:
409,204,23453,1,0,0:0:0:0:
287,112,23684,1,8,0:3:0:0:
174,199,23915,2,0,P|158:196|117:189,1,51.7499984207154,2|0,0:0|0:0,0:0:0:0:
61,115,24145,6,0,B|92:111|106:83|106:83|111:108|135:125,1,103.499996841431,2|2,0:0|0:0,0:0:0:0:
171,73,24492,1,0,0:0:0:0:
171,73,24607,1,10,0:3:0:0:
275,153,24838,1,2,0:0:0:0:
354,89,25068,1,2,0:0:0:0:
492,164,25299,1,0,0:0:0:0:
489,182,25415,1,2,0:0:0:0:
487,198,25530,1,10,0:3:0:0:
340,275,25761,1,2,0:0:0:0:
304,192,25992,6,0,P|358:180|403:207,1,103.499996841431,2|0,0:0|0:0,0:0:0:0:
425,229,26338,1,0,0:0:0:0:
425,229,26453,1,8,0:3:0:0:
334,339,26684,1,0,0:0:0:0:
108,254,26915,1,0,0:0:0:0:
173,190,27145,1,0,0:0:0:0:
190,284,27376,1,8,0:3:0:0:
108,254,27607,1,2,0:0:0:0:
236,140,27838,6,0,B|294:132|294:132|311:100|293:87,1,103.499996841431,2|2,0:0|0:0,0:0:0:0:
276,61,28184,1,0,0:0:0:0:
276,61,28299,1,10,0:3:0:0:
139,1,28530,1,2,0:0:0:0:
6,65,28761,1,2,0:0:0:0:
13,85,28876,1,0,0:0:0:0:
23,107,28992,1,0,0:0:0:0:
99,251,29222,1,10,0:3:0:0:
233,169,29453,2,0,B|205:165|213:177|178:173,1,51.7499984207154,2|0,0:0|0:0,0:0:0:0:
226,72,29684,5,10,0:0:0:0:
265,60,29799,1,8,0:0:0:0:
305,69,29915,1,8,0:0:0:0:
331,100,30030,1,8,0:0:0:0:
331,141,30145,1,8,0:0:0:0:
321,181,30261,1,8,0:0:0:0:
333,220,30376,1,8,0:0:0:0:
365,245,30492,1,8,0:0:0:0:
405,253,30607,6,0,L|445:248,4,25.8749992103577,8|8|8|8|8,0:0|0:0|0:0|0:0|0:0,0:0:0:0:
256,322,31068,6,0,B|240:361|179:382|77:338|118:293|157:262|199:288,1,221.375006755829,10|0,0:1|2:0,0:0:0:0:
178,280,31530,6,0,P|169:205|157:158,1,86.2500032901765,6|2,3:2|0:0,0:0:0:0:
112,106,31992,2,0,B|153:117|153:117|193:96,1,86.2500032901765,10|2,0:3|3:2,0:0:0:0:
241,51,32338,1,0,0:0:0:0:
241,51,32453,2,0,B|279:30|279:30|320:41,1,86.2500032901765,2|0,0:0|3:2,0:0:0:0:
417,119,32915,1,10,0:3:0:0:
417,119,33030,2,0,P|422:91|400:117,1,86.2500032901765,0|0,3:2|0:0,0:0:0:0:
411,102,33376,6,0,P|367:93|321:91,1,86.2500032901765,2|2,3:2|0:0,0:0:0:0:
266,139,33722,1,0,0:0:0:0:
266,139,33838,2,0,B|229:131|229:131|206:137|206:137|157:128,1,86.2500032901765,10|2,0:3|3:2,0:0:0:0:
91,51,34299,2,0,B|109:92|109:92|92:133,1,86.2500032901765,2|0,0:0|3:2,0:0:0:0:
33,245,34761,1,10,0:3:0:0:
33,245,34876,2,0,P|11:249|36:232,1,86.2500032901765,0|0,3:2|0:0,0:0:0:0:
16,236,35222,6,0,B|26:241|51:233|51:233|67:240|67:240|92:232|115:236,1,86.2500032901765,2|2,3:2|0:0,0:0:0:0:
133,247,35568,1,0,0:0:0:0:
133,247,35684,1,10,0:3:0:0:
212,150,35915,1,2,3:2:0:0:
286,308,36145,2,0,P|307:261|298:227,1,86.2500032901765,2|0,0:0|3:2,0:0:0:0:
257,91,36607,1,10,0:3:0:0:
257,91,36722,2,0,B|274:72|278:51|278:51|282:72|303:84,1,86.2500032901765,0|0,3:2|0:0,0:0:0:0:
358,110,37068,5,2,3:2:0:0:
377,209,37299,1,2,0:0:0:0:
286,308,37530,1,10,0:3:0:0:
434,364,37761,1,2,3:2:0:0:
281,243,37992,2,0,P|240:252|226:269,1,43.1250016450883,2|0,0:0|0:0,0:0:0:0:
120,338,38222,1,0,3:2:0:0:
40,187,38453,1,10,0:3:0:0:
40,187,38568,2,0,B|23:167|24:145|24:145|58:151|68:167,1,86.2500032901765,0|0,3:2|0:0,0:0:0:0:
134,228,38915,6,0,B|132:254|115:269|115:269|96:240|100:220,1,86.2500032901765,2|2,3:2|0:0,0:0:0:0:
136,160,39261,1,0,0:0:0:0:
136,160,39376,1,10,0:3:0:0:
223,222,39607,1,2,3:2:0:0:
349,140,39838,1,2,0:0:0:0:
293,213,40068,1,2,3:2:0:0:
238,90,40299,1,10,0:3:0:0:
238,90,40415,2,0,P|230:72|241:91,1,86.2500032901765,0|0,3:2|0:0,0:0:0:0:
247,73,40761,6,0,P|294:54|335:72,1,86.2500032901765,2|2,3:2|0:0,0:0:0:0:
347,84,41107,1,0,0:0:0:0:
347,84,41222,1,10,0:3:0:0:
509,28,41453,1,2,3:2:0:0:
444,124,41684,1,2,0:0:0:0:
504,191,41915,1,0,3:2:0:0:
402,282,42145,1,10,0:3:0:0:
402,282,42261,2,0,B|367:277|367:277|348:284|348:284|297:276,1,86.2500032901765,0|0,3:2|0:0,0:0:0:0:
267,235,42607,6,0,B|285:280|285:280|264:322,1,86.2500032901765,2|2,3:2|0:0,0:0:0:0:
249,343,42953,1,0,0:0:0:0:
249,343,43068,1,10,0:3:0:0:
155,268,43299,1,2,3:2:0:0:
271,166,43530,1,2,0:0:0:0:
193,80,43761,1,2,3:2:0:0:
339,5,43992,1,10,0:3:0:0:
339,5,44107,2,0,P|340:40|324:11,1,86.2500032901765,0|0,3:2|0:0,0:0:0:0:
342,27,44453,5,10,0:0:0:0:
374,16,44568,1,8,0:0:0:0:
408,20,44684,1,10,0:0:0:0:
436,38,44799,1,8,0:0:0:0:
447,70,44915,1,10,0:0:0:0:
444,104,45030,1,8,0:0:0:0:
428,134,45145,1,10,0:0:0:0:
419,167,45261,1,8,0:0:0:0:
428,200,45376,6,0,L|469:206,4,21.5625008225441,10|8|8|8|10,0:0|0:0|0:0|0:0|0:0,0:0:0:0:
339,291,45838,6,0,B|279:259|235:313|251:339|197:383|130:335,1,221.375006755829,10|0,0:1|2:0,0:0:0:0:
110,284,46299,6,0,B|89:240|89:240|120:187,1,92,10|0,0:0|0:0,0:0:0:0:
186,207,46645,1,2,0:0:0:0:
186,207,46761,2,0,B|206:250|206:250|176:304,1,92,10|2,0:0|0:0,0:0:0:0:
146,144,47222,2,0,B|189:123|189:123|243:154,1,92,10|2,0:0|0:0,0:0:0:0:
281,193,47568,1,0,0:0:0:0:
281,193,47684,2,0,L|330:185,2,46,10|0|2,0:0|0:0|0:0,0:0:0:0:
403,184,48145,6,0,P|431:135|417:92,1,92,10|0,0:0|0:0,0:0:0:0:
384,41,48492,1,2,0:0:0:0:
383,40,48607,2,0,P|356:76|362:121,1,92,8|2,0:0|0:0,0:0:0:0:
444,263,49068,1,10,0:0:0:0:
317,323,49299,1,2,0:0:0:0:
317,323,49415,1,8,0:0:0:0:
317,323,49530,2,0,B|291:318|291:318|283:320|283:320|251:315,1,46,10|0,0:0|0:0,0:0:0:0:
179,250,49761,2,0,B|205:245|205:245|213:247|213:247|245:242,1,46,10|0,0:0|0:0,0:0:0:0:
368,168,49992,6,0,B|349:155|341:130|341:130|332:151|310:163,1,92,10|0,0:0|0:0,0:0:0:0:
274,100,50338,1,2,0:0:0:0:
274,100,50453,2,0,B|253:111|244:132|244:132|236:107|217:94,1,92,10|2,0:0|0:0,0:0:0:0:
135,37,50915,1,10,0:0:0:0:
9,135,51145,2,0,P|3:158|14:181,1,46,2|0,0:0|0:0,0:0:0:0:
84,172,51376,2,0,P|90:149|79:126,1,46,10|0,0:0|0:0,0:0:0:0:
54,233,51607,1,2,0:0:0:0:
194,353,51838,6,0,B|225:363|241:356|241:356|251:363|251:363|270:356|290:365,1,92,10|0,0:0|0:0,0:0:0:0:
364,323,52184,1,0,0:0:0:0:
364,323,52299,6,0,B|379:248|379:248|354:274,1,103.499996841431,10|0,0:0|0:0,0:0:0:0:
286,190,52645,1,0,0:0:0:0:
286,190,52761,6,0,B|222:182|242:224|163:212,1,115,10|0,0:0|0:0,0:0:0:0:
75,162,53107,1,8,0:0:0:0:
75,162,53222,6,0,P|68:130|82:87,1,63.2500019302369,10|0,0:0|0:0,0:0:0:0:
175,136,53453,2,0,L|130:132,3,31.6250009651184,8|8|8|8,0:0|0:0|0:0|0:0,0:0:0:0:
241,46,53684,6,0,P|250:39|331:27,1,86.2500032901765,10|0,0:0|0:0,0:0:0:0:
385,103,53915,2,0,P|394:110|475:122,1,86.2500032901765,8|0,0:0|0:0,0:0:0:0:
303,194,54145,6,0,B|286:236|286:236|307:288,1,86.2500032901765,10|0,0:0|0:0,0:0:0:0:
378,278,54376,2,0,B|395:236|395:236|374:184,1,86.2500032901765,8|0,0:0|0:0,0:0:0:0:
249,339,54607,6,0,B|215:354|182:333|182:333|166:346|181:361,1,86.2500032901765,10|0,0:0|0:0,0:0:0:0:
73,245,54838,2,0,B|107:230|140:251|140:251|156:238|141:223,1,86.2500032901765,8|0,0:0|0:0,0:0:0:0:
41,321,55068,6,0,P|21:343|33:312,1,86.2500032901765,10|0,0:0|0:0,0:0:0:0:
190,160,55299,2,0,P|219:158|189:172,1,86.2500032901765,8|0,0:0|0:0,0:0:0:0:
15,26,55530,5,10,0:0:0:0:
79,1,55645,1,8,0:0:0:0:
138,36,55761,1,10,0:0:0:0:
151,103,55876,1,8,0:0:0:0:
190,160,55992,5,10,0:0:0:0:
258,165,56107,1,8,0:0:0:0:
312,122,56222,1,10,0:0:0:0:
307,52,56338,1,8,0:0:0:0:
240,67,56453,5,10,0:0:0:0:
202,124,56568,1,8,0:0:0:0:
218,191,56684,1,10,0:0:0:0:
273,232,56799,1,8,0:0:0:0:
315,287,56915,5,10,0:0:0:0:
280,346,57030,1,8,0:0:0:0:
212,330,57145,1,10,0:0:0:0:
206,260,57261,1,8,0:0:0:0:
273,232,57376,6,0,P|292:218|322:217,7,43.1250016450883,8|8|8|8|8|8|8|8,0:0|0:0|0:0|0:0|0:0|0:0|0:0|0:0,0:0:0:0:
326,151,57838,6,0,P|347:154|363:168,7,35.9375,8|8|8|8|8|8|8|8,0:0|0:0|0:0|0:0|0:0|0:0|0:0|0:0,0:0:0:0:
418,119,58299,6,0,P|430:136|432:157,7,28.75,8|8|8|8|8|8|8|8,0:0|0:0|0:0|0:0|0:0|0:0|0:0|0:0,0:0:0:0:
498,153,58761,6,0,P|494:171|482:187,7,21.5625008225441,8|8|8|8|8|8|8|8,0:0|0:0|0:0|0:0|0:0|0:0|0:0|0:0,0:0:0:0:
465,241,59222,5,10,0:3:0:0:
238,66,59568,1,10,0:3:0:0:
247,88,59684,1,10,0:3:0:0:
313,268,59915,1,10,0:3:0:0:
405,33,60145,1,10,0:3:0:0:
241,383,60607,6,0,B|261:373|267:348|267:348|279:372|307:384,1,86.2500032901765,4|0,0:0|0:0,0:0:0:0:
295,378,61068,6,0,B|218:379|172:292|254:285|192:165|113:182,1,293.2500055933,6|0,3:2|0:0,0:0:0:0:
47,225,61530,2,0,P|27:246|45:315,1,97.7500018644333,10|0,0:2|0:0,0:0:0:0:
133,349,61761,5,2,3:2:0:0:
122,180,61876,1,2,0:0:0:0:
133,349,61992,2,0,L|125:236,1,97.7500018644333,2|0,0:0|0:0,0:0:0:0:
284,185,62222,5,2,3:2:0:0:
122,180,62338,1,2,0:0:0:0:
284,185,62453,2,0,B|294:97|294:97|259:64|220:84,1,146.62500279665,10|0,0:2|0:0,0:0:0:0:
185,22,62684,2,0,B|161:55|180:112|180:112|151:109|133:88,1,146.62500279665,2|0,0:0|0:0,0:0:0:0:
39,146,62915,6,0,P|65:142|128:198,1,97.7500018644333,2|0,3:2|0:0,0:0:0:0:
179,319,63145,2,0,P|214:286|261:285,1,97.7500018644333,2|0,0:0|0:0,0:0:0:0:
318,110,63376,6,0,P|365:110|400:143,1,97.7500018644333,10|0,0:2|0:0,0:0:0:0:
366,218,63607,2,0,P|318:217|283:184,1,97.7500018644333,2|0,3:2|0:0,0:0:0:0:
185,22,63838,6,0,B|164:5|164:5|155:47|179:102,1,97.7500018644333,2|0,0:0|0:0,0:0:0:0:
217,217,64068,1,2,3:2:0:0:
168,74,64184,1,2,0:0:0:0:
130,275,64299,2,0,B|145:262|148:233|148:233|156:262|179:273,1,97.7500018644333,10|0,0:2|3:2,0:0:0:0:
281,352,64530,2,0,B|324:373|368:349|351:332|375:304|420:306,1,146.62500279665,2|0,0:0|0:0,0:0:0:0:
475,344,64761,6,0,B|522:291|516:215|460:244|428:193|418:136|478:103|514:140|521:164,1,293.2500055933,2|0,3:2|0:0,0:0:0:0:
408,306,65222,6,0,P|378:312|319:277,1,97.7500018644333,10|0,0:2|0:0,0:0:0:0:
236,129,65453,1,2,3:2:0:0:
183,294,65568,1,2,0:0:0:0:
236,129,65684,2,0,B|238:97|256:83|256:83|232:64|235:25,1,97.7500018644333,2|0,0:0|0:0,0:0:0:0:
132,185,65915,1,2,3:2:0:0:
297,238,66030,1,2,0:0:0:0:
132,185,66145,6,0,B|111:181|92:205|92:205|78:187|46:185,1,97.7500018644333,10|0,0:2|0:0,0:0:0:0:
183,294,66376,2,0,B|203:297|222:273|222:273|236:291|268:293,1,97.7500018644333,2|0,0:0|0:0,0:0:0:0:
371,87,66607,6,0,P|324:133|323:166,1,97.7500018644333,2|0,3:2|0:0,0:0:0:0:
382,202,66838,2,0,P|429:156|430:123,1,97.7500018644333,2|0,0:0|0:0,0:0:0:0:
148,50,67068,6,0,P|147:115|169:139,1,97.7500018644333,10|0,0:2|0:0,0:0:0:0:
238,122,67299,2,0,P|238:56|216:32,1,97.7500018644333,2|0,3:2|0:0,0:0:0:0:
48,210,67530,6,0,B|106:205|92:246|161:236,1,97.7500018644333,2|0,0:0|0:0,0:0:0:0:
280,346,67761,2,0,B|327:354|313:313|371:318,1,97.7500018644333,2|0,3:2|0:0,0:0:0:0:
412,186,67992,6,0,B|419:205|446:217|446:217|485:169|436:119,1,146.62500279665,10|0,0:2|0:0,0:0:0:0:
414,59,68222,2,0,B|377:70|371:114|371:114|364:68|317:49,1,146.62500279665,2|0,0:0|0:0,0:0:0:0:
290,121,68453,6,0,B|186:108|186:108|119:168|119:168|21:153,1,293.2500055933,2|0,3:2|0:0,0:0:0:0:
221,281,68915,6,0,L|233:181,1,97.7500018644333,10|0,0:2|0:0,0:0:0:0:
238,48,69145,1,2,3:2:0:0:
331,188,69261,1,2,0:0:0:0:
238,48,69376,2,0,B|218:39|212:7|212:7|204:41|171:57,1,97.7500018644333,2|0,0:0|0:0,0:0:0:0:
94,186,69607,1,2,3:2:0:0:
187,46,69723,1,2,0:0:0:0:
94,186,69838,6,0,B|114:195|120:227|120:227|128:193|161:177,1,97.7500018644333,10|0,0:2|0:0,0:0:0:0:
287,99,70068,2,0,B|303:93|311:59|311:59|317:91|337:100,1,97.7500018644333,2|0,0:0|0:0,0:0:0:0:
475,302,70299,6,0,B|427:320|427:320|376:296,1,97.7500018644333,2|0,3:2|0:0,0:0:0:0:
382,215,70530,2,0,B|430:197|430:197|481:221,1,97.7500018644333,2|0,0:0|0:0,0:0:0:0:
254,364,70761,6,0,B|207:342|207:342|188:289,1,97.7500018644333,10|0,0:2|0:0,0:0:0:0:
249,236,70992,2,0,B|295:257|295:257|314:310,1,97.7500018644333,2|0,3:2|0:0,0:0:0:0:
126,152,71222,6,0,B|164:154|164:154|185:142|185:142|230:146,1,97.7500018644333,2|0,0:0|0:0,0:0:0:0:
345,25,71453,1,2,3:2:0:0:
287,179,71568,1,2,0:0:0:0:
231,70,71684,2,0,B|196:67|196:67|175:79|175:79|137:77,1,97.7500018644333,10|0,0:2|3:2,0:0:0:0:
5,204,71915,2,0,B|34:218|41:239|41:239|79:218|79:218|72:248|93:274,1,146.62500279665,2|0,0:0|0:0,0:0:0:0:
132,314,72145,6,0,B|187:357|267:268|218:248|269:152|367:196,1,293.2500055933,2|0,3:2|0:0,0:0:0:0:
497,279,72607,6,0,P|435:304|386:278,1,97.7500018644333,10|0,0:2|0:0,0:0:0:0:
422,97,72838,1,2,3:2:0:0:
445,239,72953,1,2,0:0:0:0:
454,35,73068,2,0,P|406:27|365:51,1,97.7500018644333,2|0,0:0|0:0,0:0:0:0:
277,196,73299,1,2,3:2:0:0:
422,97,73415,1,2,0:0:0:0:
277,196,73530,6,0,P|235:220|188:212,1,97.7500018644333,10|0,0:2|0:0,0:0:0:0:
175,130,73761,2,0,P|216:105|263:113,1,97.7500018644333,2|0,0:0|0:0,0:0:0:0:
133,304,73992,5,6,0:0:0:0:
422,97,74338,1,2,0:0:0:0:
399,127,74453,1,2,0:0:0:0:
289,274,74684,1,2,0:0:0:0:
289,66,74915,1,8,0:3:0:0:
416,232,75145,1,8,0:3:0:0:
150,37,75376,6,0,B|131:50|122:79|122:79|112:50|80:28,1,97.7500018644333,4|0,0:0|0:0,0:0:0:0:
97,42,75838,6,0,B|76:12|38:7|38:7|5:69|41:144|74:105|95:185|56:237,1,293.2500055933,6|0,3:2|0:0,0:0:0:0:
16,273,76299,6,0,P|70:293|120:274,1,97.7500018644333,10|0,0:0|0:0,0:0:0:0:
219,158,76530,1,2,3:2:0:0:
175,287,76645,1,2,0:0:0:0:
219,158,76761,2,0,B|244:170|269:152|269:152|242:146|225:129,1,97.7500018644333,2|0,0:0|0:0,0:0:0:0:
313,232,76992,2,0,B|288:244|263:226|263:226|290:220|307:203,1,97.7500018644333,2|0,3:2|0:0,0:0:0:0:
478,83,77222,5,10,0:0:0:0:
410,68,77338,5,2,3:2:0:0:
397,139,77453,5,2,0:0:0:0:
465,154,77569,5,2,0:0:0:0:
410,68,77684,6,0,B|357:46|312:85|312:85|291:45|313:28,1,146.62500279665,2|0,3:2|0:0,0:0:0:0:
244,19,77915,2,0,P|237:74|261:122,1,97.7500018644333,2|2,0:0|0:0,0:0:0:0:
304,256,78145,6,0,B|322:228|322:228|198:260,1,146.62500279665,10|0,0:0|0:0,0:0:0:0:
179,326,78376,2,0,P|168:344|199:328,1,97.7500018644333,2|0,3:2|0:0,0:0:0:0:
120,276,78607,6,0,B|92:238|117:186|137:215|176:170|157:128,1,146.62500279665,2|0,0:0|0:0,0:0:0:0:
51,107,78838,2,0,B|27:120|27:120|101:144,1,97.7500018644333,2|0,3:2|0:0,0:0:0:0:
247,71,79068,6,0,B|292:48|337:84|315:94|356:129|403:119,1,146.62500279665,10|0,0:0|0:0,0:0:0:0:
395,50,79299,2,0,P|413:24|384:47,1,97.7500018644333,2|0,0:0|0:0,0:0:0:0:
376,262,79530,6,0,B|323:288|271:248|271:248|230:293|230:293|176:243|114:279,1,293.2500055933,2|0,3:2|0:0,0:0:0:0:
32,330,79992,6,0,B|55:344|55:344|43:268,1,97.7500018644333,10|0,0:0|0:0,0:0:0:0:
112,132,80222,1,2,3:2:0:0:
0,217,80338,1,2,0:0:0:0:
112,132,80453,2,0,B|136:115|162:135|153:146|187:159|217:144,1,97.7500018644333,2|0,0:0|0:0,0:0:0:0:
282,37,80684,2,0,B|253:52|228:47|228:47|216:82|189:100,1,97.7500018644333,2|0,3:2|0:0,0:0:0:0:
292,213,80915,5,10,0:0:0:0:
356,244,81030,5,2,3:2:0:0:
350,172,81145,5,2,0:0:0:0:
292,213,81261,5,2,0:0:0:0:
418,201,81376,6,0,B|445:189|476:195|476:195|502:154|502:154|472:158|449:143,1,146.62500279665,2|0,3:2|0:0,0:0:0:0:
434,90,81607,2,0,B|454:81|468:51|468:51|472:85|494:101,1,97.7500018644333,2|2,0:0|0:0,0:0:0:0:
350,172,81838,6,0,P|298:143|221:211,1,146.62500279665,10|0,0:0|0:0,0:0:0:0:
206,308,82068,2,0,B|224:325|224:325|243:292|199:254,1,97.7500018644333,2|0,3:2|0:0,0:0:0:0:
16,356,82299,6,0,B|34:350|34:350|54:366|54:366|66:338|105:330,1,97.7500018644333,2|0,0:0|0:0,0:0:0:0:
120,80,82530,2,0,B|108:58|74:52|74:52|39:83|54:129|97:158,1,146.62500279665,2|0,3:2|0:0,0:0:0:0:
107,192,82761,2,0,P|141:224|195:211,1,97.7500018644333,10|0,0:0|3:2,0:0:0:0:
304,171,82992,2,0,B|260:185|224:168|241:147|203:132|166:148,1,146.62500279665,2|0,0:0|0:0,0:0:0:0:
435,68,83222,6,0,B|371:79|348:111|346:187|382:273|452:248|466:182|430:159,1,293.2500055933,2|0,3:2|0:0,0:0:0:0:
366,273,83684,6,0,P|410:290|457:279,1,97.7500018644333,10|0,0:0|0:0,0:0:0:0:
304,171,83915,1,2,3:2:0:0:
342,339,84030,1,2,0:0:0:0:
304,171,84145,2,0,B|275:177|260:197|260:197|246:171|224:161,1,97.7500018644333,2|0,0:0|0:0,0:0:0:0:
47,276,84376,2,0,B|76:270|91:250|91:250|105:276|127:286,1,97.7500018644333,2|0,3:2|0:0,0:0:0:0:
140,40,84607,5,10,0:0:0:0:
62,57,84722,5,2,3:2:0:0:
79,132,84838,5,2,0:0:0:0:
157,115,84953,5,2,0:0:0:0:
62,57,85068,6,0,B|13:58|4:88|4:88|26:178,1,146.62500279665,2|0,3:2|0:0,0:0:0:0:
101,232,85299,2,0,P|123:241|100:219,1,97.7500018644333,2|2,0:0|0:0,0:0:0:0:
81,316,85530,6,0,B|114:348|166:325|150:317|190:286|227:312,1,146.62500279665,10|0,0:0|0:0,0:0:0:0:
324,283,85761,2,0,B|302:296|291:322|291:322|295:296|280:270,1,97.7500018644333,2|0,3:2|0:0,0:0:0:0:
252,164,85992,6,0,B|240:143|212:131|212:131|312:151,1,146.62500279665,2|0,0:0|0:0,0:0:0:0:
387,136,86222,2,0,B|408:126|418:97|418:97|388:98|371:111,1,97.7500018644333,2|0,3:2|0:0,0:0:0:0:
324,283,86453,6,0,B|266:292|266:292|238:323|238:323|184:333,1,146.62500279665,10|0,0:0|0:0,0:0:0:0:
122,304,86684,2,0,P|147:265|213:263,1,97.7500018644333,2|0,0:0|0:0,0:0:0:0:
73,365,86915,6,0,B|10:315|51:214|85:234|134:171|81:84,1,293.2500055933,2|0,3:2|0:0,0:0:0:0:
22,48,87376,6,0,P|67:16|135:37,1,97.7500018644333,10|0,0:0|0:0,0:0:0:0:
194,142,87607,1,2,3:2:0:0:
230,0,87722,1,2,0:0:0:0:
194,142,87838,2,0,B|197:174|181:192|181:192|199:210|202:247,1,97.7500018644333,2|0,0:0|0:0,0:0:0:0:
318,232,88068,2,0,B|315:200|331:182|331:182|313:164|310:127,1,97.7500018644333,2|0,3:2|0:0,0:0:0:0:
221,296,88299,5,10,0:0:0:0:
196,366,88415,1,2,3:2:0:0:
321,367,88530,1,2,0:0:0:0:
296,297,88646,1,2,0:0:0:0:
196,366,88761,5,10,0:0:0:0:
147,318,88876,1,8,0:0:0:0:
159,250,88992,1,10,0:0:0:0:
216,212,89107,1,8,0:0:0:0:
260,159,89222,1,10,0:0:0:0:
257,90,89338,1,8,0:0:0:0:
217,34,89453,1,10,0:0:0:0:
149,27,89568,1,8,0:0:0:0:
93,66,89684,6,0,B|76:63|76:63|70:66|70:66|41:62,4,48.8750009322167,10|8|8|8|10,0:0|0:0|0:0|0:0|0:0,0:0:0:0:
218,278,90145,6,0,B|281:312|344:240|317:222|386:124|490:182,1,293.2500055933,10|0,0:1|0:0,0:0:0:0:
439,251,90607,6,0,P|431:239|423:260,3,46,6|0|0|0,0:0|0:0|0:0|0:0,0:0:0:0:
