osu file format v14

[General]
AudioFilename: audio.mp3
AudioLeadIn: 0
PreviewTime: 60549
Countdown: 0
SampleSet: Soft
StackLeniency: 0.4
Mode: 0
LetterboxInBreaks: 0
WidescreenStoryboard: 1

[Editor]
Bookmarks: 16761,75838
DistanceSpacing: 1.2
BeatDivisor: 4
GridSize: 4
TimelineZoom: 2.1

[Metadata]
Title:Tari Ubur Ubur (Hendro Engkeng Remix) (Cut Ver.)
TitleUnicode:Tari Ubur Ubur (Hendro Engkeng Remix) (Cut Ver.)
Artist:LBDJS
ArtistUnicode:LBDJS
Creator:Aakki
Version:Paket Normal
Source:
Tags:chiga nyantiaz theblank xandit indihome meme mas pras agus indonesian indonesia electronic dance instrumental edm
BeatmapID:2670667
BeatmapSetID:1285848

[Difficulty]
HPDrainRate:3.5
CircleSize:3.5
OverallDifficulty:4
ApproachRate:5
SliderMultiplier:1.3
SliderTickRate:1

[Events]
//Background and Video events
0,0,"bg.jpg",0,0
//Break Periods
//Storyboard Layer 0 (Background)
//Storyboard Layer 1 (Fail)
//Storyboard Layer 2 (Pass)
//Storyboard Layer 3 (Foreground)
//Storyboard Layer 4 (Overlay)
//Storyboard Sound Samples

[TimingPoints]
1992,461.538461538462,4,2,1,50,1,0
9376,-100,4,2,1,60,0,0
13068,-100,4,2,1,70,0,0
16761,-111.111111111111,4,2,1,70,0,0
31530,-111.111111111111,4,2,1,80,0,0
46299,-111.111111111111,4,2,2,70,0,0
59222,-111.111111111111,4,2,1,60,0,0
60607,-111.111111111111,4,2,2,60,0,0
61068,-100,4,2,1,100,0,1
73992,-100,4,2,1,60,0,1
75376,-100,4,2,2,60,0,1
75838,-100,4,2,1,100,0,1
90607,-100,4,2,1,100,0,0

[Colours]
Combo1 : 93,93,93
Combo2 : 252,20,20
Combo3 : 192,192,192

[HitObjects]
256,192,13068,12,10,15838,0:0:0:0:
280,64,16761,6,0,P|328:44|396:80,1,116.999996429443,6|10,3:2|0:3,0:0:0:0:
428,108,17453,2,0,B|460:156|460:156|440:240,1,116.999996429443,2|0,0:0|0:0,0:0:0:0:
436,272,18145,1,10,0:3:0:0:
340,336,18607,2,0,L|216:316,1,116.999996429443,2|8,0:0|0:3,0:0:0:0:
168,308,19299,2,0,P|156:348|160:376,2,58.4999982147217
196,256,19992,1,8,0:3:0:0:
100,188,20453,6,0,L|92:72,1,116.999996429443,2|10,0:0|0:3,0:0:0:0:
72,16,21145,2,0,B|148:12|124:48|212:40,1,116.999996429443,2|0,0:0|0:0,0:0:0:0:
232,4,21838,1,10,0:3:0:0:
324,76,22299,2,0,B|296:116|296:116|320:192,1,116.999996429443,2|8,0:0|0:3,0:0:0:0:
344,232,22992,1,0,0:0:0:0:
344,232,23222,2,0,L|412:216,2,58.4999982147217,0|0|8,0:0|0:0|0:3,0:0:0:0:
324,348,24145,6,0,B|264:344|280:380|212:372,1,116.999996429443,2|10,0:0|0:3,0:0:0:0:
160,344,24838,2,0,P|144:288|176:236,1,116.999996429443,2|0,0:0|0:0,0:0:0:0:
220,208,25530,1,10,0:3:0:0:
324,156,25992,2,0,P|336:112|296:52,1,116.999996429443,2|8,0:0|0:3,0:0:0:0:
248,36,26684,1,0,0:0:0:0:
248,36,26915,2,0,L|176:44,2,58.4999982147217,0|0|8,0:0|0:0|0:3,0:0:0:0:
344,100,27838,6,0,B|340:148|340:148|356:176|356:176|352:220,1,116.999996429443,2|10,0:0|0:3,0:0:0:0:
336,268,28530,2,0,B|280:292|280:292|236:252,1,116.999996429443,2|0,0:0|0:0,0:0:0:0:
196,212,29222,1,10,0:3:0:0:
96,272,29684,2,0,B|96:240|76:220|76:220|96:196|96:156,1,116.999996429443,10|8,0:0|0:0,0:0:0:0:
92,108,30376,1,8,0:0:0:0:
92,108,30607,2,0,B|60:96|60:96|24:108,2,58.4999982147217,8|8|10,0:0|0:0|0:1,0:0:0:0:
204,136,31530,6,0,B|228:148|264:152|264:152|296:132|320:104,1,116.999996429443,6|10,3:2|0:3,0:0:0:0:
348,76,32222,1,2,3:2:0:0:
348,76,32453,2,0,P|384:60|464:100,1,116.999996429443,2|10,0:0|0:3,0:0:0:0:
492,196,33376,2,0,B|428:184|440:228|364:216,1,116.999996429443,2|10,3:2|0:3,0:0:0:0:
340,176,34068,1,2,3:2:0:0:
340,176,34299,2,0,P|300:168|228:232,1,116.999996429443,2|10,0:0|0:3,0:0:0:0:
180,308,35222,6,0,B|228:304|228:304|256:320|256:320|312:316,2,116.999996429443,2|10|2,3:2|0:3|0:0,0:0:0:0:
76,256,36607,2,0,P|60:216|64:192,1,58.4999982147217,10|2,0:3|0:0,0:0:0:0:
84,148,37068,2,0,B|120:160|144:136|144:136|168:152|204:144,1,116.999996429443,2|10,3:2|0:3,0:0:0:0:
244,116,37761,1,2,3:2:0:0:
244,116,37992,2,0,B|296:132|296:132|352:96,1,116.999996429443,2|10,0:0|0:3,0:0:0:0:
440,28,38915,6,0,B|448:64|448:64|436:96|436:96|448:148,2,116.999996429443,2|10|2,3:2|0:3|0:0,0:0:0:0:
332,72,40299,2,0,L|260:56,1,58.4999982147217,10|2,0:3|0:0,0:0:0:0:
224,32,40761,2,0,P|180:20|104:60,1,116.999996429443,2|10,3:2|0:3,0:0:0:0:
36,132,41684,1,2,0:0:0:0:
104,228,42145,2,0,P|92:280|92:296,1,58.4999982147217,10|2,0:3|0:0,0:0:0:0:
112,340,42607,6,0,P|68:328|-4:360,2,116.999996429443,2|10|2,3:2|0:3|0:0,0:0:0:0:
220,380,43992,1,10,0:3:0:0:
312,308,44453,2,0,P|364:284|420:295,2,116.999996429443,10|10|10,0:0|0:0|0:0,0:0:0:0:
264,284,45607,1,10,0:0:0:0:
264,284,45838,2,0,L|256:212,1,58.4999982147217,10|2,0:1|0:0,0:0:0:0:
252,180,46299,6,0,B|184:160|200:200|132:180,2,116.999996429443,10|10|10,0:0|0:0|0:0,0:0:0:0:
336,140,47684,2,0,P|332:92|332:68,1,58.4999982147217,10|2,0:0|0:0,0:0:0:0:
352,40,48145,2,0,P|400:32|476:28,2,116.999996429443,10|8|10,0:0|0:0|0:0,0:0:0:0:
312,24,49299,1,2,0:0:0:0:
312,24,49530,2,0,P|276:20|244:16,1,58.4999982147217,10|10,0:0|0:0,0:0:0:0:
208,12,49992,6,0,B|176:48|176:48|192:128,1,116.999996429443,10|10,0:0|0:0,0:0:0:0:
204,208,50915,2,0,L|272:200,1,58.4999982147217,10|2,0:0|0:0,0:0:0:0:
296,172,51376,2,0,L|354:178,1,58.4999982147217,10|2,0:0|0:0,0:0:0:0:
392,208,51838,2,0,L|376:332,2,116.999996429443,10|10|10,0:0|0:0|0:0,0:0:0:0:
448,132,53222,2,0,P|448:92|432:64,1,58.4999982147217,10|8,0:0|0:0,0:0:0:0:
408,40,53684,6,0,L|288:24,1,116.999996429443,10|10,0:0|0:0,0:0:0:0:
200,36,54607,1,10,0:0:0:0:
136,104,55068,1,10,0:0:0:0:
128,200,55530,6,0,P|108:232|104:256,1,58.4999982147217,10|10,0:0|0:0,0:0:0:0:
68,284,55992,2,0,P|76:320|90:340,1,58.4999982147217,10|10,0:0|0:0,0:0:0:0:
132,352,56453,2,0,P|176:344|208:340,1,58.4999982147217,10|10,0:0|0:0,0:0:0:0:
228,316,56915,2,0,P|256:320|285:325,1,58.4999982147217,10|10,0:0|0:0,0:0:0:0:
256,192,57376,12,10,59222,0:3:0:0:
256,192,60607,5,4,0:0:0:0:
256,192,61068,6,0,B|332:176|312:228|384:224,1,130,6|10,3:2|0:2,0:0:0:0:
455,202,61761,1,2,3:2:0:0:
455,202,61992,2,0,L|463:126,1,65,2|2,0:0|3:2,0:0:0:0:
472,59,62453,1,10,0:2:0:0:
352,4,62915,2,0,L|264:16,1,65,2|2,3:2|0:0,0:0:0:0:
221,54,63376,2,0,L|156:45,1,65,10|2,0:2|3:2,0:0:0:0:
87,8,63838,2,0,P|63:44|79:128,1,130,2|10,0:0|0:2,0:0:0:0:
142,177,64530,1,2,0:0:0:0:
142,177,64761,6,0,B|210:169|190:221|270:221,1,130,2|10,3:2|0:2,0:0:0:0:
318,169,65453,1,2,3:2:0:0:
318,169,65684,2,0,P|358:149|398:157,1,65,2|2,0:0|3:2,0:0:0:0:
446,185,66145,1,10,0:2:0:0:
509,327,66607,2,0,P|497:371|481:387,1,65,2|2,3:2|0:0,0:0:0:0:
427,330,67068,2,0,P|375:318|347:318,1,65,10|2,0:2|3:2,0:0:0:0:
297,359,67530,2,0,P|253:371|181:319,1,130,2|10,0:0|0:2,0:0:0:0:
65,227,68453,6,0,B|105:239|133:207|117:199|149:171|197:175,1,130,2|10,3:2|0:2,0:0:0:0:
250,214,69145,1,2,3:2:0:0:
250,214,69376,2,0,P|266:186|262:150,1,65,2|2,0:0|3:2,0:0:0:0:
241,79,69838,1,10,0:2:0:0:
103,5,70299,2,0,P|51:9|23:25,1,65,2|2,3:2|0:0,0:0:0:0:
76,83,70761,2,0,P|42:122|33:153,1,65,10|2,0:2|3:2,0:0:0:0:
21,210,71222,2,0,B|57:214|77:246|77:246|85:214|137:198,1,130,2|10,0:0|0:2,0:0:0:0:
200,198,71915,1,2,0:0:0:0:
200,198,72145,6,0,B|243:208|243:208|268:238|268:238|324:258,1,130,2|10,3:2|0:2,0:0:0:0:
392,239,72838,1,2,3:2:0:0:
392,239,73068,2,0,B|408:207|408:207|400:171,1,65,2|2,0:0|3:2,0:0:0:0:
337,133,73530,2,0,B|330:104|330:104|346:72,1,65,10|2,0:2|0:0,0:0:0:0:
391,8,73992,5,6,0:0:0:0:
496,285,74915,6,0,B|492:269|500:253|500:253|488:241|484:217,2,65,8|8|4,0:3|0:3|0:0,0:0:0:0:
348,316,75838,6,0,B|261:298|297:356|196:334,1,130,6|10,3:2|0:0,0:0:0:0:
152,316,76530,1,2,3:2:0:0:
152,316,76761,2,0,P|130:272|147:182,1,130,2|10,0:0|0:0,0:0:0:0:
168,124,77453,1,2,0:0:0:0:
168,124,77684,2,0,L|245:115,1,65,2|2,3:2|0:0,0:0:0:0:
280,52,78145,1,10,0:0:0:0:
356,36,78376,1,2,3:2:0:0:
404,96,78607,2,0,B|391:143|391:143|399:169|399:169|382:238,1,130,2|10,0:0|0:0,0:0:0:0:
291,334,79530,6,0,B|321:311|355:324|355:324|391:338|427:309,1,130,2|10,3:2|0:0,0:0:0:0:
483,278,80222,1,2,3:2:0:0:
483,278,80453,2,0,B|491:230|491:230|470:187|470:187|478:135,1,130,2|10,0:0|0:0,0:0:0:0:
456,83,81145,1,2,0:0:0:0:
456,83,81376,2,0,P|434:70|386:74,1,65,2|2,3:2|0:0,0:0:0:0:
326,107,81838,1,10,0:0:0:0:
253,78,82068,1,2,3:2:0:0:
229,4,82299,2,0,P|172:-13|103:47,1,130,2|10,0:0|0:0,0:0:0:0:
17,133,83222,6,0,B|38:124|79:157|79:157|120:124|159:137,1,130,2|10,3:2|0:0,0:0:0:0:
184,192,83915,1,2,3:2:0:0:
184,192,84145,2,0,B|158:269|158:269|184:300|215:306,1,130,2|10,0:0|0:0,0:0:0:0:
276,284,84838,1,2,0:0:0:0:
276,284,85068,2,0,L|345:296,1,65,2|2,3:2|0:0,0:0:0:0:
396,240,85530,1,10,0:0:0:0:
472,256,85761,1,2,3:2:0:0:
492,180,85992,2,0,P|496:123|435:67,1,130,2|10,0:0|0:0,0:0:0:0:
354,164,86915,6,0,B|310:155|293:168|293:168|271:155|271:155|245:172|211:155,1,130,2|10,3:2|0:0,0:0:0:0:
177,116,87607,1,2,3:2:0:0:
177,116,87838,2,0,P|138:94|56:140,1,130,2|10,0:0|0:0,0:0:0:0:
30,194,88530,1,2,0:0:0:0:
30,194,88761,2,0,L|42:267,1,65,10|10,0:0|0:0,0:0:0:0:
60,332,89222,1,10,0:0:0:0:
134,356,89453,1,10,0:0:0:0:
188,300,89684,2,0,P|226:287|321:343,1,130,10|10,0:0|0:1,0:0:0:0:
361,373,90376,1,2,0:0:0:0:
422,324,90607,5,6,0:0:0:0:
