osu file format v14

[General]
AudioFilename: Dreams Of An Absolution [LB vs JS Remix].mp3
AudioLeadIn: 0
PreviewTime: 100927
Countdown: 0
SampleSet: Soft
StackLeniency: 0.4
Mode: 0
LetterboxInBreaks: 0
WidescreenStoryboard: 0

[Editor]
Bookmarks: 139217
DistanceSpacing: 2.1
BeatDivisor: 4
GridSize: 8
TimelineZoom: 1.7

[Metadata]
Title:DREAMS OF AN ABSOLUTION (LB vs JS Remix)
TitleUnicode:DREAMS OF AN ABSOLUTION (LB vs JS Remix)
Artist:LB (Remix Factory) & Jun Senoue
ArtistUnicode:LB (Remix Factory) & Jun Senoue
Creator:Voli
Version:Absolution
Source:SONIC THE HEDGEHOG
Tags:Sonic Silver The Hedgehog 2006 SEGA playstation xbox ost vgm Mariko Nanba vocal traxx several wills bentley jones lee brotherton 瀬上 純
BeatmapID:1270998
BeatmapSetID:335431

[Difficulty]
HPDrainRate:6
CircleSize:4
OverallDifficulty:8
ApproachRate:9
SliderMultiplier:2
SliderTickRate:1

[Events]
//Background and Video events
0,0,"stttt.jpg",0,0
//Break Periods
//Storyboard Layer 0 (Background)
//Storyboard Layer 1 (Fail)
//Storyboard Layer 2 (Pass)
//Storyboard Layer 3 (Foreground)
//Storyboard Sound Samples

[TimingPoints]
270,394.736842105263,4,2,1,20,1,0
270,-133.333333333333,4,2,1,20,0,0
6585,-133.333333333333,4,2,1,30,0,0
12309,-133.333333333333,4,2,1,40,0,0
23954,-200,4,2,1,40,0,0
25533,-80,4,2,1,50,0,0
25730,-100,4,2,1,50,0,0
38165,-80,4,2,1,50,0,0
38363,-100,4,2,1,50,0,0
50302,-100,4,2,1,5,0,0
50401,-100,4,2,1,50,0,0
50500,-100,4,2,1,5,0,0
50598,-100,4,2,1,50,0,0
50697,-100,4,2,1,5,0,0
50796,-100,4,2,1,50,0,0
52375,-80,4,2,1,50,0,0
53362,-100,4,2,1,50,0,0
55533,-80,4,2,1,50,0,0
56519,-100,4,2,1,50,0,0
59283,-80,4,2,1,50,0,0
60072,-100,4,2,1,50,0,0
61848,-80,4,2,1,50,0,0
62046,-80,4,2,1,25,0,0
62144,-80,4,2,1,50,0,0
62342,-100,4,2,1,25,0,0
62441,-100,4,2,1,50,0,0
76059,-80,4,2,1,50,0,0
76355,-100,4,2,1,50,0,0
80796,-80,4,2,1,50,0,0
82177,-100,4,2,1,50,0,0
87112,-80,4,2,1,50,0,0
88888,-100,4,2,1,50,0,0
90269,-80,4,2,1,50,0,0
91454,-100,4,2,1,50,0,0
93427,-80,4,2,1,50,0,0
95204,-100,4,2,1,50,0,0
98165,-133.333333333333,4,2,1,40,0,0
99743,-80,4,2,1,50,0,0
101322,-80,4,2,1,60,0,1
106059,-66.6666666666667,4,2,1,70,0,1
106848,-66.6666666666667,4,2,1,60,0,1
107046,-80,4,2,1,60,0,1
118691,-66.6666666666667,4,2,1,70,0,1
119480,-66.6666666666667,4,2,1,60,0,1
120269,-80,4,2,1,60,0,1
125993,-80,4,2,1,55,0,1
126585,-100,4,2,1,50,0,0
137638,-133.333333333333,4,2,1,45,0,0
137934,-133.333333333333,4,2,1,5,0,0
138033,-133.333333333333,4,2,1,45,0,0
138082,-133.333333333333,4,2,1,5,0,0
138427,-133.333333333333,4,2,1,50,0,0
139612,-170.205128205128,4,2,1,35,0,0
151848,-170.205128205128,4,2,1,45,0,0
161322,-100,4,2,1,50,0,0
162901,-80,4,2,1,60,0,0
163296,-80,4,2,1,50,0,0
164480,-80,4,2,1,60,0,1
169217,-66.6666666666667,4,2,1,70,0,1
170006,-66.6666666666667,4,2,1,60,0,1
170796,-80,4,2,1,60,0,1
181848,-66.6666666666667,4,2,1,70,0,1
182638,-80,4,2,1,60,0,1
189743,-100,4,2,1,50,0,0
192112,-100,4,2,1,55,0,0
192506,-100,4,2,1,60,0,0
192901,-80,4,2,1,60,0,0
193691,-100,4,2,1,50,0,0
195269,-80,4,2,1,60,0,0
196651,-100,4,2,1,50,0,0
200796,-80,4,2,1,50,0,0
201585,-100,4,2,1,50,0,0
214809,-133.333333333333,4,2,1,50,0,0
215500,-133.333333333333,4,2,1,5,0,0
215598,-133.333333333333,4,2,1,50,0,0
216092,-133.333333333333,4,2,1,5,0,0
216191,-133.333333333333,4,2,1,35,0,0
217375,-133.333333333333,4,2,1,15,0,0
218164,-200,4,2,1,40,0,0
230796,-100,4,2,1,55,0,0
241848,-100,4,2,1,35,0,0
242638,-100,4,2,1,45,0,0
243427,-100,4,2,1,60,0,1
246092,-100,4,2,1,5,0,1
246191,-100,4,2,1,60,0,1
246289,-100,4,2,1,5,0,1
246388,-100,4,2,1,60,0,1
249151,-100,4,2,1,60,0,0
249546,-100,4,2,1,60,0,1
256059,-80,4,2,1,60,0,1
257046,-100,4,2,1,60,0,1
258723,-100,4,2,1,5,0,1
258822,-100,4,2,1,60,0,1
258921,-100,4,2,1,5,0,1
259019,-100,4,2,1,60,0,1
259217,-80,4,2,1,60,0,1
260204,-100,4,2,1,60,0,1
261881,-100,4,2,1,5,0,1
261980,-100,4,2,1,60,0,1
262079,-100,4,2,1,5,0,1
262177,-100,4,2,1,60,0,1
262375,-80,4,2,1,60,0,1
264743,-100,4,2,1,60,0,1
265039,-100,4,2,1,5,0,1
265138,-100,4,2,1,60,0,1
265237,-100,4,2,1,5,0,1
265335,-66.6666666666667,4,2,1,60,0,1
266519,-100,4,2,1,60,0,1
268691,-100,4,2,1,50,0,0
271158,-100,4,2,1,5,0,0
271256,-100,4,2,1,60,0,0
274513,-100,4,2,1,5,0,0
274612,-100,4,2,1,60,0,0
274710,-100,4,2,1,5,0,0
274809,-100,4,2,1,60,0,0
281322,-80,4,2,1,50,0,0
281519,-100,4,2,1,50,0,0
287144,-100,4,2,1,5,0,0
287243,-100,4,2,1,60,0,0
287342,-100,4,2,1,5,0,0
287441,-100,4,2,1,60,0,0
293954,-80,4,2,1,50,0,0
294151,-100,4,2,1,50,0,0
297112,-100,4,2,1,50,0,0
298691,-100,4,2,1,45,0,0
299480,-100,4,2,1,35,0,0
301454,-100,4,2,1,25,0,0
302243,-100,4,2,1,15,0,0
302638,-100,4,2,1,10,0,0
303427,-100,4,2,1,5,0,0

[Colours]
Combo1 : 147,215,220
Combo2 : 232,232,232
Combo3 : 11,147,133
Combo4 : 0,255,255
SliderBorder : 0,255,255

[HitObjects]
110,116,270,5,2,0:0:0:0:
180,142,467,1,0,0:0:0:0:
276,101,664,1,2,0:0:0:0:
346,75,862,1,0,0:0:0:0:
470,180,1059,1,2,0:0:0:0:
400,154,1256,1,0,0:0:0:0:
325,229,1454,1,0,0:0:0:0:
255,255,1651,1,2,0:0:0:0:
151,173,1848,6,0,P|137:131|144:80,2,75.0000028610231,0|0|2,0:0|0:0|0:0,0:0:0:0:
148,266,2441,2,0,P|119:306|45:249,1,150.000005722046,2|0,0:0|0:0,0:0:0:0:
20,162,3033,1,2,0:0:0:0:
37,89,3230,1,0,0:0:0:0:
135,38,3427,5,2,0:0:0:0:
209,46,3625,1,0,0:0:0:0:
278,115,3822,1,2,0:0:0:0:
352,107,4019,1,0,0:0:0:0:
191,215,4217,1,2,0:0:0:0:
183,141,4414,1,0,0:0:0:0:
101,206,4612,1,0,0:0:0:0:
93,280,4809,1,2,0:0:0:0:
285,265,5006,6,0,L|371:260,1,75.0000028610231
434,186,5401,1,2,0:0:0:0:
253,349,5598,2,0,L|438:338,1,150.000005722046,2|0,0:0|0:0,0:0:0:0:
472,251,6191,1,2,0:0:0:0:
434,186,6388,1,0,0:0:0:0:
447,52,6585,5,2,0:0:0:0:
304,19,6783,1,0,0:0:0:0:
222,57,6980,2,0,P|183:72|125:64,1,75.0000028610231,2|0,0:0|0:0,0:0:0:0:
215,194,7375,2,0,P|176:177|141:130,1,75.0000028610231,2|0,0:0|0:0,0:0:0:0:
141,308,7769,2,0,P|125:269|133:211,1,75.0000028610231,2|0,0:0|0:0,0:0:0:0:
266,119,8164,6,0,L|351:112,1,75.0000028610231,2|0,0:0|0:0,0:0:0:0:
481,185,8559,2,0,L|396:178,1,75.0000028610231,2|0,0:0|0:0,0:0:0:0:
272,44,8954,2,0,L|265:118,1,75.0000028610231,2|0,0:0|0:0,0:0:0:0:
327,290,9348,2,0,L|320:215,1,75.0000028610231,2|0,0:0|0:0,0:0:0:0:
406,178,9743,5,0,3:0:0:0:
241,292,9941,1,0,0:0:0:0:
145,257,10138,2,0,B|137:294|137:294|146:329,1,75.0000028610231,2|0,0:0|0:0,0:0:0:0:
103,161,10533,2,0,B|71:181|71:181|44:226,1,75.0000028610231,2|0,0:0|0:0,0:0:0:0:
149,62,10927,2,0,B|112:54|112:54|76:63,1,75.0000028610231,2|0,0:0|0:0,0:0:0:0:
270,125,11322,2,0,P|324:117|367:87,1,75.0000028610231,2|0,0:0|0:0,0:0:0:0:
497,184,11717,2,0,P|462:169|425:167,1,75.0000028610231,2|0,0:0|0:0,0:0:0:0:
289,248,12112,1,2,0:0:0:0:
179,63,12309,5,8,3:0:0:0:
168,282,12506,1,4,3:0:0:0:
341,108,12704,1,4,3:0:0:0:
48,27,12901,6,0,P|40:63|47:99,1,75.0000028610231,4|0,0:0|0:0,0:0:0:0:
168,282,13296,2,0,L|179:193,1,75.0000028610231,2|0,0:0|0:0,0:0:0:0:
334,207,13691,2,0,L|344:282,1,75.0000028610231,2|0,0:0|0:0,0:0:0:0:
256,128,14085,2,0,L|256:48,1,75.0000028610231,2|0,0:0|0:0,0:0:0:0:
26,163,14480,6,0,B|58:179|58:179|97:174,1,75.0000028610231,2|0,0:0|0:0,0:0:0:0:
246,285,14875,2,0,B|214:269|214:269|175:274,1,75.0000028610231,2|0,0:0|0:0,0:0:0:0:
71,99,15269,2,0,P|79:51|96:16,1,75.0000028610231,2|0,0:0|0:0,0:0:0:0:
228,101,15664,2,0,P|241:135|246:172,1,75.0000028610231,2|0,0:0|0:0,0:0:0:0:
246,285,16059,5,0,0:0:0:0:
392,184,16256,1,0,0:0:0:0:
401,86,16454,2,0,L|406:-1,1,75.0000028610231,2|0,0:0|0:0,0:0:0:0:
300,81,16848,2,0,L|242:15,1,75.0000028610231,2|0,0:0|0:0,0:0:0:0:
211,124,17243,2,0,L|124:119,1,75.0000028610231,2|0,0:0|0:0,0:0:0:0:
314,275,17638,6,0,P|348:256|372:218,1,75.0000028610231,2|0,0:0|0:0,0:0:0:0:
202,226,18033,2,0,P|168:245|144:283,1,75.0000028610231,2|0,0:0|0:0,0:0:0:0:
72,143,18427,2,0,B|55:60,1,75.0000028610231,2|0,0:0|0:0,0:0:0:0:
235,102,18822,1,2,0:0:0:0:
56,69,19019,1,2,0:0:0:0:
208,26,19217,6,0,P|259:24|311:77,1,112.500004291535,8|0,3:0|0:0,0:0:0:0:
340,124,19612,2,0,L|428:108,1,75.0000028610231,4|0,3:0|0:0,0:0:0:0:
397,276,20006,2,0,P|354:295|270:275,1,112.500004291535,4|0,3:0|0:0,0:0:0:0:
227,254,20401,2,0,P|186:255|145:268,1,75.0000028610231,4|0,3:0|0:0,0:0:0:0:
58,72,20796,6,0,L|175:59,1,112.500004291535,8|0,3:0|0:0,0:0:0:0:
232,96,21191,2,0,L|318:106,1,75.0000028610231,4|0,3:0|0:0,0:0:0:0:
101,285,21585,2,0,B|90:241|90:241|100:215|100:215|91:173,1,112.500004291535,4|0,3:0|0:0,0:0:0:0:
151,132,21980,2,0,B|169:59,1,75.0000028610231,4|0,3:0|0:0,0:0:0:0:
388,77,22375,6,0,P|437:95|389:123,1,112.500004291535,8|0,3:0|0:0,0:0:0:0:
382,194,22769,2,0,L|378:284,1,75.0000028610231,4|0,3:0|0:0,0:0:0:0:
200,199,23164,2,0,L|195:86,1,112.500004291535,4|0,3:0|0:0,0:0:0:0:
150,30,23559,2,0,P|109:28|60:48,1,75.0000028610231,4|0,3:0|0:0,0:0:0:0:
15,237,23954,6,0,L|127:232,1,100,4|0,0:0|0:0,0:0:0:0:
194,277,24546,1,8,3:0:0:0:
287,82,24940,5,8,3:0:0:0:
280,210,25138,1,4,3:0:0:0:
194,277,25335,1,4,3:0:0:0:
359,149,25533,6,0,L|488:141,1,125,4|0,0:0|0:0,0:0:0:0:
287,82,25927,2,0,P|261:134|268:183,1,100,2|0,1:2|0:0,0:0:0:0:
331,286,26322,1,0,3:0:0:0:
147,158,26519,2,0,L|14:171,1,100,2|0,0:0|1:0,0:0:0:0:
0,290,26914,1,0,0:0:0:0:
209,220,27112,6,0,P|232:161|212:105,1,100,0|0,3:0|0:0,0:0:0:0:
354,31,27506,1,0,1:0:0:0:
335,160,27704,1,0,0:0:0:0:
147,158,27901,1,0,3:0:0:0:
329,298,28098,2,0,L|398:288,1,50,8|0,1:0|0:0,0:0:0:0:
459,221,28296,2,0,L|390:211,1,50,8|0,1:0|0:0,0:0:0:0:
335,160,28493,1,8,1:0:0:0:
237,267,28691,6,0,P|232:320|259:371,1,100,0|0,3:0|0:0,0:0:0:0:
335,160,29085,2,0,L|332:47,1,100,2|0,1:2|0:0,0:0:0:0:
453,10,29480,1,0,3:0:0:0:
418,203,29677,2,0,P|376:243|331:251,1,100,2|0,0:0|1:0,0:0:0:0:
210,217,30072,1,0,0:0:0:0:
41,288,30269,5,0,3:0:0:0:
217,224,30467,1,0,3:0:0:0:
217,224,30566,1,0,3:0:0:0:
217,224,30664,2,0,L|206:111,1,100,0|0,1:0|0:0,0:0:0:0:
276,11,31059,1,0,3:0:0:0:
89,42,31256,2,0,L|25:55,1,50,8|0,1:0|0:0,0:0:0:0:
0,146,31454,2,0,L|64:133,1,50,8|0,1:0|0:0,0:0:0:0:
123,211,31651,2,0,L|59:224,1,50,8|0,1:0|0:0,0:0:0:0:
198,301,31848,6,0,P|251:322|327:305,1,100,0|0,3:0|0:0,0:0:0:0:
481,178,32243,2,0,L|376:185,1,100,2|0,1:2|0:0,0:0:0:0:
261,236,32638,1,0,3:0:0:0:
303,15,32835,2,0,L|309:114,1,100,2|0,0:2|1:0,0:0:0:0:
261,236,33230,1,0,0:0:0:0:
85,123,33427,6,0,P|144:116|201:143,1,100,0|0,3:0|0:0,0:0:0:0:
30,196,33822,2,0,P|0:155|0:103,1,100,0|0,1:0|0:0,0:0:0:0:
80,14,34217,1,0,3:0:0:0:
256,48,34414,2,0,L|326:38,1,50,8|0,1:0|0:0,0:0:0:0:
402,119,34612,2,0,L|332:109,1,50,8|0,1:0|0:0,0:0:0:0:
269,151,34809,1,8,1:0:0:0:
426,37,35006,6,0,P|467:63|486:108,1,100,0|0,3:0|0:0,0:0:0:0:
329,318,35401,2,0,L|330:214,1,100,2|0,1:2|0:0,0:0:0:0:
402,119,35796,1,2,0:2:0:0:
229,231,35993,2,0,P|170:233|115:205,1,100,2|2,0:2|1:2,0:0:0:0:
39,127,36388,1,2,3:2:0:0:
209,28,36585,5,2,3:2:0:0:
331,102,36783,1,0,0:0:0:0:
331,102,36881,1,0,0:0:0:0:
331,102,36980,2,0,L|337:202,1,100,2|0,1:2|0:0,0:0:0:0:
436,285,37375,1,0,3:0:0:0:
244,273,37572,5,8,3:0:0:0:
455,111,37769,1,4,3:0:0:0:
249,185,37967,1,4,3:0:0:0:
363,15,38164,6,0,L|478:30,1,100,4|0,0:0|3:0,0:0:0:0:
259,91,38559,1,2,1:2:0:0:
340,149,38756,1,0,0:0:0:0:
333,249,38954,2,0,P|310:306|274:333,1,100,4|2,3:0|3:2,0:0:0:0:
235,241,39348,1,0,1:0:0:0:
117,319,39546,6,0,P|46:325|97:251,1,200,4|0,3:0|3:2,0:0:0:0:
14,163,40138,1,2,1:2:0:0:
114,50,40335,2,0,L|221:27,1,100,4|0,3:0|0:0,0:0:0:0:
326,149,40730,2,0,L|228:127,1,100,4|0,3:0|1:0,0:0:0:0:
131,154,41125,1,2,0:2:0:0:
320,239,41322,6,0,P|376:224|411:182,1,100,4|0,3:0|3:0,0:0:0:0:
450,26,41717,1,2,1:2:0:0:
351,11,41914,1,0,0:0:0:0:
270,70,42112,2,0,L|152:53,1,100,4|2,3:0|3:2,0:0:0:0:
72,39,42506,1,0,1:0:0:0:
83,194,42704,6,0,B|171:232|193:154|286:190,1,200,4|0,3:0|3:2,0:0:0:0:
277,186,43197,1,0,3:0:0:0:
277,187,43296,1,0,1:0:0:0:
335,267,43493,2,0,L|440:275,1,100,4|0,3:0|3:0,0:0:0:0:
237,278,43888,5,8,1:0:0:0:
414,153,44085,1,8,1:0:0:0:
237,278,44283,1,8,1:0:0:0:
299,105,44480,6,0,P|300:52|277:6,1,100,4|0,3:0|0:0,0:0:0:0:
32,54,44875,2,0,L|146:68,1,100,2|0,1:2|0:0,0:0:0:0:
228,190,45269,2,0,L|114:204,1,100,4|2,3:0|3:2,0:0:0:0:
30,221,45664,1,0,1:0:0:0:
160,320,45862,6,0,B|256:344|256:280|368:320,1,200,4|0,3:0|3:0,0:0:0:0:
450,281,46454,1,2,1:2:0:0:
394,151,46651,2,0,L|403:43,1,100,4|0,3:0|0:0,0:0:0:0:
289,79,47046,2,0,L|218:-3,1,100,4|0,3:0|1:0,0:0:0:0:
136,48,47441,1,2,0:0:0:0:
37,177,47638,6,0,P|32:231|57:279,1,100,4|0,3:0|3:0,0:0:0:0:
142,311,48033,1,2,1:2:0:0:
135,211,48230,1,0,0:0:0:0:
242,306,48427,2,0,L|347:299,1,100,4|2,3:0|3:2,0:0:0:0:
430,252,48822,1,0,1:0:0:0:
387,112,49019,6,0,B|306:100|306:100|266:118|266:118|192:107,1,200,4|0,3:0|3:2,0:0:0:0:
192,107,49513,1,4,3:0:0:0:
192,107,49612,1,0,1:2:0:0:
253,28,49809,1,0,3:2:0:0:
322,183,50006,1,4,3:0:0:0:
155,34,50204,6,0,L|89:43,1,50,8|0,1:0|0:0,0:0:0:0:
13,113,50401,2,0,L|79:122,1,50,8|0,1:0|0:0,0:0:0:0:
122,206,50598,2,0,L|56:215,1,50,8|0,1:0|0:0,0:0:0:0:
230,239,50796,6,0,P|241:290|226:342,1,100,4|0,3:0|3:0,0:0:0:0:
183,158,51191,2,0,P|234:147|286:162,1,100,0|0,1:0|0:0,0:0:0:0:
422,309,51585,1,4,3:0:0:0:
436,209,51783,2,0,B|450:58|450:58|403:100,1,200,2|0,1:2|3:2,0:0:0:0:
162,105,52375,6,0,P|253:202|352:158,1,250,4|2,3:0|1:2,0:0:0:0:
265,98,52967,1,0,3:2:0:0:
107,38,53164,2,0,P|77:77|97:164,1,125,4|0,3:0|3:0,0:0:0:0:
218,260,53559,2,0,L|115:287,1,100,2|0,1:2|0:0,0:0:0:0:
303,159,53954,6,0,P|365:139|408:157,1,100,4|0,3:0|3:0,0:0:0:0:
465,220,54348,1,2,1:2:0:0:
431,314,54546,1,0,3:0:0:0:
303,159,54743,2,0,P|293:110|313:65,1,100,4|2,3:0|3:2,0:0:0:0:
184,25,55138,2,0,L|57:37,1,100,0|0,1:0|0:0,0:0:0:0:
18,258,55533,6,0,P|91:250|131:220,1,125,4|0,3:0|0:0,0:0:0:0:
170,154,55829,1,4,3:0:0:0:
170,154,55927,1,0,1:0:0:0:
250,280,56125,2,0,B|384:336|352:228|520:292,1,250,4|0,3:0|0:0,0:0:0:0:
421,141,56717,2,0,P|406:94|414:45,1,100,2|0,1:2|0:0,0:0:0:0:
511,87,57112,5,4,3:0:0:0:
321,25,57309,1,0,3:0:0:0:
212,151,57506,2,0,B|203:202|203:202|229:246,1,100,2|0,1:2|0:0,0:0:0:0:
224,9,57901,1,4,3:0:0:0:
138,93,58098,2,0,B|117:223|117:223|157:295,1,200,2|0,1:2|0:0,0:0:0:0:
318,186,58691,5,4,3:0:0:0:
283,318,58888,1,0,3:0:0:0:
210,154,59085,1,2,1:2:0:0:
414,298,59283,2,0,B|454:175|454:175|435:117,1,187.5,4|0,3:0|0:0,0:0:0:0:
362,84,59677,2,0,P|268:57|356:15,1,250,0|0,1:0|0:0,0:0:0:0:
248,162,60269,6,0,P|209:122|192:72,1,100,4|0,3:0|3:0,0:0:0:0:
111,20,60664,1,2,1:2:0:0:
30,79,60862,1,0,0:0:0:0:
128,250,61059,1,4,3:0:0:0:
227,258,61256,2,0,B|299:265|299:265|343:250|343:250|428:258,1,200,2|0,1:2|0:0,0:0:0:0:
486,87,61848,6,0,B|314:102,1,125,2|0,0:0|0:0,0:0:0:0:
299,44,62144,2,0,B|172:31,1,125,2|0,0:0|0:0,0:0:0:0:
96,71,62441,1,2,0:0:0:0:
79,293,62835,5,0,3:0:0:0:
103,295,62933,1,0,3:0:0:0:
128,298,63032,1,0,3:0:0:0:
153,300,63131,1,0,3:0:0:0:
178,303,63229,1,0,3:0:0:0:
356,241,63427,5,4,3:0:0:0:
312,139,63625,2,0,P|291:88|307:22,1,100,0|0,1:0|3:0,0:0:0:0:
413,196,64019,2,0,B|409:264|409:264|354:256|312:287|312:287|274:227|223:235|193:262|194:304|217:345|263:341|284:313,1,400,0|0,1:0|0:0,0:0:0:0:
312,139,65006,5,2,1:1:0:0:
208,101,65204,2,0,P|145:93|105:105,1,100,0|0,1:0|0:0,0:0:0:0:
2,244,65598,2,0,P|64:251|104:239,1,100,0|0,1:0|0:0,0:0:0:0:
208,101,65993,5,8,1:0:0:0:
178,285,66191,1,8,1:0:0:0:
48,160,66388,1,8,1:0:0:0:
284,211,66585,6,0,B|320:228|360:208|360:208|440:242|440:242|477:199|430:134|430:134|483:104|475:39|407:13,1,400,4|0,3:0|0:0,0:0:0:0:
230,144,67572,2,0,P|201:231|290:297,1,200,0|0,1:0|3:0,0:0:0:0:
133,74,68164,6,0,L|29:86,1,100,4|0,3:0|3:0,0:0:0:0:
89,292,68559,2,0,L|77:188,1,100,0|0,1:0|3:0,0:0:0:0:
133,74,68954,1,4,3:0:0:0:
276,221,69151,5,8,1:0:0:0:
306,23,69348,1,8,1:0:0:0:
276,221,69546,1,8,1:0:0:0:
431,116,69743,5,4,3:0:0:0:
428,140,69841,1,2,0:0:0:0:
425,165,69940,1,2,0:0:0:0:
422,190,70039,1,2,0:0:0:0:
419,215,70138,2,0,B|410:268|410:268|350:302,1,100,0|0,1:0|3:0,0:0:0:0:
151,241,70533,2,0,B|186:210|186:210|239:220,1,100,4|0,3:0|3:0,0:0:0:0:
137,326,70927,2,0,P|88:297|68:249,1,100,0|0,1:0|3:0,0:0:0:0:
111,52,71322,6,0,B|81:78|81:78|109:106|114:134|114:134|152:107|205:111,1,200,4|0,3:0|1:0,0:0:0:0:
404,33,71914,2,0,P|358:50|375:193,1,200,4|4,3:0|3:0,0:0:0:0:
411,116,72506,1,0,1:2:0:0:
261,274,72704,6,0,B|186:280|186:280|126:259|126:259|41:265,1,200,4|4,3:0|3:0,0:0:0:0:
0,109,73296,2,0,B|112:116,1,100,0|0,1:0|3:0,0:0:0:0:
318,26,73691,2,0,B|205:33,1,100,2|2,1:2|3:2,0:0:0:0:
414,163,74085,1,2,1:2:0:0:
484,16,74283,1,2,3:2:0:0:
414,163,74480,5,4,3:0:0:0:
394,192,74579,1,2,0:0:0:0:
362,177,74677,5,2,0:0:0:0:
337,202,74776,1,4,3:0:0:0:
304,189,74875,37,2,1:2:0:0:
275,209,74974,1,2,0:0:0:0:
241,200,75072,5,4,3:0:0:0:
208,214,75171,1,2,0:0:0:0:
174,203,75269,1,4,3:0:0:0:
77,3,75467,21,8,3:0:0:0:
379,79,75664,1,4,3:0:0:0:
162,302,75862,1,4,3:0:0:0:
77,3,76059,6,0,P|48:109|108:180,1,187.5,6|0,1:0|0:0,0:0:0:0:
174,203,76454,2,0,L|161:315,1,100,2|0,1:2|0:0,0:0:0:0:
311,301,76848,1,0,3:0:0:0:
331,180,77046,2,0,L|344:68,1,100,2|0,0:0|1:0,0:0:0:0:
197,25,77441,6,0,B|45:41|45:41|93:73,1,200,4|0,3:0|3:0,0:0:0:0:
156,137,78033,1,0,1:0:0:0:
187,231,78230,2,0,P|184:284|155:324,1,100,4|0,3:0|0:0,0:0:0:0:
314,172,78625,5,8,1:0:0:0:
103,253,78822,1,8,1:0:0:0:
154,41,79019,1,8,1:0:0:0:
292,256,79217,6,0,P|345:253|385:224,1,100,4|0,3:0|3:0,0:0:0:0:
254,34,79612,2,0,L|154:42,1,100,2|0,1:2|0:0,0:0:0:0:
329,108,80006,2,0,P|356:61|352:4,1,100,4|2,3:0|3:2,0:0:0:0:
254,34,80401,1,0,1:0:0:0:
232,131,80598,1,0,3:0:0:0:
452,83,80796,6,0,L|462:265,1,125,4|0,3:0|3:0,0:0:0:0:
462,292,81092,1,0,3:0:0:0:
462,292,81191,1,0,1:0:0:0:
295,329,81388,2,0,P|231:342|160:315,1,125,4|0,3:0|0:0,0:0:0:0:
0,197,81783,2,0,P|64:184|135:211,1,125,4|0,3:0|1:0,0:0:0:0:
175,325,82177,1,0,3:0:0:0:
238,209,82375,6,0,L|229:99,1,100,4|0,3:0|3:0,0:0:0:0:
435,145,82769,2,0,L|335:153,1,100,2|0,1:2|0:0,0:0:0:0:
374,60,83164,1,4,3:0:0:0:
394,238,83362,2,0,P|374:292|334:316,1,100,2|0,3:2|1:0,0:0:0:0:
112,223,83756,6,0,B|169:238|169:238|252:217|252:217|306:232,1,200,4|0,3:0|3:0,0:0:0:0:
251,316,84348,1,0,1:0:0:0:
151,327,84546,2,0,L|54:302,1,100,4|0,3:0|0:0,0:0:0:0:
64,59,84941,5,8,1:0:0:0:
54,302,85138,1,8,1:0:0:0:
64,59,85335,1,8,1:0:0:0:
208,128,85533,6,0,B|256:144|256:144|304:128,1,100,4|0,3:0|3:0,0:0:0:0:
157,32,85927,2,0,P|105:36|58:63,1,100,2|0,1:2|0:0,0:0:0:0:
17,197,86322,2,0,P|61:219|110:223,1,100,4|2,3:0|3:2,0:0:0:0:
208,128,86717,1,0,1:0:0:0:
235,334,86914,1,0,0:0:0:0:
401,186,87112,6,0,P|418:127|400:68,1,125,2|0,0:0|0:0,0:0:0:0:
325,127,87408,2,0,P|266:145|207:127,1,125,2|0,0:0|0:0,0:0:0:0:
170,60,87704,2,0,P|124:101|211:116,1,187.5,2|0,0:0|0:0,0:0:0:0:
265,59,88098,5,8,1:0:0:0:
59,275,88296,1,8,1:0:0:0:
23,32,88493,1,8,1:0:0:0:
255,253,88691,6,0,L|414:266,1,125,4|0,1:0|0:0,0:0:0:0:
171,217,89085,2,0,P|169:279|202:324,1,100,0|0,1:0|0:0,0:0:0:0:
323,154,89480,1,4,3:0:0:0:
229,124,89677,2,0,B|70:133|70:133|109:160,1,200,0|0,1:0|0:0,0:0:0:0:
301,32,90269,6,0,B|128:41,1,125,4|0,3:0|3:0,0:0:0:0:
101,45,90566,1,0,3:0:0:0:
101,45,90664,1,0,1:0:0:0:
322,122,90862,2,0,P|378:83|392:21,1,125,4|2,3:0|0:0,0:0:0:0:
397,233,91256,2,0,P|464:245|517:211,1,125,4|2,3:0|1:2,0:0:0:0:
446,159,91651,1,2,0:0:0:0:
279,218,91848,6,0,L|297:332,1,100,4|0,3:0|0:0,0:0:0:0:
196,168,92243,1,0,1:0:0:0:
328,138,92441,1,0,0:0:0:0:
128,64,92638,1,4,3:0:0:0:
281,37,92835,2,0,B|379:2|387:85|499:26,1,200,0|0,1:0|0:0,0:0:0:0:
412,158,93427,6,0,B|398:220|398:220|419:287,1,125,2|0,1:2|0:0,0:0:0:0:
319,339,93723,2,0,B|337:280|337:280|322:219,1,125,4|0,3:0|0:0,0:0:0:0:
234,184,94019,2,0,P|146:142|240:116,1,250,2|0,1:2|0:0,0:0:0:0:
79,266,94612,5,0,3:0:0:0:
72,214,94710,1,0,3:0:0:0:
66,164,94809,1,0,3:0:0:0:
59,115,94908,1,0,3:0:0:0:
84,71,95006,6,0,P|148:24|232:19,1,125,4|0,1:0|0:0,0:0:0:0:
346,145,95401,2,0,L|371:279,1,100,0|0,1:0|0:0,0:0:0:0:
324,31,95796,1,4,3:0:0:0:
238,114,95993,2,0,L|278:330,1,200,0|0,1:0|0:0,0:0:0:0:
446,181,96585,5,4,3:0:0:0:
238,114,96783,1,4,3:0:0:0:
444,23,96980,1,0,1:0:0:0:
242,26,97177,2,0,P|185:43|150:111,1,100,4|0,3:0|3:0,0:0:0:0:
11,53,97572,5,8,1:0:0:0:
238,114,97769,1,8,1:0:0:0:
17,195,97967,1,8,1:0:0:0:
238,114,98164,6,0,P|357:236|174:142,1,600,4|0,0:0|3:2,0:0:0:0:
248,223,99743,6,0,P|133:255|60:124,1,250,4|0,3:1|3:0,0:0:0:0:
22,21,100335,1,8,3:0:0:0:
162,154,100533,1,8,3:0:0:0:
242,33,100730,1,4,3:0:0:0:
330,126,100927,1,4,3:0:0:0:
382,37,101125,1,4,3:0:0:0:
301,288,101322,6,0,L|152:303,1,125,4|0,3:1|0:0,0:0:0:0:
67,215,101717,1,0,1:0:0:0:
227,100,101914,2,0,L|455:122,1,187.5,4|0,3:0|0:0,0:0:0:0:
413,118,102309,1,4,3:0:0:0:
260,216,102506,1,0,1:0:0:0:
328,0,102704,1,0,0:0:0:0:
348,236,102901,6,0,P|305:294|236:301,1,125,4|0,3:0|0:0,0:0:0:0:
176,264,103197,2,0,L|36:272,1,125,8|0,3:0|0:0,0:0:0:0:
20,197,103493,2,0,L|12:57,1,125,4|0,3:0|0:0,0:0:0:0:
137,32,103888,5,8,1:0:0:0:
260,216,104085,1,8,1:0:0:0:
137,32,104283,1,8,1:0:0:0:
362,162,104480,6,0,P|377:221|352:291,1,125,4|0,3:0|0:0,0:0:0:0:
260,216,104875,1,0,1:0:0:0:
443,132,105072,2,0,P|466:220|433:329,1,187.5,4|0,3:0|0:0,0:0:0:0:
444,312,105467,1,4,3:0:0:0:
260,216,105664,1,0,1:0:0:0:
443,132,105862,1,0,0:0:0:0:
260,39,106059,6,0,B|187:62|187:62|89:52,1,150.000005722046,4|0,3:0|0:0,0:0:0:0:
9,83,106355,2,0,P|-16:24|48:19,1,150.000005722046,8|0,3:0|0:0,0:0:0:0:
77,120,106651,2,0,P|101:197|57:282,1,150.000005722046,4|0,3:0|0:0,0:0:0:0:
215,96,107046,5,8,1:0:0:0:
0,189,107243,1,8,1:0:0:0:
215,96,107441,1,8,1:0:0:0:
454,238,107638,6,0,L|330:245,1,125,4|0,3:0|0:0,0:0:0:0:
404,362,108033,1,0,1:0:0:0:
479,139,108230,2,0,L|292:149,1,187.5,4|0,3:0|0:0,0:0:0:0:
291,149,108625,1,4,3:0:0:0:
443,43,108822,1,0,1:0:0:0:
474,253,109019,1,0,0:0:0:0:
268,240,109217,6,0,P|214:191|216:113,1,125,4|0,3:0|0:0,0:0:0:0:
116,105,109513,2,0,P|152:61|216:45,1,125,8|0,3:0|0:0,0:0:0:0:
296,81,109809,2,0,B|385:83|385:83|414:40,1,125,4|0,3:0|0:0,0:0:0:0:
207,142,110204,5,8,1:0:0:0:
449,192,110401,1,8,1:0:0:0:
207,142,110598,1,8,1:0:0:0:
56,291,110796,6,0,L|38:160,1,125,4|0,3:0|0:0,0:0:0:0:
224,18,111191,2,0,L|206:141,1,125,0|0,1:0|0:0,0:0:0:0:
37,31,111585,1,4,3:0:0:0:
139,223,111783,1,4,3:0:0:0:
224,18,111980,1,2,1:2:0:0:
38,167,112177,1,2,0:2:0:0:
304,103,112375,6,0,P|406:96|485:172,1,187.5,4|0,3:0|3:0,0:0:0:0:
367,213,112769,2,0,L|378:337,1,125,0|0,1:0|0:0,0:0:0:0:
470,145,113164,1,4,3:0:0:0:
277,260,113362,5,8,3:0:0:0:
232,268,113460,1,8,3:0:0:0:
188,260,113559,1,4,3:0:0:0:
151,236,113658,1,4,3:0:0:0:
123,201,113756,1,4,3:0:0:0:
321,36,113954,6,0,L|461:57,1,125,4|0,3:1|0:0,0:0:0:0:
500,159,114348,1,0,1:0:0:0:
313,153,114546,2,0,P|239:168|191:284,1,187.5,4|0,3:0|0:0,0:0:0:0:
188,260,114941,1,4,3:0:0:0:
237,74,115138,1,0,1:0:0:0:
309,270,115335,1,0,0:0:0:0:
128,146,115533,6,0,P|58:129|-2:177,1,125,4|0,3:0|0:0,0:0:0:0:
75,209,115829,2,0,L|61:82,1,125,8|0,3:0|0:0,0:0:0:0:
138,50,116125,2,0,P|208:67|268:19,1,125,4|0,3:0|0:0,0:0:0:0:
75,209,116519,5,8,1:0:0:0:
298,149,116717,1,8,1:0:0:0:
75,209,116914,1,8,1:0:0:0:
318,238,117112,6,0,B|342:297|342:297|325:359,1,125,4|0,3:0|0:0,0:0:0:0:
198,301,117506,1,0,1:0:0:0:
298,149,117704,2,0,B|386:113|386:113|480:138,1,187.5,4|0,3:0|0:0,0:0:0:0:
475,136,118098,1,4,3:0:0:0:
286,43,118296,1,0,1:0:0:0:
393,216,118493,1,0,0:0:0:0:
164,85,118691,6,0,P|71:81|27:130,1,150.000005722046,4|0,3:0|0:0,0:0:0:0:
75,197,118987,2,0,B|85:250|85:250|71:285|71:285|83:345,1,150.000005722046,8|0,3:0|0:0,0:0:0:0:
174,348,119283,2,0,B|348:311,1,150.000005722046,4|0,3:0|0:0,0:0:0:0:
495,100,119677,5,8,1:0:0:0:
449,333,119875,1,8,1:0:0:0:
495,100,120072,1,8,1:0:0:0:
281,187,120269,6,0,P|217:187|161:153,1,125,4|0,3:0|0:0,0:0:0:0:
248,77,120664,1,0,1:0:0:0:
290,281,120862,2,0,P|194:281|109:230,1,187.5,4|0,3:0|0:0,0:0:0:0:
116,236,121256,1,4,3:0:0:0:
248,77,121454,1,0,1:0:0:0:
21,102,121651,1,0,0:0:0:0:
248,77,121848,6,0,L|399:88,1,125,4|0,3:0|0:0,0:0:0:0:
413,173,122144,2,0,L|288:163,1,125,8|0,3:0|0:0,0:0:0:0:
201,146,122441,2,0,P|168:89|182:30,1,125,4|0,3:0|0:0,0:0:0:0:
0,69,122835,5,8,1:0:0:0:
120,259,123033,1,8,1:0:0:0:
248,77,123230,1,8,1:0:0:0:
240,265,123427,6,0,B|174:278|174:278|115:257,1,125,4|0,3:0|0:0,0:0:0:0:
293,197,123822,2,0,P|326:254|312:313,1,125,0|0,1:0|0:0,0:0:0:0:
184,153,124217,1,4,3:0:0:0:
422,170,124414,1,4,3:0:0:0:
231,24,124612,1,2,1:2:0:0:
240,265,124809,1,2,0:2:0:0:
482,237,125006,6,0,P|504:146|421:80,1,187.5,4|0,3:0|3:0,0:0:0:0:
340,110,125401,2,0,B|283:124|263:100|208:112,1,125,0|0,1:0|0:0,0:0:0:0:
422,170,125796,1,4,3:0:0:0:
282,250,125993,1,0,3:0:0:0:
282,250,126092,1,0,3:0:0:0:
282,250,126191,2,0,L|268:325,1,62.5,0|0,3:0|3:0,0:0:0:0:
170,367,126388,2,0,L|158:305,1,62.5,0|0,3:0|3:0,0:0:0:0:
80,192,126585,5,4,3:1:0:0:
44,327,126783,1,0,0:0:0:0:
80,192,126980,2,0,P|81:133|54:95,1,100,0|0,1:0|0:0,0:0:0:0:
168,28,127375,2,0,L|272:40,1,100,4|0,3:0|0:0,0:0:0:0:
352,199,127769,2,0,L|340:99,1,100,0|0,1:0|0:0,0:0:0:0:
263,184,128164,5,4,3:0:0:0:
426,139,128362,1,4,3:0:0:0:
277,261,128559,2,0,P|223:251|191:209,1,100,0|0,1:0|0:0,0:0:0:0:
104,68,128954,2,0,L|90:172,1,100,4|0,3:0|3:0,0:0:0:0:
193,48,129348,1,8,1:0:0:0:
10,90,129546,1,8,1:0:0:0:
193,146,129743,6,0,B|228:128|263:135|263:135|302:106|302:106|337:113|380:94,1,200,4|0,3:0|1:0,0:0:0:0:
448,200,130335,2,0,B|449:226|437:246|437:246|470:284|470:284|448:348|386:323,1,200,4|0,3:0|0:0,0:0:0:0:
236,255,130927,6,0,B|88:244|88:244|127:288,1,200,4|0,3:0|3:0,0:0:0:0:
285,325,131519,2,0,P|318:266|234:170,1,200,0|0,1:0|3:0,0:0:0:0:
236,255,132112,1,4,3:0:0:0:
365,92,132309,5,8,1:0:0:0:
144,134,132506,1,8,1:0:0:0:
365,92,132704,1,8,1:0:0:0:
176,205,132901,6,0,B|104:232|48:181|33:123|51:70|103:30|149:20|245:9|158:147|264:169|298:0|313:108|396:92,1,500,4|0,3:0|0:0,0:0:0:0:
315,183,134085,1,0,1:0:0:0:
144,134,134283,6,0,B|77:146|77:146|97:215|153:289|153:289|111:305|101:344|101:344|66:319|28:329|28:329|30:297|3:267|3:267|28:251|43:216,1,500,2|4,0:0|3:0,0:0:0:0:
207,203,135467,1,8,1:0:0:0:
139,39,135664,2,0,L|40:56,1,100,8|0,1:0|0:0,0:0:0:0:
228,114,136059,5,4,3:0:0:0:
247,119,136158,1,2,0:0:0:0:
266,121,136256,2,0,P|297:120|326:105,1,50,2|2,0:0|0:0,0:0:0:0:
364,48,136454,2,0,L|419:60,1,50,2|2,1:2|0:0,0:0:0:0:
458,127,136651,2,0,L|409:137,1,50,2|2,0:0|0:0,0:0:0:0:
362,207,136848,5,4,3:0:0:0:
271,42,137046,1,0,0:0:0:0:
184,219,137243,1,0,1:0:0:0:
412,58,137441,1,0,0:0:0:0:
160,106,137638,6,0,L|44:115,1,112.500004291535,4|0,3:0|0:0,0:0:0:0:
27,186,138033,2,0,L|3:200,1,18.7500007152558,4|4,3:0|3:0,0:0:0:0:
245,312,138427,5,4,3:0:0:0:
91,295,138625,1,4,3:0:0:0:
234,215,138822,1,0,3:0:0:0:
262,217,138920,1,0,3:0:0:0:
290,219,139019,1,0,3:0:0:0:
318,221,139118,1,0,3:0:0:0:
346,223,139217,21,4,3:2:0:0:
419,99,139612,5,0,0:0:0:0:
367,50,139809,1,0,0:0:0:0:
296,52,140006,1,0,0:0:0:0:
244,101,140203,1,0,0:0:0:0:
244,101,140598,6,0,B|197:93|197:93|174:103|174:103|113:92,1,117.505275643698,2|0,0:0|0:0,0:0:0:0:
60,82,141191,1,0,0:0:0:0:
30,146,141388,2,0,B|8:203|44:203|30:261,2,117.505275643698,2|2|2,0:0|0:0|0:0,0:0:0:0:
182,97,142769,37,0,0:0:0:0:
220,157,142967,1,0,0:0:0:0:
292,157,143164,1,0,0:0:0:0:
330,97,143362,2,0,P|379:69|443:79,1,117.505275643698
398,157,143954,6,0,L|381:293,1,117.505275643698,2|2,0:0|0:0,0:0:0:0:
309,316,144546,2,0,L|294:199,2,117.505275643698,2|2|2,0:0|0:0|0:0,0:0:0:0:
100,248,145927,37,0,0:0:0:0:
45,193,146124,1,0,0:0:0:0:
100,137,146321,1,0,0:0:0:0:
153,193,146519,1,0,0:0:0:0:
153,193,146914,6,0,B|209:211|209:211|268:192,1,117.505275643698,2|0,0:0|0:0,0:0:0:0:
330,167,147506,1,0,0:0:0:0:
395,139,147704,2,0,B|450:121|450:121|506:139,2,117.505275643698,2|2|0,0:0|0:0|0:0,0:0:0:0:
199,116,149085,37,0,0:0:0:0:
164,54,149283,1,0,0:0:0:0:
128,115,149480,1,0,0:0:0:0:
199,116,149677,2,0,L|329:121,1,117.505275643698
395,171,150269,6,0,P|426:193|373:202,1,117.505275643698,2|2,0:0|0:0,0:0:0:0:
292,221,150862,2,0,P|261:243|314:252,2,117.505275643698,2|2|2,0:0|0:0|0:0,0:0:0:0:
375,210,151848,1,4,0:0:0:0:
263,38,152441,37,0,0:0:0:0:
144,32,152638,1,2,0:0:0:0:
77,55,152835,2,0,P|25:84|0:148,1,117.505275643698
113,260,153427,6,0,B|110:214|110:214|95:197|95:197|93:148,1,117.505275643698,2|2,0:0|0:0,0:0:0:0:
178,121,154019,2,0,B|180:166|180:166|195:183|195:183|197:232,2,117.505275643698,2|2|0,0:0|0:0|0:0,0:0:0:0:
259,134,155006,1,0,0:0:0:0:
259,134,155401,37,0,0:0:0:0:
326,114,155598,1,0,0:0:0:0:
443,151,155796,2,0,B|486:170|486:170|517:209,2,88.1289567327738,2|2|0,0:0|0:0|0:0,0:0:0:0:
326,114,156585,6,0,P|316:72|328:24,1,88.1289567327738,2|0,0:0|0:0,0:0:0:0:
205,83,157177,2,0,B|117:115|117:51|29:83,1,176.257913465548,2|0,0:0|0:0,0:0:0:0:
33,81,157967,1,0,0:0:0:0:
74,166,158164,1,0,0:0:0:0:
74,166,158559,38,0,L|69:242,1,58.7526378218492
166,298,158954,1,2,0:0:0:0:
162,227,159151,2,0,L|154:109,1,117.505275643698
204,32,159743,5,0,0:0:0:0:
274,85,159941,1,0,0:0:0:0:
361,79,160138,1,0,0:0:0:0:
431,26,160335,2,0,P|449:97|423:144,1,117.505275643698,2|0,0:0|0:0,0:0:0:0:
431,134,161125,1,0,0:0:0:0:
166,89,161322,6,0,B|244:93|244:93|279:73|279:73|385:80,1,200,4|0,3:1|0:0,0:0:0:0:
302,164,161914,1,8,3:0:0:0:
40,32,162309,1,4,3:0:0:0:
40,32,162704,1,4,3:0:0:0:
256,72,162901,6,0,B|304:192|208:192|256:320,1,250,4|8,3:1|3:0,0:0:0:0:
369,256,163493,1,4,3:0:0:0:
411,112,163691,1,4,3:0:0:0:
411,112,163789,1,4,3:0:0:0:
411,112,163888,1,4,3:0:0:0:
256,72,164085,1,4,3:0:0:0:
347,18,164283,1,4,3:0:0:0:
172,128,164480,22,0,L|41:142,1,125,4|0,3:1|0:0,0:0:0:0:
91,0,164875,1,0,1:0:0:0:
218,219,165072,2,0,L|-16:244,1,187.5,4|0,3:0|0:0,0:0:0:0:
31,238,165467,1,4,3:0:0:0:
172,128,165664,1,0,1:0:0:0:
226,316,165862,1,0,0:0:0:0:
91,150,166059,6,0,P|94:90|191:47,1,125,4|0,3:0|0:0,0:0:0:0:
224,22,166355,2,0,L|354:39,1,125,8|0,3:0|0:0,0:0:0:0:
388,113,166651,2,0,L|371:243,1,125,4|0,3:0|0:0,0:0:0:0:
428,42,167046,5,8,1:0:0:0:
224,158,167243,1,8,1:0:0:0:
428,42,167441,1,8,1:0:0:0:
280,235,167638,6,0,P|209:251|150:219,1,125,4|0,3:0|0:0,0:0:0:0:
109,88,168033,1,0,1:0:0:0:
360,146,168230,2,0,P|391:232|365:321,1,187.5,4|0,3:0|0:0,0:0:0:0:
365,321,168625,1,4,3:0:0:0:
501,165,168822,1,0,1:0:0:0:
280,235,169019,1,0,0:0:0:0:
334,35,169217,6,0,B|436:23|436:23|485:74,1,150.000005722046,4|0,3:0|0:0,0:0:0:0:
398,118,169513,2,0,B|296:130|296:130|263:95,1,150.000005722046,8|0,3:0|0:0,0:0:0:0:
192,39,169809,2,0,B|121:10|121:67|47:39,1,150.000005722046,4|0,3:0|0:0,2:0:0:0:
263,95,170204,5,8,1:0:0:0:
300,307,170401,1,8,1:0:0:0:
263,95,170598,1,8,1:0:0:0:
21,198,170796,6,0,L|49:319,1,125,4|0,3:0|0:0,0:0:0:0:
178,225,171191,1,0,1:0:0:0:
0,106,171388,2,0,L|182:63,1,187.5,4|0,3:0|0:0,0:0:0:0:
182,63,171783,1,4,3:0:0:0:
380,180,171980,1,0,1:0:0:0:
178,225,172177,1,0,0:0:0:0:
364,89,172375,6,0,P|436:110|471:170,1,125,4|0,3:0|0:0,0:0:0:0:
380,180,172671,2,0,P|416:245|398:312,1,125,8|0,3:0|0:0,0:0:0:0:
327,255,172967,2,0,L|164:292,1,125,4|0,3:0|0:0,0:0:0:0:
175,52,173362,5,8,1:0:0:0:
327,255,173559,1,8,1:0:0:0:
175,52,173756,1,8,1:0:0:0:
361,12,173954,6,0,P|440:25|491:88,1,125,4|0,3:0|0:0,0:0:0:0:
405,265,174348,2,0,P|326:252|275:189,1,125,0|0,1:0|0:0,0:0:0:0:
175,52,174743,1,4,3:0:0:0:
132,268,174941,1,4,3:0:0:0:
316,81,175138,1,2,1:2:0:0:
83,147,175335,1,2,0:2:0:0:
293,223,175533,6,0,B|355:235|355:235|410:219|410:219|485:231,1,187.5,4|0,3:0|3:0,0:0:0:0:
265,138,175927,2,0,P|211:181|207:245,1,125,0|0,1:0|0:0,0:0:0:0:
153,52,176322,1,4,3:0:0:0:
293,223,176519,5,8,3:0:0:0:
339,231,176617,1,8,3:0:0:0:
384,226,176716,1,4,3:0:0:0:
429,222,176815,1,4,3:0:0:0:
476,229,176913,1,4,3:0:0:0:
260,17,177112,6,0,B|245:75|245:75|265:138,1,125,4|0,3:1|0:0,0:0:0:0:
388,75,177506,1,0,1:0:0:0:
281,250,177704,2,0,B|194:272|194:272|100:242,1,187.5,4|0,3:0|0:0,0:0:0:0:
100,242,178098,1,4,3:0:0:0:
135,36,178296,1,0,1:0:0:0:
0,115,178493,1,0,0:0:0:0:
175,115,178691,6,0,P|215:70|217:8,1,125,4|0,3:0|0:0,0:0:0:0:
301,4,178987,2,0,P|320:62|372:94,1,125,8|0,3:0|0:0,0:0:0:0:
335,169,179283,2,0,P|274:156|220:185,1,125,4|0,3:0|0:0,0:0:0:0:
489,104,179677,5,8,1:0:0:0:
289,247,179875,1,8,1:0:0:0:
489,104,180072,1,8,1:0:0:0:
217,8,180269,6,0,L|67:33,1,125,4|0,3:0|0:0,0:0:0:0:
6,134,180664,1,0,1:0:0:0:
151,300,180862,2,0,B|175:204|119:220|151:108,1,187.5,4|0,3:0|0:0,0:0:0:0:
148,115,181256,1,4,3:0:0:0:
47,256,181454,1,0,1:0:0:0:
248,168,181651,1,0,0:0:0:0:
352,345,181848,6,0,B|344:222|344:222|319:238,1,150.000005722046,4|0,3:0|0:0,0:0:0:0:
248,168,182144,2,0,B|256:45|256:45|278:59,1,150.000005722046,8|0,3:0|0:0,0:0:0:0:
148,114,182441,2,0,P|76:129|17:86,1,150.000005722046,4|0,3:0|0:0,0:0:0:0:
147,235,182835,5,8,1:0:0:0:
96,41,183033,1,8,1:0:0:0:
147,235,183230,1,8,1:0:0:0:
323,128,183427,6,0,L|472:109,1,125,4|0,3:0|0:0,0:0:0:0:
491,240,183822,1,0,1:0:0:0:
295,221,184019,2,0,P|233:156|265:47,1,187.5,4|0,3:0|0:0,0:0:0:0:
247,65,184414,1,4,3:0:0:0:
31,197,184612,1,0,1:0:0:0:
79,36,184809,1,0,0:0:0:0:
177,230,185006,6,0,L|159:365,1,125,4|0,3:0|0:0,0:0:0:0:
276,268,185302,2,0,B|264:236|236:219|236:219|175:230,1,125,8|0,3:0|0:0,0:0:0:0:
130,154,185598,2,0,L|253:132,1,125,4|0,3:0|0:0,0:0:0:0:
366,69,185993,5,8,1:0:0:0:
169,34,186191,1,8,1:0:0:0:
176,229,186388,1,8,1:0:0:0:
417,145,186585,6,0,P|454:89|446:28,1,125,4|0,3:0|0:0,0:0:0:0:
311,252,186980,2,0,B|372:268|372:268|445:247,1,125,0|0,1:0|0:0,0:0:0:0:
366,69,187375,1,4,3:0:0:0:
311,252,187572,1,4,3:0:0:0:
160,51,187769,1,2,1:2:0:0:
385,171,187967,1,2,0:2:0:0:
150,212,188164,6,0,P|80:183|146:146,1,187.5,4|0,3:0|3:0,0:0:0:0:
284,40,188559,2,0,L|160:50,1,125,0|0,1:0|0:0,0:0:0:0:
7,24,188954,1,4,3:0:0:0:
145,145,189151,5,0,3:0:0:0:
163,179,189249,1,0,3:0:0:0:
170,218,189348,1,0,3:0:0:0:
166,257,189447,1,0,3:0:0:0:
150,293,189545,1,2,3:2:0:0:
386,179,189743,6,0,B|430:164|489:201|485:305|369:370|287:265|287:265|314:215|314:157|282:113|282:113|320:117|359:105|384:64,1,600,6|0,3:1|1:0,0:0:0:0:
296,10,191125,1,0,0:0:0:0:
184,56,191322,22,0,L|48:47,1,100,4|4,3:0|3:0,0:0:0:0:
43,250,191717,1,8,1:0:0:0:
4,147,191914,1,0,0:3:0:0:
234,119,192112,1,8,1:0:0:0:
110,165,192309,1,0,3:0:0:0:
265,382,192506,1,8,1:0:0:0:
209,233,192703,1,0,3:0:0:0:
443,77,192901,38,0,B|442:77|503:54|573:107|537:255|395:218|389:144|389:144|339:125|304:139|304:139|296:92|296:92|228:85|225:158,1,500,6|0,3:1|3:0,0:0:0:0:
209,233,193888,1,0,0:0:0:0:
60,126,194085,2,0,L|45:8,1,100,0|0,1:0|0:0,0:0:0:0:
216,240,194480,5,8,1:0:0:0:
216,240,194579,1,2,0:0:0:0:
216,240,194677,1,2,0:0:0:0:
11,229,194875,1,8,1:0:0:0:
11,229,194973,1,2,0:0:0:0:
11,229,195072,1,2,0:0:0:0:
217,95,195269,6,0,L|335:80,1,62.5,4|2,3:0|0:0,0:0:0:0:
364,131,195467,1,2,0:0:0:0:
254,310,195664,2,0,L|136:325,1,62.5,4|2,3:0|0:0,0:0:0:0:
107,274,195862,1,2,0:0:0:0:
364,131,196059,6,0,P|368:226|304:155,1,250,4|2,3:1|0:0,0:0:0:0:
137,83,196651,2,0,B|126:146|126:146|106:175|106:175|116:209|116:209|106:272,1,200,4|0,3:0|0:0,0:0:0:0:
304,153,197243,2,0,B|288:54,1,100,0|0,1:0|0:0,0:0:0:0:
248,245,197638,5,4,3:0:0:0:
365,257,197835,1,4,3:0:0:0:
224,153,198033,2,0,P|175:184|154:238,1,100,0|0,1:0|0:0,0:0:0:0:
248,245,198427,1,4,3:0:0:0:
93,88,198625,5,8,1:0:0:0:
310,39,198822,2,0,L|422:47,1,100,8|0,1:0|0:0,0:0:0:0:
177,173,199217,6,0,B|143:76|224:24|224:24|217:71|248:130|326:128,1,300,4|0,3:0|0:0,0:0:0:0:
239,239,200006,6,0,P|174:267|87:176,1,200,0|2,1:0|0:0,0:0:0:0:
93,88,200598,1,0,0:0:0:0:
310,39,200796,6,0,L|442:48,1,125,8|0,3:0|3:0,0:0:0:0:
240,238,201191,2,0,L|248:113,1,125,8|0,3:0|3:0,0:0:0:0:
89,38,201585,6,0,L|94:117,1,50,4|0,3:0|3:0,0:0:0:0:
8,186,201783,2,0,L|11:136,1,50,4|0,3:0|3:0,0:0:0:0:
155,166,201980,2,0,L|160:245,1,50,4|0,3:0|3:0,0:0:0:0:
74,314,202178,2,0,L|77:264,1,50,4|0,3:0|3:0,0:0:0:0:
92,87,202375,5,4,3:1:0:0:
250,196,202572,1,0,0:0:0:0:
221,7,202769,2,0,P|204:55|225:123,1,100,0|0,1:0|0:0,0:0:0:0:
250,196,203164,1,4,3:0:0:0:
92,87,203362,1,0,0:0:0:0:
303,63,203559,1,0,1:0:0:0:
277,249,203756,6,0,P|199:256|250:196,1,200,4|0,3:0|3:0,0:0:0:0:
406,99,204348,2,0,B|396:165|396:165|415:208,1,100,0|0,1:0|0:0,0:0:0:0:
487,73,204743,2,0,P|446:25|391:15,1,100,4|0,3:0|3:0,3:0:0:0:
203,68,205138,2,0,L|312:62,1,100,0|0,1:0|0:0,0:0:0:0:
260,177,205533,5,4,3:0:0:0:
406,99,205730,1,0,0:0:0:0:
269,270,205927,2,0,P|249:224|259:176,1,100,0|0,1:0|0:0,0:0:0:0:
406,99,206322,1,4,3:0:0:0:
333,217,206519,1,0,0:0:0:0:
215,61,206717,1,0,1:0:0:0:
64,247,206914,6,0,B|73:213|58:177|58:177|76:136|76:136|52:93|70:40,1,200,4|0,3:0|0:0,0:0:0:0:
258,92,207506,2,0,L|159:80,1,100,0|0,1:0|0:0,0:0:0:0:
340,75,207901,2,0,P|338:124|309:163,1,100,4|0,3:0|3:0,0:0:0:0:
64,247,208296,5,8,1:0:0:0:
316,321,208493,1,8,1:0:0:0:
159,80,208691,6,0,B|78:65|58:165|58:165|156:195|181:119,1,300,4|0,3:0|0:0,0:0:0:0:
369,40,209480,2,0,P|342:104|352:36,1,200,0|0,1:0|3:0,0:0:0:0:
451,151,210072,6,0,P|365:197|272:170,1,200,4|0,3:0|0:0,0:0:0:0:
132,34,210664,2,0,L|130:151,1,100,0|0,1:0|0:0,0:0:0:0:
175,243,211059,1,4,3:0:0:0:
352,71,211256,5,0,3:0:0:0:
175,243,211454,1,8,1:0:0:0:
396,265,211651,1,8,1:0:0:0:
160,61,211848,6,0,B|115:36|73:75|72:118|104:163|159:145|159:145|203:191|165:264,1,300,4|0,3:0|0:0,0:0:0:0:
294,127,212638,2,0,B|352:117|352:117|379:133|379:133|446:122,1,150,4|0,3:0|0:0,0:0:0:0:
438,124,213033,1,0,1:0:0:0:
328,258,213230,1,0,3:0:0:0:
398,46,213427,5,4,3:0:0:0:
294,127,213625,1,0,3:0:0:0:
294,127,213723,1,0,3:0:0:0:
294,127,213822,2,0,L|172:147,1,100,0|0,1:0|0:0,0:0:0:0:
49,38,214217,2,0,P|98:56|23:69,1,200,4|0,3:0|1:0,0:0:0:0:
87,216,214809,6,0,B|185:226|185:226|231:260|231:260|284:230|340:262,1,262.500010013581,4|0,0:1|0:0,0:0:0:0:
285,331,215598,2,0,P|248:246|323:173,1,187.500007152558,2|0,0:0|0:0,0:0:0:0:
256,192,216191,12,0,217967,0:0:0:0:
56,46,218164,6,0,L|116:52,1,50,6|2,2:2|0:0,0:0:0:0:
208,120,218559,2,0,L|148:126,1,50,2|2,0:0|0:0,0:0:0:0:
44,219,218954,2,0,P|42:251|51:280,1,50,2|2,0:0|0:0,0:0:0:0:
155,320,219348,2,0,P|159:295|157:271,1,50,2|2,0:0|0:0,0:0:0:0:
208,120,219743,5,0,0:0:0:0:
268,51,219941,1,0,0:0:0:0:
297,137,220138,1,0,0:0:0:0:
110,113,220335,2,0,B|143:119|143:119|167:111|167:111|207:119,1,100,2|2,0:0|0:0,0:0:0:0:
297,137,220927,1,2,0:0:0:0:
268,51,221124,1,2,0:0:0:0:
177,194,221322,6,0,L|183:263,1,50,2|2,0:0|0:0,0:0:0:0:
275,311,221717,2,0,L|279:261,1,50,2|2,0:0|0:0,0:0:0:0:
368,177,222112,2,0,P|395:171|432:177,1,50,2|2,0:0|0:0,0:0:0:0:
461,63,222506,2,0,P|475:86|480:123,1,50,2|2,0:0|0:0,0:0:0:0:
401,260,222901,5,2,0:0:0:0:
313,248,223099,1,2,0:0:0:0:
368,177,223296,1,2,0:0:0:0:
190,181,223493,2,0,B|78:195,1,100,2|2,0:0|0:0,0:0:0:0:
216,97,224085,1,2,0:0:0:0:
276,162,224283,1,2,0:0:0:0:
394,80,224480,6,0,P|397:47|390:18,1,50,2|2,0:0|0:0,0:0:0:0:
370,160,224875,2,0,P|403:163|432:156,1,50,2|2,0:0|0:0,0:0:0:0:
309,54,225269,2,0,L|245:51,1,50,2|0,0:0|0:0,0:0:0:0:
188,144,225664,2,0,L|252:141,1,50,2|0,0:0|0:0,0:0:0:0:
316,260,226059,5,2,0:0:0:0:
229,232,226256,1,2,0:0:0:0:
249,322,226454,1,2,0:0:0:0:
386,307,226651,2,0,P|399:270|376:203,1,100,2|2,0:0|0:0,0:0:0:0:
320,146,227243,1,2,0:0:0:0:
409,124,227441,1,2,0:0:0:0:
316,260,227638,6,0,L|261:255,1,50,2|2,0:0|0:0,0:0:0:0:
187,299,228033,2,0,L|174:245,1,50,2|2,0:0|0:0,0:0:0:0:
179,136,228427,2,0,L|234:141,1,50,2|2,0:0|0:0,0:0:0:0:
308,97,228822,2,0,L|320:150,1,50,2|2,0:0|0:0,0:0:0:0:
231,50,229217,5,2,0:0:0:0:
312,0,229414,1,2,0:0:0:0:
308,97,229612,1,2,0:0:0:0:
141,109,229809,2,0,B|130:29|130:29|115:51,1,100,2|2,0:0|0:0,0:0:0:0:
80,164,230401,2,0,P|110:185|145:187,1,50,2|2,0:0|0:0,0:0:0:0:
308,97,230796,6,0,L|292:217,1,100,4|0,3:2|0:0,0:0:0:0:
390,188,231092,2,0,L|403:88,1,100,8|0,3:0|0:0,0:0:0:0:
294,196,231388,2,0,P|325:259|409:284,1,150,4|0,3:0|0:0,0:0:0:0:
390,188,231783,1,8,3:0:0:0:
196,246,231980,1,8,3:0:0:0:
308,97,232177,1,4,3:0:0:0:
93,54,232375,6,0,L|24:48,2,50,8|8|8,3:0|3:0|3:0,0:0:0:0:
180,88,232671,2,0,P|235:76|276:26,1,100,8|0,3:0|0:0,0:0:0:0:
354,14,232967,1,4,3:0:0:0:
160,192,233164,1,8,3:0:0:0:
366,171,233362,1,4,3:0:0:0:
124,167,233559,1,8,3:0:0:0:
392,191,233757,1,4,3:0:0:0:
140,254,233954,6,0,P|68:234|38:183,1,100,8|0,3:0|0:0,0:0:0:0:
130,67,234250,2,0,L|123:166,1,100,8|0,3:0|0:0,0:0:0:0:
227,250,234546,2,0,P|271:248|219:220,1,150,4|0,3:0|0:0,0:0:0:0:
140,254,234941,1,8,3:0:0:0:
242,62,235138,1,8,3:0:0:0:
25,77,235335,1,4,3:0:0:0:
339,30,235533,6,0,L|326:155,1,100,8|0,3:0|0:0,0:0:0:0:
447,217,235829,2,0,L|436:117,1,100,8|0,3:0|0:0,0:0:0:0:
265,244,236125,2,0,B|364:269|364:269|454:211,1,200,4|0,3:0|3:0,0:0:0:0:
339,30,236717,1,8,3:0:0:0:
349,184,236914,1,4,3:0:0:0:
156,71,237112,6,0,P|105:69|55:105,1,100,4|0,3:2|0:0,0:0:0:0:
121,248,237408,2,0,L|126:149,1,100,8|0,3:0|0:0,0:0:0:0:
224,182,237704,2,0,B|258:204|258:204|253:313,1,150,4|0,3:0|0:0,0:0:0:0:
350,268,238098,1,8,3:0:0:0:
121,248,238296,1,4,3:0:0:0:
247,73,238493,1,4,3:0:0:0:
413,171,238691,6,0,L|462:177,2,50,8|8|8,3:0|3:0|3:0,0:0:0:0:
333,94,238987,2,0,L|432:81,1,100,4|0,3:0|0:0,0:0:0:0:
486,16,239283,1,4,3:0:0:0:
317,187,239480,1,8,3:0:0:0:
229,42,239677,1,4,3:0:0:0:
305,223,239875,1,8,3:0:0:0:
257,11,240072,1,4,3:0:0:0:
162,192,240269,6,0,L|43:205,1,100,8|0,3:0|0:0,0:0:0:0:
160,104,240566,2,0,P|217:123|246:170,1,100,8|0,3:0|0:0,0:0:0:0:
162,192,240862,1,4,3:0:0:0:
257,11,241059,1,0,3:0:0:0:
26,122,241256,1,8,3:0:0:0:
325,117,241454,1,4,3:0:0:0:
83,13,241651,1,4,3:0:0:0:
256,192,241848,12,0,243033,0:0:0:0:
192,88,243427,5,4,3:1:0:0:
160,216,243625,1,0,0:0:0:0:
298,34,243822,2,0,L|311:133,1,100,0|0,1:0|0:0,0:0:0:0:
192,88,244217,1,4,3:0:0:0:
64,120,244415,1,4,3:0:0:0:
282,219,244612,2,0,P|339:220|381:191,1,100,0|0,1:0|0:0,0:0:0:0:
192,88,245006,5,4,3:0:0:0:
188,277,245204,1,0,3:0:0:0:
188,277,245302,1,0,3:0:0:0:
188,277,245401,1,0,1:0:0:0:
64,120,245598,1,4,3:0:0:0:
320,56,245796,1,8,3:0:0:0:
371,251,245993,2,0,L|378:185,1,50,8|0,1:0|0:0,0:0:0:0:
268,149,246191,2,0,L|273:198,1,50,8|0,1:0|0:0,0:0:0:0:
284,297,246388,1,8,1:0:0:0:
192,88,246585,5,4,3:0:0:0:
375,110,246783,1,0,0:0:0:0:
164,183,246980,2,0,B|123:188|123:188|98:177|98:177|52:183,1,100,0|0,1:0|0:0,0:0:0:0:
192,88,247375,1,4,3:0:0:0:
83,264,247572,1,4,3:0:0:0:
262,138,247769,2,0,P|277:87|257:34,1,100,0|0,1:0|0:0,0:0:0:0:
399,217,248164,5,4,3:0:0:0:
192,88,248362,1,0,3:0:0:0:
192,88,248460,1,0,3:0:0:0:
192,88,248559,1,0,1:0:0:0:
370,46,248756,1,4,3:0:0:0:
334,287,248954,1,8,3:0:0:0:
95,221,249151,5,2,0:0:0:0:
226,193,249348,1,2,0:0:0:0:
184,320,249546,1,2,0:0:0:0:
28,270,249743,6,0,P|12:217|41:158,1,100,4|0,3:0|0:0,0:0:0:0:
169,77,250138,2,0,L|55:64,1,100,0|0,1:0|0:0,0:0:0:0:
325,181,250533,2,0,L|225:192,1,100,4|0,3:0|0:0,0:0:0:0:
401,42,250927,1,0,1:0:0:0:
448,193,251125,1,0,0:0:0:0:
236,92,251322,6,0,L|223:206,1,100,4|0,3:0|3:0,0:0:0:0:
209,288,251618,1,0,3:0:0:0:
209,288,251717,1,0,1:0:0:0:
325,181,251914,1,4,3:0:0:0:
113,132,252112,2,0,P|63:142|24:288,1,200,8|0,3:0|0:0,0:0:0:0:
108,232,252704,1,0,3:0:0:0:
46,47,252901,21,4,3:0:0:0:
231,133,253098,1,0,3:0:0:0:
231,133,253197,1,0,3:0:0:0:
231,133,253296,2,0,L|353:142,1,100,0|0,1:0|0:0,0:0:0:0:
426,10,253691,2,0,L|304:19,1,100,4|0,3:0|3:0,0:0:0:0:
162,73,254085,2,0,P|193:95|186:57,1,100,0|0,1:0|0:0,0:0:0:0:
172,247,254480,5,4,3:0:0:0:
39,146,254677,2,0,L|42:76,1,50,2|0,3:0|3:0,0:0:0:0:
96,17,254875,1,0,1:0:0:0:
279,211,255072,1,4,3:0:0:0:
65,283,255269,1,8,3:0:0:0:
268,298,255467,21,8,3:0:0:0:
316,290,255565,1,8,3:0:0:0:
353,258,255664,1,4,3:0:0:0:
367,210,255763,1,4,3:0:0:0:
352,163,255861,1,4,3:0:0:0:
36,81,256059,38,0,L|52:206,1,125,4|0,1:0|0:0,0:0:0:0:
143,15,256454,1,0,1:0:0:0:
150,255,256651,2,0,B|279:303|273:223|397:263,1,250,4|4,3:0|3:0,0:0:0:0:
219,56,257243,2,0,P|206:104|221:150,1,100,0|0,1:0|0:0,0:0:0:0:
394,262,257638,5,4,3:0:0:0:
299,108,257835,1,0,3:0:0:0:
299,108,257934,1,0,3:0:0:0:
299,108,258033,1,0,1:0:0:0:
479,102,258230,1,4,3:0:0:0:
281,222,258427,1,8,3:0:0:0:
178,75,258625,6,0,L|182:9,1,50,8|0,1:0|0:0,0:0:0:0:
72,57,258822,2,0,L|75:106,1,50,8|0,1:0|0:0,0:0:0:0:
110,201,259019,1,8,1:0:0:0:
356,301,259217,6,0,P|385:246|381:185,1,125,4|0,3:0|0:0,0:0:0:0:
294,23,259612,1,0,1:0:0:0:
281,222,259809,2,0,B|175:233|175:233|152:273|152:273|12:288,1,250,4|4,3:0|3:0,0:0:0:0:
231,124,260401,2,0,L|330:134,1,100,0|0,1:0|0:0,0:0:0:0:
481,34,260796,5,4,3:0:0:0:
389,224,260993,1,0,3:0:0:0:
389,224,261092,1,0,3:0:0:0:
389,224,261191,1,0,1:0:0:0:
354,0,261388,1,4,3:0:0:0:
508,174,261585,1,8,3:0:0:0:
286,78,261783,6,0,L|213:87,1,50,8|0,1:0|0:0,0:0:0:0:
174,171,261980,2,0,L|247:180,1,50,8|0,1:0|0:0,0:0:0:0:
303,241,262177,1,8,1:0:0:0:
120,237,262375,6,0,P|91:178|116:112,1,125,4|0,3:0|0:0,0:0:0:0:
200,7,262769,1,0,1:0:0:0:
292,173,262967,2,0,B|231:192|231:192|166:168,1,125,4|0,3:0|0:0,0:0:0:0:
234,331,263362,1,4,3:0:0:0:
410,175,263559,2,0,B|353:154|353:154|292:173,1,125,0|0,1:0|0:0,0:0:0:0:
120,237,263954,21,4,3:0:0:0:
192,46,264151,1,0,3:0:0:0:
192,46,264250,1,0,3:0:0:0:
192,46,264348,1,0,1:0:0:0:
249,286,264546,1,4,3:0:0:0:
33,99,264743,1,8,3:0:0:0:
182,209,264941,6,0,L|232:202,1,50,8|0,1:0|0:0,0:0:0:0:
168,118,265138,2,0,L|118:112,1,50,8|0,1:0|0:0,0:0:0:0:
362,65,265335,22,0,B|407:-10|407:-10|438:70|438:70|526:88|526:88|453:151|453:151|463:241|463:241|389:184|389:184|306:226|306:226|334:141|334:141|272:66|272:66|362:65,1,900.000034332277,10|4,1:0|3:0,0:0:0:0:
301,314,266717,2,0,P|241:286|223:250,1,100,0|0,1:0|0:0,0:0:0:0:
199,52,267112,5,4,3:0:0:0:
95,182,267309,1,0,3:0:0:0:
95,182,267408,1,0,3:0:0:0:
95,182,267506,1,0,1:0:0:0:
56,51,267704,1,0,3:0:0:0:
199,52,267901,1,0,3:0:0:0:
312,151,268098,6,0,L|380:144,1,50,8|0,3:0|0:0,0:0:0:0:
454,84,268296,1,8,3:0:0:0:
425,303,268493,1,4,3:0:0:0:
325,1,268691,5,4,1:0:0:0:
312,151,268888,1,0,0:0:0:0:
454,84,269085,1,0,1:0:0:0:
231,113,269283,2,0,P|243:207|334:235,1,200,4|4,3:0|3:0,0:0:0:0:
181,37,269875,2,0,B|122:45|122:45|89:68,1,100,0|0,1:0|0:0,0:0:0:0:
312,151,270269,5,4,3:0:0:0:
147,146,270467,2,0,B|114:121|114:121|88:68,1,100,0|0,1:0|0:0,0:0:0:0:
312,151,270862,2,0,B|347:222|275:222|312:294,1,150,4|0,3:0|2:0,0:0:0:0:
311,293,271256,1,8,1:0:0:0:
229,90,271454,37,8,1:0:0:0:
424,187,271651,1,8,1:0:0:0:
284,31,271848,6,0,P|156:52|211:169,1,300,4|0,3:0|0:0,0:0:0:0:
424,187,272638,1,4,3:0:0:0:
304,248,272835,1,0,3:0:0:0:
362,71,273033,1,0,1:0:0:0:
424,187,273230,1,0,3:0:0:0:
201,319,273427,6,0,B|199:297|199:297|192:281|180:271|180:271|184:255|194:243|194:243|187:227|175:217|175:217|179:201|189:189|189:189|182:173|171:163|171:163|175:147|184:135|184:135|178:119|166:109|166:109|166:91|180:81|180:81|178:60,1,300,4|4,3:0|3:0,0:0:0:0:
75,178,274217,1,8,3:0:0:0:
269,161,274414,6,0,L|335:153,1,50,8|0,1:0|0:0,0:0:0:0:
421,77,274612,2,0,L|355:69,1,50,8|0,1:0|0:0,0:0:0:0:
277,60,274809,1,8,1:0:0:0:
278,237,275006,6,0,P|201:203|207:286,1,200,4|0,3:0|1:0,0:0:0:0:
327,360,275598,1,0,0:0:0:0:
431,182,275796,2,0,L|437:83,1,100,4|0,3:0|3:0,0:0:0:0:
361,255,276191,2,0,P|415:281|481:271,1,100,0|0,1:0|3:0,0:0:0:0:
314,123,276585,5,4,3:0:0:0:
247,278,276783,1,0,3:0:0:0:
168,105,276980,2,0,L|174:6,1,100,0|0,1:0|0:0,0:0:0:0:
256,192,277375,1,4,3:0:0:0:
81,199,277573,1,0,3:0:0:0:
314,123,277769,2,0,P|342:163|343:212,1,100,0|0,1:0|0:0,0:0:0:0:
167,212,278164,6,0,P|168:163|197:123,1,100,4|0,3:0|0:0,0:0:0:0:
330,22,278559,2,0,L|453:29,1,100,0|0,1:0|0:0,0:0:0:0:
225,19,278954,1,4,3:0:0:0:
256,192,279151,1,4,3:0:0:0:
72,135,279348,2,0,L|77:35,1,100,0|0,1:0|0:0,0:0:0:0:
293,98,279743,5,4,3:0:0:0:
138,238,279941,1,0,3:0:0:0:
138,238,280039,1,0,3:0:0:0:
138,238,280138,1,0,1:0:0:0:
225,19,280335,1,4,3:0:0:0:
310,252,280533,1,8,3:0:0:0:
143,51,280730,22,0,L|66:59,1,50,4|4,3:0|3:0,0:0:0:0:
211,112,280927,2,0,P|233:60|215:4,1,100,0|0,1:0|0:0,0:0:0:0:
434,239,281322,38,0,L|310:252,1,125,4|0,1:0|3:0,0:0:0:0:
211,112,281717,1,0,1:0:0:0:
398,119,281914,1,0,3:0:0:0:
230,314,282112,2,0,P|210:269|215:220,1,100,4|0,3:0|3:0,0:0:0:0:
375,147,282506,1,0,1:0:0:0:
228,124,282703,1,0,3:0:0:0:
473,23,282901,5,4,3:0:0:0:
258,21,283098,1,0,3:0:0:0:
258,21,283197,1,0,3:0:0:0:
258,21,283296,2,0,L|154:37,1,100,0|0,1:0|0:0,0:0:0:0:
375,147,283691,1,4,3:0:0:0:
228,124,283888,6,0,L|178:131,1,50,4|0,3:0|0:0,0:0:0:0:
120,224,284085,2,0,L|169:216,1,50,2|0,3:0|3:0,0:0:0:0:
53,156,284283,1,0,3:0:0:0:
300,184,284480,6,0,P|320:129|293:62,1,100,4|0,3:0|3:0,0:0:0:0:
258,284,284875,2,0,L|356:299,1,100,0|0,1:0|0:0,0:0:0:0:
228,124,285269,1,4,3:0:0:0:
433,214,285467,1,4,3:0:0:0:
280,43,285664,1,0,1:0:0:0:
457,66,285862,1,0,3:0:0:0:
267,204,286059,6,0,P|209:211|151:163,1,100,4|0,3:0|0:0,0:0:0:0:
161,4,286454,1,0,1:0:0:0:
83,163,286651,2,0,P|78:212|101:255,1,100,4|0,3:0|0:0,0:0:0:0:
279,299,287046,6,0,L|355:289,1,50,8|0,1:0|0:0,0:0:0:0:
340,201,287243,2,0,L|389:194,1,50,8|0,1:0|0:0,0:0:0:0:
434,110,287441,1,8,1:0:0:0:
304,30,287638,5,4,3:0:0:0:
280,33,287736,1,2,0:0:0:0:
256,36,287835,1,0,0:0:0:0:
232,39,287934,1,2,0:0:0:0:
208,42,288032,1,0,1:0:0:0:
63,108,288230,6,0,L|56:175,1,50,4|2,3:0|0:0,0:0:0:0:
166,195,288427,2,0,L|160:145,1,50,4|2,3:0|0:0,0:0:0:0:
98,249,288625,1,4,3:0:0:0:
115,266,288723,1,2,0:0:0:0:
136,278,288822,1,0,1:0:0:0:
160,283,288921,1,2,0:0:0:0:
184,281,289019,1,4,3:0:0:0:
207,272,289118,1,2,0:0:0:0:
227,257,289217,5,4,3:0:0:0:
63,108,289414,1,0,3:0:0:0:
292,56,289612,2,0,L|392:62,1,100,0|0,1:0|0:0,0:0:0:0:
379,284,290006,1,4,3:0:0:0:
166,195,290204,1,0,3:0:0:0:
166,195,290302,1,0,3:0:0:0:
166,195,290401,1,0,1:0:0:0:
292,56,290598,1,0,3:0:0:0:
58,110,290796,5,4,3:0:0:0:
46,131,290894,1,2,0:0:0:0:
50,155,290993,1,0,3:0:0:0:
43,179,291091,1,2,0:0:0:0:
45,203,291191,5,0,1:0:0:0:
42,228,291289,1,2,0:0:0:0:
54,249,291388,1,0,3:0:0:0:
56,274,291486,1,2,0:0:0:0:
89,297,291585,21,4,3:0:0:0:
111,308,291683,1,2,0:0:0:0:
136,306,291782,1,4,3:0:0:0:
157,293,291881,1,2,0:0:0:0:
168,271,291979,5,0,1:0:0:0:
167,246,292078,1,2,0:0:0:0:
154,225,292177,1,4,3:0:0:0:
133,213,292275,1,2,0:0:0:0:
108,213,292375,6,0,L|-1:237,1,100,4|0,3:0|0:0,0:0:0:0:
261,119,292769,1,0,1:0:0:0:
22,88,292967,1,4,3:0:0:0:
157,293,293164,1,8,3:0:0:0:
146,40,293362,1,0,3:0:0:0:
146,40,293460,1,0,3:0:0:0:
146,40,293559,1,0,1:0:0:0:
10,234,293756,1,0,1:0:0:0:
333,183,293954,6,0,P|353:116|333:61,1,125,4|0,1:0|3:0,0:0:0:0:
463,185,294348,1,4,3:0:0:0:
463,185,294546,1,4,3:0:0:0:
254,121,294743,2,0,L|136:133,1,100,0|0,1:0|0:0,0:0:0:0:
202,321,295138,2,0,L|212:221,1,100,4|0,3:0|0:0,0:0:0:0:
359,45,295533,6,0,L|369:144,1,100,4|0,3:0|0:0,0:0:0:0:
156,13,295927,2,0,L|274:25,1,100,0|0,1:0|3:0,0:0:0:0:
83,113,296322,1,4,3:0:0:0:
50,15,296519,1,0,3:0:0:0:
50,15,296618,1,0,3:0:0:0:
50,15,296717,1,0,1:0:0:0:
83,113,296914,1,0,3:0:0:0:
298,25,297112,6,0,B|308:138|308:138|383:132|383:132|372:18|372:18|448:12|448:12|458:125|458:125|495:156|498:198|498:198|316:212|316:212|322:286|322:286|500:273|500:273|506:347|506:347|395:355,1,1200,4|2,3:0|0:0,0:0:0:0:
256,344,299875,1,0,0:0:0:0:
117,355,300269,6,0,B|6:347|6:347|12:273|12:273|190:286|190:286|196:212|196:212|14:198|14:198|17:156|54:125|54:125|64:12|64:12|140:18|140:18|129:132|129:132|204:138|204:138|214:25,1,1200,4|2,3:0|0:0,0:0:0:0:
353,98,303033,1,0,0:0:0:0:
256,192,303427,12,0,306585,2:0:0:0:
