osu file format v14

[General]
AudioFilename: audio.mp3
AudioLeadIn: 0
PreviewTime: 8168
Countdown: 0
SampleSet: Soft
StackLeniency: 0.6
Mode: 0
LetterboxInBreaks: 0
WidescreenStoryboard: 1

[Editor]
Bookmarks: 784,8691,23575,36598,38459,45901,53343,59622,60784
DistanceSpacing: 1.3
BeatDivisor: 4
GridSize: 4
TimelineZoom: 2.699999

[Metadata]
Title:HEKIREKI TV SIZE
TitleUnicode:HEKIREKI TV SIZE
Artist:LAST ALLIANCE
ArtistUnicode:LAST ALLIANCE
Creator:pkhg
Version:CRIS' NORMAL
Source:はじめの一歩 New Challenger
Tags:hajime no ippo opening iyiyo hazu- happyrocket88 cris- ラスト・アライアンス
BeatmapID:1522625
BeatmapSetID:591331

[Difficulty]
HPDrainRate:4
CircleSize:3
OverallDifficulty:4
ApproachRate:5
SliderMultiplier:0.7
SliderTickRate:1

[Events]
//Background and Video events
0,0,"hajime-no-ippo-2551135-1920x1200.jpg",0,0
Video,460,"ippo.avi"
//Break Periods
//Storyboard Layer 0 (Background)
//Storyboard Layer 1 (Fail)
//Storyboard Layer 2 (Pass)
//Storyboard Layer 3 (Foreground)
//Storyboard Sound Samples

[TimingPoints]
1250,232.558139534884,4,2,1,70,1,0
8691,-100,4,2,1,50,0,0
23575,-100,4,2,1,60,0,0
38459,-100,4,2,1,50,0,0
45901,-100,4,2,1,70,0,0
53343,-100,4,2,1,60,0,1
59854,-100,4,2,1,65,0,0
60784,-100,4,2,1,70,0,1
66133,-100,4,2,1,70,0,0
66191,-100,4,2,1,5,0,0

[Colours]
Combo1 : 210,210,210
Combo2 : 205,179,122

[HitObjects]
272,184,784,5,8,0:1:0:0:
272,184,1133,6,0,L|168:192,1,105,8|8,0:0|0:0,0:0:0:0:
100,128,1715,1,8,0:0:0:0:
36,192,1947,2,0,P|12:128|36:64,1,140,10|10,0:1|0:1,0:0:0:0:
100,128,2645,1,8,0:0:0:0:
168,68,2877,6,0,B|204:56|228:68|228:68|244:60|244:60|268:72|304:60,1,140,10|10,0:1|0:1,0:0:0:0:
376,4,3575,1,8,0:0:0:0:
448,60,3808,2,0,B|464:200,1,140,10|10,0:1|0:1,0:0:0:0:
476,288,4505,1,8,0:0:0:0:
408,348,4738,6,0,B|340:324|340:376|272:348,1,140,10|10,0:1|0:1,0:0:0:0:
204,288,5436,1,8,0:0:0:0:
136,348,5668,2,0,B|112:284|112:284|136:216,1,140,10|10,0:1|0:1,0:0:0:0:
204,152,6366,1,8,0:0:0:0:
272,216,6598,6,0,P|296:152|272:88,1,140,10|10,0:1|0:1,0:0:0:0:
204,152,7296,1,8,0:0:0:0:
132,96,7529,2,0,P|68:72|4:96,1,140,10|8,0:1|0:0,0:0:0:0:
68,164,8226,2,0,P|76:197|69:231,1,70,8|8,0:1|0:0,0:0:0:0:
4,296,8691,6,0,P|68:320|132:296,1,140,12|8,0:0|0:0,0:0:0:0:
216,264,9389,2,0,P|248:256|283:264,1,70,8|0,0:1|0:0,0:0:0:0:
368,296,9854,2,0,B|384:156,1,140,8|8,0:1|0:1,0:0:0:0:
396,68,10552,6,0,B|448:52|448:52|496:68,2,105,8|0|8,0:0|0:0|0:1,0:0:0:0:
272,128,11598,2,0,P|224:144|172:128,1,105,8|8,0:0|0:0,0:0:0:0:
100,72,12180,1,8,0:1:0:0:
28,128,12412,6,0,B|36:268,1,140,0|8,0:0|0:0,0:0:0:0:
44,360,13110,1,8,0:1:0:0:
120,308,13343,2,0,P|156:300|188:308,1,70,0|8,0:0|0:1,0:0:0:0:
264,360,13808,2,0,P|300:368|332:360,1,70,8|8,0:0|0:1,0:0:0:0:
408,308,14273,6,0,B|456:324|456:324|508:308,2,105,8|0|8,0:0|0:0|0:1,0:0:0:0:
308,212,15319,2,0,P|292:164|308:112,1,105,8|8,0:0|0:0,0:0:0:0:
384,164,15901,1,8,0:1:0:0:
308,212,16133,6,0,B|240:236|240:184|172:212,1,140
96,264,16831,1,8,0:1:0:0:
20,212,17063,2,0,B|-8:148|-8:148|20:84,1,140,0|8,0:0|0:0,0:0:0:0:
96,32,17761,1,8,0:1:0:0:
172,84,17994,6,0,P|220:100|272:84,2,105,8|0|8,0:0|0:0|0:1,0:0:0:0:
172,220,19040,2,0,P|220:204|272:220,1,105,8|8,0:0|0:0,0:0:0:0:
220,296,19622,1,8,0:1:0:0:
156,360,19854,6,0,P|220:384|284:360,1,140,0|8,0:0|0:0,0:0:0:0:
352,296,20552,2,0,B|376:232|376:232|352:164,1,140,8|8,0:1|0:1,0:0:0:0:
279,107,21250,2,0,P|246:99|212:107,1,70,8|8,0:0|0:1,0:0:0:0:
140,164,21715,6,0,B|88:148|88:180|36:164,2,105,8|0|8,0:0|0:0|0:0,0:0:0:0:
212,220,22645,2,0,P|248:228|280:220,1,70,8|8,0:1|0:0,0:0:0:0:
352,164,23110,2,0,P|384:156|420:164,1,70,8|12,0:0|0:1,0:0:0:0:
491,219,23575,6,0,P|515:284|491:348,1,140,0|8,0:0|0:0,0:0:0:0:
424,284,24273,1,10,0:1:0:0:
360,348,24505,2,0,B|324:356|324:356|292:348,1,70,0|10,0:0|0:1,0:0:0:0:
228,284,24970,2,0,B|192:276|192:276|160:284,1,70,8|10,0:0|0:1,0:0:0:0:
72,308,25436,6,0,L|64:238,1,70,8|10,0:0|0:1,0:0:0:0:
16,160,25901,2,0,L|24:88,1,70,8|10,0:0|0:1,0:0:0:0:
96,32,26366,1,0,0:0:0:0:
168,88,26598,2,0,P|200:96|236:88,1,70,10|8,0:1|0:0,0:0:0:0:
308,32,27063,1,10,0:1:0:0:
380,88,27296,6,0,B|404:156|352:156|380:224,1,140,0|8,0:0|0:0,0:0:0:0:
444,291,27994,2,0,P|379:316|315:291,1,140,10|10,0:1|0:1,0:0:0:0:
244,236,28691,1,8,0:0:0:0:
172,292,28924,1,10,0:1:0:0:
100,236,29156,6,0,P|64:244|32:236,1,70,8|8,0:0|0:1,0:0:0:0:
32,144,29622,2,0,P|68:136|100:144,1,70,8|8,0:0|0:1,0:0:0:0:
180,188,30087,2,0,B|248:160|248:212|316:188,1,140,0|8,0:0|0:0,0:0:0:0:
380,124,30784,1,10,0:1:0:0:
444,188,31017,6,0,P|468:124|444:60,1,140,0|8,0:0|0:0,0:0:0:0:
380,124,31715,1,10,0:1:0:0:
316,60,31947,2,0,B|248:40|248:40|180:60,1,140,0|8,0:0|0:0,0:0:0:0:
116,124,32645,1,10,0:1:0:0:
180,188,32877,6,0,L|188:260,1,70,8|10,0:0|0:1,0:0:0:0:
268,304,33343,2,0,L|276:232,1,70,8|10,0:0|0:1,0:0:0:0:
356,188,33808,2,0,L|364:260,1,70,0|10,0:0|0:1,0:0:0:0:
444,304,34273,2,0,L|452:232,1,70,8|10,0:0|0:1,0:0:0:0:
464,144,34738,6,0,P|488:80|464:16,1,140,0|8,0:0|0:0,0:0:0:0:
396,80,35436,1,10,0:1:0:0:
328,16,35668,2,0,L|256:24,1,70,0|10,0:0|0:1,0:0:0:0:
184,80,36133,2,0,L|112:72,1,70,8|10,0:0|0:1,0:0:0:0:
32,116,36598,6,0,B|16:64|16:64|32:16,2,105,8|10|10,0:0|0:0|0:1,0:0:0:0:
60,204,37529,2,0,P|93:196|127:204,1,70,0|8,0:0|0:1,0:0:0:0:
204,253,37994,2,0,P|236:261|272:253,1,70,8|8,0:0|0:0,0:0:0:0:
348,204,38459,6,0,P|324:140|348:76,1,140,12|8,0:0|0:1,0:0:0:0:
168,76,39389,2,0,P|192:140|168:204,1,140,8|8,0:0|0:1,0:0:0:0:
100,140,40087,1,0,0:0:0:0:
36,204,40319,6,0,B|20:252|20:252|36:304,2,105,8|0|0,0:0|0:0|0:0,0:0:0:0:
100,140,41250,2,0,B|116:92|116:92|100:40,2,105,8|0|0,0:0|0:0|0:0,0:0:0:0:
167,204,42180,6,0,B|235:232|235:176|303:204,1,140,8|8,0:0|0:1,0:0:0:0:
412,348,43110,2,0,B|364:356|364:356|324:340|324:340|276:348,1,140,8|8,0:0|0:1,0:0:0:0:
200,296,43808,1,8,0:1:0:0:
124,348,44040,6,0,B|72:364|72:364|24:348,2,105,8|0|8,0:0|0:0|0:3,0:0:0:0:
200,296,44970,2,0,P|208:260|200:228,1,70,8|4,0:1|0:3,0:0:0:0:
152,148,45436,2,0,P|144:112|152:80,1,70,8|0,0:1|0:0,0:0:0:0:
236,112,45901,6,0,P|269:103|303:111,1,70,12|10,0:0|0:1,0:0:0:0:
388,148,46366,1,8,0:2:0:0:
472,112,46598,2,0,B|496:180|448:180|472:248,1,140,10|10,0:1|0:1,0:0:0:0:
508,332,47296,2,0,P|472:340|440:332,1,70,8|10,0:2|0:1,0:0:0:0:
356,292,47761,6,0,B|308:300|308:300|268:284|268:284|220:292,1,140,8|8,0:2|0:2,0:0:0:0:
152,356,48459,2,0,P|128:292|152:228,1,140,10|10,0:1|0:1,0:0:0:0:
216,164,49156,2,0,P|252:172|284:164,1,70,8|10,0:2|0:1,0:0:0:0:
248,80,49622,6,0,P|256:44|248:12,1,70,8|10,0:2|0:1,0:0:0:0:
164,48,50087,2,0,P|128:40|96:48,1,70,8|10,0:2|0:1,0:0:0:0:
128,131,50552,2,0,P|103:195|128:259,1,140,0|8,0:0|0:2,0:0:0:0:
196,324,51250,6,0,L|268:316,1,70,10|8,0:1|0:2,0:0:0:0:
336,260,51715,2,0,L|405:267,1,70,14|14,0:1|0:1,0:0:0:0:
488,304,52180,2,0,B|516:236|464:236|488:168,1,140,8|8,0:2|0:1,0:0:0:0:
512,80,52877,1,0,0:0:0:0:
512,80,53343,6,0,B|476:88|448:64|448:64|420:88|380:80,1,140,4|8,0:0|0:1,0:0:0:0:
300,36,54040,1,0,0:0:0:0:
220,79,54273,2,0,P|196:144|220:208,1,140,0|8,0:0|0:1,0:0:0:0:
288,144,54970,1,0,0:0:0:0:
356,208,55203,6,0,B|384:272|384:272|356:336,1,140,8|8,0:2|0:1,0:0:0:0:
272,372,55901,1,0,0:0:0:0:
188,336,56133,2,0,P|123:359|59:334,1,140,0|8,0:0|0:1,0:0:0:0:
124,268,56830,1,0,0:0:0:0:
60,204,57063,6,0,B|68:156|68:156|52:112|52:112|60:68,1,140,8|8,0:2|0:1,0:0:0:0:
128,8,57761,1,0,0:0:0:0:
196,68,57994,2,0,B|264:44|264:92|332:68,1,140,0|8,0:0|0:1,0:0:0:0:
404,12,58691,1,0,0:0:0:0:
476,68,58924,6,0,B|484:116|484:116|468:160|468:160|476:204,1,140,8|10,0:2|0:1,0:0:0:0:
500,292,59622,1,10,0:1:0:0:
464,376,59854,2,0,L|392:368,1,70,8|8,0:2|0:1,0:0:0:0:
320,316,60319,2,0,L|250:323,1,70,8|8,0:1|0:1,0:0:0:0:
160,324,60784,6,0,B|160:284|184:260|184:260|160:236|160:196,1,140,4|8,0:0|0:2,0:0:0:0:
224,132,61482,1,10,0:1:0:0:
288,196,61715,2,0,B|324:204|324:204|356:196,1,70,0|10,0:0|0:1,0:0:0:0:
420,132,62180,1,8,0:2:0:0:
355,67,62412,6,0,P|331:131|355:195,1,140,10|10,0:1|0:1,0:0:0:0:
416,264,63110,2,0,L|404:332,1,70,8|10,0:2|0:1,0:0:0:0:
320,368,63575,2,0,L|308:300,1,70,0|10,0:0|0:1,0:0:0:0:
224,264,64040,1,8,0:2:0:0:
140,300,64273,1,10,0:1:0:0:
56,264,64505,6,0,B|28:200|28:200|56:136,1,140,8|8,0:2|0:2,0:0:0:0:
100,56,65203,1,10,0:1:0:0:
256,192,66133,12,0,69156,0:0:0:0:
