osu file format v14

[General]
AudioFilename: audio.mp3
AudioLeadIn: 0
PreviewTime: 8168
Countdown: 0
SampleSet: Soft
StackLeniency: 0.7
Mode: 0
LetterboxInBreaks: 0
WidescreenStoryboard: 1

[Editor]
Bookmarks: 784,8691,23575,36598,38459,45901,53343,59622,60784
DistanceSpacing: 1
BeatDivisor: 4
GridSize: 4
TimelineZoom: 0.6999989

[Metadata]
Title:HEKIREKI TV SIZE
TitleUnicode:HEKIREKI TV SIZE
Artist:LAST ALLIANCE
ArtistUnicode:LAST ALLIANCE
Creator:pkhg
Version:ROCKET'S EASY
Source:はじめの一歩 New Challenger
Tags:hajime no ippo opening iyiyo hazu- happyrocket88 cris- ラスト・アライアンス
BeatmapID:1522626
BeatmapSetID:591331

[Difficulty]
HPDrainRate:2
CircleSize:2.4
OverallDifficulty:2
ApproachRate:3
SliderMultiplier:0.470000005960465
SliderTickRate:1

[Events]
//Background and Video events
0,0,"hajime-no-ippo-2551135-1920x1200.jpg",0,0
Video,460,"ippo.avi"
//Break Periods
//Storyboard Layer 0 (Background)
//Storyboard Layer 1 (Fail)
//Storyboard Layer 2 (Pass)
//Storyboard Layer 3 (Foreground)
//Storyboard Sound Samples

[TimingPoints]
1250,232.558139534884,4,2,1,80,1,0
8691,-100,4,2,1,70,0,0
23575,-100,4,2,1,80,0,0
38459,-100,4,2,1,70,0,0
45901,-100,4,2,1,80,0,1
53343,-100,4,2,1,70,0,0
59854,-100,4,2,1,80,0,0
60784,-100,4,2,1,80,0,0
66133,-100,4,2,1,80,0,0
66191,-100,4,2,1,5,0,0

[Colours]
Combo1 : 255,108,108
Combo2 : 205,179,122
Combo3 : 210,210,210
Combo4 : 255,0,0

[HitObjects]
256,192,1482,5,10,0:1:0:0:
340,152,1947,1,10,0:1:0:0:
336,244,2412,2,0,P|304:276|256:288,2,94.000001192093,10|10|10,0:1|0:1|0:1,0:0:0:0:
340,152,3808,1,10,0:1:0:0:
256,192,4273,1,10,0:1:0:0:
172,152,4738,5,10,0:1:0:0:
179,246,5203,2,0,P|219:282|267:286,2,94.000001192093,10|10|10,0:1|0:1|0:1,0:0:0:0:
172,152,6598,1,10,0:1:0:0:
256,108,7063,1,10,0:1:0:0:
340,152,7529,1,10,0:1:0:0:
344,244,7994,2,0,L|344:300,1,47.0000005960465,8|8,0:0|0:1,0:0:0:0:
264,344,8691,38,0,B|212:356|180:316|180:316|144:356|88:344,1,188.000002384186,12|0,0:0|0:0,0:0:0:0:
24,284,10087,1,8,0:0:0:0:
48,192,10552,2,0,P|56:156|32:104,2,94.000001192093,8|0|0,0:0|0:0|0:0,0:0:0:0:
24,284,11947,1,8,0:0:0:0:
112,256,12412,6,0,B|152:228|200:252|200:252|248:268|296:240,1,188.000002384186,0|0,0:0|0:0,0:0:0:0:
368,188,13808,1,8,0:0:0:0:
380,280,14273,2,0,P|400:328|440:352,2,94.000001192093,8|0|0,0:0|0:0|0:0,0:0:0:0:
368,188,15668,1,8,0:0:0:0:
291,242,16133,38,0,B|215:298|215:298|216:202,2,188.000002384186,0|0|8,0:0|0:0|0:0,0:0:0:0:
288,148,18459,2,0,P|256:120|196:116,2,94.000001192093,0|0|8,0:0|0:0|0:0,0:0:0:0:
368,196,19854,6,0,B|444:140|444:140|443:236,2,188.000002384186,0|0|8,0:0|0:0|0:0,0:0:0:0:
372,292,22180,2,0,P|404:320|460:324,2,94.000001192093,0|8|8,0:0|0:1|0:0,0:0:0:0:
368,196,23575,37,12,0:0:0:0:
280,168,24040,1,8,0:0:0:0:
228,248,24505,1,0,0:0:0:0:
288,320,24970,1,8,0:0:0:0:
372,292,25436,2,0,P|416:280|460:304,2,94.000001192093,8|8|0,0:0|0:0|0:0,0:0:0:0:
288,320,26831,1,8,0:0:0:0:
208,268,27296,5,8,0:0:0:0:
124,308,27761,1,8,0:0:0:0:
60,240,28226,1,0,0:0:0:0:
108,160,28691,1,8,0:0:0:0:
200,180,29156,2,0,P|244:180|288:148,2,94.000001192093,8|8|0,0:0|0:0|0:0,0:0:0:0:
220,88,30552,1,8,0:0:0:0:
312,64,31017,38,0,B|360:84|372:132|372:132|396:88|452:84,1,188.000002384186,8|0,0:0|0:0,0:0:0:0:
456,180,32412,1,8,0:0:0:0:
452,272,32877,2,0,P|388:248|372:220,2,94.000001192093,8|8|0,0:0|0:0|0:0,0:0:0:0:
456,180,34273,1,8,0:0:0:0:
368,144,34738,6,0,B|333:140|312:167|312:167|293:188|260:189|260:189|223:191|199:226,2,188.000002384186,8|0|8,0:0|0:0|0:0,0:0:0:0:
256,192,36715,12,12,38459,0:0:0:0:
307,116,40319,38,0,B|256:37|256:37|203:118,2,188.000002384186,8|8|8,0:0|0:0|0:0,0:0:0:0:
340,204,42645,1,8,0:1:0:0:
256,248,43110,1,8,0:0:0:0:
176,200,43575,1,8,0:1:0:0:
205,116,44040,6,0,B|256:37|256:37|309:118,1,188.000002384186,8|8,0:0|0:1,0:0:0:0:
356,196,45436,1,8,0:1:0:0:
424,132,45901,6,0,P|436:88|416:40,1,94.000001192093,12|8,0:0|0:2,0:0:0:0:
372,48,46598,2,0,B|328:60|328:60|280:44,1,94.000001192093,10|10,0:1|0:1,0:0:0:0:
188,44,47529,1,10,0:1:0:0:
188,44,47761,6,0,B|142:59|142:59|98:47,1,94.000001192093,8|8,0:2|0:2,0:0:0:0:
52,48,48459,2,0,P|35:91|47:135,1,94.000001192093,10|10,0:1|0:1,0:0:0:0:
100,212,49389,2,0,P|104:256|76:300,2,94.000001192093,8|0|8,0:1|0:0|0:1,0:0:0:0:
47,135,50784,38,0,B|92:148|92:148|140:128,1,94.000001192093,8|14,0:1|0:1,0:0:0:0:
204,192,51715,1,14,0:1:0:0:
204,192,51947,2,0,L|256:196,2,47.0000005960465,14|8|8,0:1|0:2|0:1,0:0:0:0:
116,224,52877,1,0,0:0:0:0:
20,236,53343,38,0,B|8:184|24:136|92:100|148:128|148:128|168:96|208:92,1,282.000003576279,4|8,0:0|0:1,0:0:0:0:
264,168,55203,2,0,B|250:204|214:215|214:215|226:276|174:333|123:336|76:311,1,282.000003576279,12|8,0:2|0:1,0:0:0:0:
120,228,57063,38,0,B|120:104|120:104|184:132,1,188.000002384186,12|0,0:2|0:0,0:0:0:0:
268,164,58459,1,8,0:1:0:0:
356,128,58924,2,0,P|376:88|372:40,2,94.000001192093,8|12|8,0:2|0:1|0:2,0:0:0:0:
284,68,60319,1,8,0:1:0:0:
268,164,60784,6,0,P|316:216|392:216,1,141.000001788139,4|10,0:0|0:1,0:0:0:0:
447,149,61947,2,0,L|347:125,1,94.000001192093,10|10,0:1|0:1,0:0:0:0:
268,164,62877,2,0,P|224:180|180:160,1,94.000001192093,10|10,0:1|0:1,0:0:0:0:
92,132,63808,2,0,L|-4:164,2,94.000001192093,10|10|10,0:1|0:1|0:1,0:0:0:0:
168,80,65203,1,10,0:1:0:0:
256,192,66133,12,0,69156,0:0:0:0:
