osu file format v14

[General]
AudioFilename: audio.mp3
AudioLeadIn: 0
PreviewTime: 8168
Countdown: 0
SampleSet: Soft
StackLeniency: 0.2
Mode: 0
LetterboxInBreaks: 0
WidescreenStoryboard: 0

[Editor]
Bookmarks: 784,8691,23575,36598,38459,45901,53343,59622,60784
DistanceSpacing: 1
BeatDivisor: 4
GridSize: 32
TimelineZoom: 2.699999

[Metadata]
Title:HEKIREKI TV SIZE
TitleUnicode:HEKIREKI TV SIZE
Artist:LAST ALLIANCE
ArtistUnicode:LAST ALLIANCE
Creator:pkhg
Version:K.O.
Source:はじめの一歩 New Challenger
Tags:hajime no ippo opening iyiyo hazu- happyrocket88 cris- ラスト・アライアンス
BeatmapID:1514367
BeatmapSetID:591331

[Difficulty]
HPDrainRate:6
CircleSize:3.4
OverallDifficulty:9
ApproachRate:9.4
SliderMultiplier:1.8
SliderTickRate:1

[Events]
//Background and Video events
0,0,"hajime-no-ippo-2551135-1920x1200.jpg",0,0
Video,460,"ippo.avi"
//Break Periods
//Storyboard Layer 0 (Background)
//Storyboard Layer 1 (Fail)
//Storyboard Layer 2 (Pass)
//Storyboard Layer 3 (Foreground)
//Storyboard Sound Samples

[TimingPoints]
1250,232.558139534884,4,2,1,80,1,0
8691,-111.111111111111,4,2,1,70,0,0
23575,-100,4,2,1,80,0,0
38459,-125,4,2,1,70,0,0
45901,-100,4,2,1,80,0,1
53343,-125,4,2,1,70,0,0
59854,-100,4,2,1,80,0,0
60784,-100,4,2,1,80,0,0
66191,-100,4,2,1,5,0,0

[Colours]
Combo1 : 210,210,210
Combo2 : 205,179,122

[HitObjects]
498,197,784,5,8,0:1:0:0:
431,135,901,1,8,0:1:0:0:
343,153,1017,1,8,0:1:0:0:
300,231,1133,6,0,P|218:261|146:215,1,180,12|8,0:0|0:0,0:0:0:0:
119,52,1482,2,0,P|101:92|96:137,1,90,10|0,0:1|0:0,0:0:0:0:
168,300,1715,2,0,P|163:256|146:215,1,90,8|8,0:0|0:0,0:0:0:0:
13,160,1947,1,10,0:1:0:0:
80,298,2063,6,0,B|139:305|139:305|191:278|191:278|252:285,1,180,8|8,0:0|0:0,0:0:0:0:
416,313,2412,2,0,P|375:330|330:335,1,90,10|0,0:1|0:0,0:0:0:0:
229,196,2645,2,0,P|273:200|314:218,1,90,8|8,0:0|0:0,0:0:0:0:
330,335,2877,1,10,0:1:0:0:
183,277,2994,6,0,P|136:203|169:123,1,180,8|8,0:0|0:0,0:0:0:0:
327,84,3343,2,0,P|285:66|240:62,1,90,10|0,0:1|0:0,0:0:0:0:
82,144,3575,2,0,P|124:127|169:123,1,90,8|8,0:0|0:0,0:0:0:0:
251,189,3808,1,10,0:1:0:0:
325,62,3924,6,0,B|318:121|318:121|345:173|345:173|338:234,1,180,8|8,0:0|0:0,0:0:0:0:
165,211,4273,2,0,P|206:192|251:189,1,90,10|0,0:1|0:0,0:0:0:0:
439,234,4505,1,8,0:0:0:0:
400,313,4621,1,8,0:0:0:0:
312,331,4737,1,10,0:1:0:0:
245,269,4854,6,0,P|164:238|91:285,1,180,8|8,0:0|0:0,0:0:0:0:
312,331,5203,2,0,P|330:291|335:246,1,90,10|0,0:1|0:0,0:0:0:0:
192,113,5436,2,0,P|218:149|254:175,1,90,8|8,0:0|0:0,0:0:0:0:
419,223,5668,1,10,0:1:0:0:
441,123,5784,6,0,P|397:127|355:145,1,90,8|0,0:0|0:0,0:0:0:0:
245,269,6017,1,8,0:0:0:0:
169,154,6133,2,0,P|213:158|254:175,1,90,10|0,0:1|0:0,0:0:0:0:
419,223,6366,2,0,P|375:227|334:245,1,90,8|8,0:0|0:0,0:0:0:0:
298,335,6598,1,10,0:1:0:0:
255,176,6715,6,0,P|235:216|232:261,1,90,8|0,0:0|0:0,0:0:0:0:
298,335,6947,1,8,0:0:0:0:
147,289,7063,2,0,P|102:293|61:311,1,90,10|0,0:1|0:0,0:0:0:0:
247,222,7296,2,0,P|291:227|333:245,1,90,8|8,0:0|0:0,0:0:0:0:
444,369,7529,2,0,P|425:328|420:283,1,90,10|0,0:1|0:0,0:0:0:0:
484,121,7761,5,8,0:0:0:0:
484,121,7878,1,8,0:0:0:0:
323,149,7994,1,8,0:0:0:0:
433,48,8110,1,8,0:1:0:0:
461,209,8226,1,8,0:1:0:0:
323,149,8343,5,8,0:0:0:0:
323,149,8459,1,8,0:0:0:0:
461,209,8575,1,12,0:0:0:0:
302,141,8691,6,0,P|261:144|224:160,1,80.9999975280763,12|0,0:0|0:0,0:0:0:0:
124,280,8924,2,0,P|141:242|146:202,1,80.9999975280763,8|0,0:1|0:0,0:0:0:0:
89,52,9156,1,8,0:0:0:0:
89,52,9273,2,0,P|112:86|144:110,1,80.9999975280763,0|8,0:0|0:1,0:0:0:0:
313,48,9505,6,0,P|250:1|175:23,1,161.999995056153,8|8,0:0|0:0,0:0:0:0:
23,107,9854,1,8,0:1:0:0:
23,107,9970,1,0,0:0:0:0:
23,107,10087,2,0,P|60:91|101:89,1,80.9999975280763,8|8,0:0|0:0,0:0:0:0:
271,139,10319,2,0,P|234:123|193:121,1,80.9999975280763,8|0,0:1|0:0,0:0:0:0:
54,254,10552,6,0,P|116:207|191:228,1,161.999995056153,8|8,0:0|0:1,0:0:0:0:
274,348,10901,2,0,B|267:294|267:294|292:248|292:248|285:193,1,161.999995056153
236,39,11250,1,8,0:1:0:0:
236,39,11366,2,0,P|220:75|217:116,1,80.9999975280763,8|0,0:0|0:0,0:0:0:0:
376,157,11598,1,8,0:0:0:0:
376,157,11715,2,0,P|351:124|318:102,1,80.9999975280763,8|0,0:1|0:0,0:0:0:0:
227,247,11947,1,8,0:0:0:0:
227,247,12064,2,0,P|251:214|284:192,1,80.9999975280763,8|8,0:0|0:1,0:0:0:0:
457,260,12296,6,0,P|394:308|319:286,1,161.999995056153
149,265,12645,2,0,P|186:249|227:247,1,80.9999975280763,8|0,0:1|0:0,0:0:0:0:
373,343,12877,1,8,0:0:0:0:
373,343,12994,2,0,P|341:319|319:286,1,80.9999975280763,0|8,0:0|0:1,0:0:0:0:
432,119,13226,6,0,P|454:194|407:257,1,161.999995056153,8|8,0:0|0:0,0:0:0:0:
283,157,13575,2,0,P|324:160|361:176,1,80.9999975280763,8|0,0:1|0:0,0:0:0:0:
240,307,13808,2,0,P|221:271|217:231,1,80.9999975280763,8|8,0:0|0:0,0:0:0:0:
388,273,14040,2,0,P|366:306|333:330,1,80.9999975280763,8|0,0:1|0:0,0:0:0:0:
145,266,14273,6,0,B|199:273|199:273|245:248|245:248|300:255,1,161.999995056153,8|8,0:0|0:1,0:0:0:0:
444,299,14622,2,0,P|368:320|306:273,1,161.999995056153
338,102,14970,1,8,0:1:0:0:
338,102,15087,2,0,P|353:139|355:179,1,80.9999975280763,8|0,0:0|0:0,0:0:0:0:
200,216,15319,1,8,0:0:0:0:
200,216,15436,2,0,P|224:183|258:162,1,80.9999975280763,8|0,0:1|0:0,0:0:0:0:
429,202,15668,1,8,0:0:0:0:
429,202,15784,2,0,P|389:197|353:178,1,80.9999975280763,8|8,0:0|0:1,0:0:0:0:
231,23,16017,6,0,P|277:85|256:161,1,161.999995056153
108,121,16366,1,8,0:1:0:0:
108,121,16482,1,0,0:0:0:0:
107,121,16599,2,0,P|144:105|185:103,1,80.9999975280763,8|0,0:0|0:0,0:0:0:0:
317,228,16831,1,8,0:1:0:0:
316,228,16947,6,0,P|241:249|178:202,1,161.999995056153,8|8,0:0|0:0,0:0:0:0:
166,25,17296,2,0,P|181:61|184:102,1,80.9999975280763,8|0,0:1|0:0,0:0:0:0:
40,208,17529,2,0,P|64:175|97:153,1,80.9999975280763,8|8,0:0|0:0,0:0:0:0:
253,224,17761,2,0,P|213:220|178:202,1,80.9999975280763,8|0,0:1|0:0,0:0:0:0:
59,340,17994,6,0,P|121:293|197:314,1,161.999995056153,8|8,0:0|0:1,0:0:0:0:
305,380,18343,2,0,P|249:325|257:248,1,161.999995056153
417,273,18691,1,8,0:1:0:0:
417,272,18808,2,0,P|380:288|340:291,1,80.9999975280763,8|0,0:0|0:0,0:0:0:0:
180,230,19040,1,8,0:0:0:0:
180,230,19156,2,0,P|220:232|257:248,1,80.9999975280763,8|0,0:1|0:0,0:0:0:0:
361,368,19389,1,8,0:0:0:0:
361,368,19505,2,0,P|343:333|340:293,1,80.9999975280763,8|8,0:0|0:1,0:0:0:0:
454,135,19738,6,0,P|392:182|316:161,1,161.999995056153
187,74,20087,1,8,0:1:0:0:
187,74,20203,1,0,0:0:0:0:
187,74,20319,2,0,P|227:76|264:93,1,80.9999975280763,8|0,0:0|0:0,0:0:0:0:
276,248,20552,1,8,0:1:0:0:
275,248,20668,6,0,B|282:194|282:194|257:148|257:148|264:93,1,161.999995056153,8|8,0:0|0:0,0:0:0:0:
412,54,21017,2,0,P|375:38|334:35,1,80.9999975280763,8|0,0:1|0:0,0:0:0:0:
386,206,21250,2,0,P|418:181|440:148,1,80.9999975280763,8|8,0:0|0:0,0:0:0:0:
266,110,21482,2,0,P|270:150|288:185,1,80.9999975280763,8|0,0:1|0:0,0:0:0:0:
463,225,21715,6,0,P|426:209|386:206,1,80.9999975280763,8|0,0:0|0:0,0:0:0:0:
271,280,21947,1,8,0:1:0:0:
465,240,22063,6,0,P|429:220|389:214,1,80.9999975280763,0|8,0:0|0:0,0:0:0:0:
266,285,22296,1,8,0:1:0:0:
467,255,22412,6,0,P|433:232|394:222,1,80.9999975280763,8|8,0:0|0:0,0:0:0:0:
261,290,22645,5,8,0:1:0:0:
160,180,22761,1,8,0:0:0:0:
169,271,22877,1,8,0:0:0:0:
244,143,22994,5,8,0:1:0:0:
306,211,23110,1,8,0:0:0:0:
261,290,23226,1,8,0:0:0:0:
386,202,23343,2,0,L|306:211,1,80.9999975280763,12|0,0:1|0:0,0:0:0:0:
56,183,23575,6,0,B|115:190|115:190|167:163|167:163|228:170,1,180,12|10,0:0|0:1,0:0:0:0:
359,234,23924,1,0,0:0:0:0:
294,96,24040,2,0,P|252:78|207:74,1,90,8|0,0:0|0:0,0:0:0:0:
56,143,24273,1,10,0:1:0:0:
141,0,24389,6,0,P|188:72|158:154,1,180,8|8,0:0|0:0,0:0:0:0:
0,250,24738,2,0,P|42:232|87:228,1,90,10|0,0:1|0:0,0:0:0:0:
250,316,24970,2,0,P|213:288|187:251,1,90,8|8,0:0|0:0,0:0:0:0:
180,68,25203,2,0,P|175:112|157:153,1,90,10|0,0:1|0:0,0:0:0:0:
210,338,25436,6,0,P|192:296|187:252,1,90,8|0,0:0|0:0,0:0:0:0:
309,382,25668,2,0,P|268:365|234:337,1,90,10|0,0:1|0:0,0:0:0:0:
416,343,25901,2,0,P|375:358|330:364,1,90,8|0,0:0|0:0,0:0:0:0:
462,239,26133,2,0,P|445:280|416:315,1,90,10|8,0:1|0:0,0:0:0:0:
422,132,26366,2,0,P|438:173|443:218,1,90,0|8,0:0|0:0,0:0:0:0:
313,85,26598,2,0,P|355:102|390:131,1,90,10|0,0:1|0:3,0:3:0:0:
207,127,26831,2,0,P|247:109|292:104,1,90,8|8,0:0|0:0,0:0:0:0:
161,231,27063,2,0,P|176:190|205:155,1,90,10|0,0:1|0:3,0:3:0:0:
415,222,27296,6,0,P|341:268|260:238,1,180,8|10,0:0|0:1,0:0:0:0:
395,115,27645,1,0,0:0:0:0:
490,153,27761,2,0,P|508:195|512:240,1,90,8|0,0:0|0:0,0:0:0:0:
433,360,27994,1,10,0:1:0:0:
340,202,28110,6,0,B|279:195|279:195|227:222|227:222|168:215,1,180,8|8,0:0|0:0,0:0:0:0:
0,176,28459,2,0,P|42:158|87:154,1,90,10|0,0:1|0:0,0:0:0:0:
235,96,28691,2,0,P|193:78|148:74,1,90,8|8,0:0|0:0,0:0:0:0:
0,195,28924,2,0,P|42:177|87:173,1,90,10|0,0:1|0:0,0:0:0:0:
229,301,29156,6,0,P|212:258|183:223,1,90,8|0,0:0|0:0,0:0:0:0:
330,337,29389,2,0,P|287:319|242:315,1,90,10|0,0:1|0:0,0:0:0:0:
426,291,29622,2,0,P|383:307|348:336,1,90,8|0,0:0|0:0,0:0:0:0:
461,190,29854,2,0,P|443:232|439:277,1,90,10|8,0:1|0:0,0:0:0:0:
414,93,30087,2,0,P|430:135|459:170,1,90,0|8,0:0|0:0,0:0:0:0:
312,57,30319,2,0,P|354:75|399:78,1,90,10|0,0:1|0:0,0:0:0:0:
214,103,30552,2,0,P|256:86|291:57,1,90,8|8,0:0|0:0,0:0:0:0:
177,204,30784,2,0,P|194:161|198:116,1,90,10|0,0:1|0:0,0:0:0:0:
94,305,31017,6,0,P|160:249|245:267,1,180,8|10,0:0|0:1,0:0:0:0:
337,361,31366,1,0,0:0:0:0:
419,243,31482,2,0,P|414:198|396:157,1,90,8|0,0:0|0:0,0:0:0:0:
279,45,31715,1,10,0:1:0:0:
166,185,31831,6,0,P|233:241|318:223,1,180,8|8,0:0|0:0,0:0:0:0:
481,179,32180,2,0,P|440:161|396:157,1,90,10|0,0:1|0:0,0:0:0:0:
231,244,32412,2,0,P|272:226|317:223,1,90,8|8,0:0|0:0,0:0:0:0:
507,301,32645,2,0,P|465:282|421:279,1,90,10|0,0:1|0:0,0:0:0:0:
260,369,32877,6,0,P|302:352|337:324,1,90,8|0,0:0|0:0,0:0:0:0:
158,330,33109,2,0,P|199:346|242:351,1,90,10|0,0:1|0:0,0:0:0:0:
110,226,33342,2,0,P|128:265|155:301,1,90,8|0,0:0|0:0,0:0:0:0:
151,120,33574,2,0,P|134:161|129:206,1,90,10|8,0:1|0:0,0:0:0:0:
256,75,33807,2,0,P|214:91|180:119,1,90,0|8,0:0|0:0,0:0:0:0:
366,117,34039,2,0,P|324:99|279:95,1,90,10|0,0:1|0:3,0:3:0:0:
411,221,34272,2,0,P|395:179|367:144,1,90,8|8,0:0|0:0,0:0:0:0:
370,327,34505,2,0,P|388:287|392:242,1,90,10|0,0:1|0:3,0:3:0:0:
154,222,34738,6,0,P|221:278|306:260,1,180,8|10,0:0|0:1,0:0:0:0:
366,144,35087,1,0,0:0:0:0:
477,263,35203,2,0,P|436:245|392:241,1,90,8|0,0:0|0:0,0:0:0:0:
268,344,35436,1,10,0:1:0:0:
283,174,35552,6,0,P|301:215|305:260,1,90,8|0,0:0|0:0,0:0:0:0:
192,139,35784,1,8,0:0:0:0:
351,102,35901,2,0,P|395:105|436:123,1,90,10|0,0:1|0:0,0:0:0:0:
306,259,36133,2,0,P|287:218|283:174,1,90,8|8,0:0|0:0,0:0:0:0:
461,222,36366,2,0,P|435:258|399:285,1,90,10|0,0:1|0:0,0:0:0:0:
220,237,36598,5,8,0:0:0:0:
306,259,36714,1,8,0:1:0:0:
149,294,36831,1,8,0:1:0:0:
157,166,36947,2,0,P|198:147|242:144,1,90,10|0,0:0|0:0,0:0:0:0:
346,182,37180,1,8,0:0:0:0:
394,33,37296,2,0,P|413:74|416:118,1,90,10|8,0:1|0:0,0:0:0:0:
324,267,37529,2,0,P|327:222|346:182,1,90
505,146,37761,5,8,0:1:0:0:
326,97,37877,1,8,0:1:0:0:
434,210,37994,1,8,0:0:0:0:
434,210,38110,1,0,0:0:0:0:
485,59,38226,1,8,0:0:0:0:
485,59,38342,1,2,0:1:0:0:
346,181,38459,6,0,B|297:186|297:186|255:164|255:164|208:170,1,144,12|0,0:0|0:0,0:0:0:0:
167,244,38808,1,0,0:0:0:0:
141,119,38924,2,0,P|182:175|167:244,1,144,8|0,0:1|0:0,0:0:0:0:
82,279,39273,1,2,0:1:0:0:
226,319,39389,6,0,B|273:313|273:313|315:335|315:335|364:330,1,144,8|2,0:0|0:1,0:0:0:0:
428,262,39738,1,0,0:0:0:0:
386,121,39854,2,0,P|371:154|370:190,1,72,8|0,0:1|0:0,0:0:0:0:
509,227,40087,2,0,P|487:198|457:178,1,72,0|2,0:0|0:1,0:0:0:0:
369,189,40319,5,8,0:0:0:0:
342,278,40436,2,0,P|354:312|377:340,1,72,0|2,0:0|0:1,0:0:0:0:
428,262,40668,1,0,0:0:0:0:
279,213,40784,2,0,P|211:198|155:240,1,144,8|0,0:1|0:0,0:0:0:0:
229,284,41133,1,2,0:0:0:0:
112,314,41250,6,0,P|70:258|84:189,1,144,8|2,0:0|0:0,0:0:0:0:
154,240,41598,1,0,0:0:0:0:
114,102,41715,2,0,P|145:120|167:149,1,72,8|0,0:1|0:0,0:0:0:0:
69,257,41947,2,0,P|69:221|83:189,1,72,0|2,0:0|0:0,0:0:0:0:
292,251,42180,6,0,B|243:256|243:256|201:234|201:234|154:240,1,144,8|2,0:0|0:0,0:0:0:0:
109,313,42529,1,0,0:0:0:0:
83,188,42645,2,0,P|124:244|109:313,1,144,8|0,0:1|0:0,0:0:0:0:
38,263,42994,1,2,0:0:0:0:
7,140,43110,6,0,P|62:98|131:112,1,144,8|2,0:0|0:0,0:0:0:0:
176,188,43459,1,0,0:0:0:0:
318,150,43575,2,0,P|285:135|249:133,1,72,8|0,0:1|0:0,0:0:0:0:
212,272,43808,2,0,P|241:250|261:220,1,72,8|2,0:1|0:0,0:0:0:0:
176,188,44040,5,8,0:0:0:0:
123,265,44156,2,0,P|127:301|143:333,1,72,8|2,0:1|0:0,0:0:0:0:
225,366,44389,1,0,0:0:0:0:
350,283,44505,2,0,B|301:288|301:288|259:266|259:266|212:272,1,144,8|8,0:1|0:3,0:0:0:0:
142,332,44854,1,4,0:3:0:0:
176,188,44970,5,8,0:1:0:0:
176,188,45203,2,0,P|209:175|245:174,1,72,4|0,0:3|0:0,0:0:0:0:
345,253,45436,1,8,0:1:0:0:
258,104,45552,2,0,P|246:138|245:174,1,72,8|0,0:1|0:0,0:0:0:0:
345,253,45784,1,8,0:1:0:0:
460,135,45901,6,0,P|416:139|375:157,1,90,12|0,0:0|0:0,0:0:0:0:
172,81,46133,2,0,P|217:85|258:104,1,90,10|0,0:1|0:0,0:0:0:0:
467,125,46366,2,0,P|422:129|381:147,1,90,8|0,0:2|0:0,0:0:0:0:
312,293,46598,1,10,0:1:0:0:
108,209,46715,6,0,B|167:216|167:216|219:189|219:189|280:196,1,180,8|8,0:2|0:2,0:0:0:0:
465,278,47063,2,0,P|392:325|312:293,1,180,10|8,0:1|0:2,0:0:0:0:
280,196,47412,1,8,0:2:0:0:
234,358,47529,2,0,P|216:317|212:272,1,90,10|0,0:1|0:0,0:0:0:0:
302,110,47761,6,0,P|298:155|280:196,1,90,8|0,0:2|0:0,0:0:0:0:
116,151,47994,2,0,P|157:133|202:129,1,90,10|0,0:1|0:0,0:0:0:0:
387,132,48226,2,0,P|346:114|302:110,1,90,8|0,0:2|0:0,0:0:0:0:
182,222,48459,1,10,0:1:0:0:
259,37,48575,6,0,P|305:109|273:190,1,180,8|8,0:2|0:2,0:0:0:0:
96,244,48924,2,0,P|137:226|182:222,1,90,10|0,0:1|0:0,0:0:0:0:
298,285,49156,1,8,0:2:0:0:
243,146,49273,1,8,0:2:0:0:
376,218,49389,2,0,P|394:258|398:303,1,90,10|0,0:1|0:0,0:0:0:0:
126,298,49622,6,0,B|185:305|185:305|237:278|237:278|298:285,1,180,8|10,0:2|0:1,0:0:0:0:
256,380,49970,1,0,0:0:0:0:
397,303,50087,2,0,P|394:258|376:218,1,90,8|0,0:2|0:0,0:0:0:0:
264,60,50319,2,0,P|246:101|243:146,1,90,10|8,0:1|0:2,0:0:0:0:
437,150,50552,6,0,P|396:131|351:128,1,90,0|8,0:0|0:2,0:0:0:0:
155,70,50784,2,0,P|195:51|240:48,1,90,10|0,0:1|0:0,0:0:0:0:
341,88,51017,1,8,0:2:0:0:
408,4,51133,1,8,0:2:0:0:
240,48,51250,2,0,P|221:88|218:133,1,90,10|0,0:1|0:0,0:0:0:0:
298,285,51482,5,8,0:2:0:0:
164,215,51598,1,8,0:2:0:0:
312,110,51715,2,0,P|355:98|399:103,1,90,14|0,0:1|0:0,0:0:0:0:
145,234,51947,2,0,P|100:238|57:226,1,90,14|0,0:1|0:0,0:0:0:0:
223,151,52180,1,8,0:2:0:0:
275,341,52296,5,8,0:1:0:0:
223,151,52412,1,8,0:1:0:0:
179,325,52529,1,8,0:1:0:0:
352,292,52645,1,8,0:1:0:0:
249,246,52761,1,2,0:1:0:0:
223,151,53343,6,0,B|272:146|272:146|314:168|314:168|361:162,1,144,12|0,0:0|0:0,0:0:0:0:
360,162,53808,2,0,P|318:217|333:286,1,144,8|0,0:1|0:0,0:0:0:0:
469,249,54156,1,8,0:1:0:0:
469,249,54273,2,0,P|436:234|401:235,1,72,0|8,0:0|0:1,0:0:0:0:
333,285,54505,1,8,0:2:0:0:
333,285,54738,1,8,0:1:0:0:
293,355,54854,2,0,B|299:308|299:308|277:266|277:266|282:217,1,144,8|0,0:2|0:0,0:0:0:0:
297,77,55203,5,12,0:2:0:0:
369,202,55319,1,8,0:1:0:0:
233,142,55436,2,0,P|197:141|164:156,1,72,8|8,0:1|0:2,0:0:0:0:
46,256,55668,2,0,B|93:262|93:262|135:240|135:240|183:245,1,144,8|0,0:1|0:0,0:0:0:0:
323,287,56017,1,8,0:1:0:0:
323,287,56133,2,0,L|251:294,1,72,0|8,0:0|0:1,0:0:0:0:
183,244,56366,1,8,0:2:0:0:
183,244,56598,1,8,0:1:0:0:
109,201,56715,2,0,P|165:159|234:174,1,144
326,299,57063,6,0,B|331:251|331:251|309:209|309:209|315:162,1,144,12|0,0:2|0:0,0:0:0:0:
337,79,57412,1,8,0:2:0:0:
233,173,57529,2,0,P|164:187|108:145,1,144,8|0,0:1|0:0,0:0:0:0:
171,30,57877,1,8,0:1:0:0:
171,30,57994,2,0,P|186:63|185:99,1,72
108,145,58226,1,8,0:2:0:0:
108,145,58459,2,0,P|66:201|80:269,1,144,8|0,0:1|0:0,0:0:0:0:
157,222,58808,1,0,0:0:0:0:
113,351,58924,5,8,0:2:0:0:
232,272,59040,2,0,P|245:239|245:203,1,72,8|0,0:1|0:0,0:0:0:0:
197,129,59273,1,8,0:2:0:0:
333,172,59389,2,0,P|368:171|401:156,1,72,12|0,0:1|0:0,0:0:0:0:
180,109,59622,2,0,P|147:94|111:95,1,72,12|0,0:1|0:0,0:0:0:0:
250,208,59854,5,8,0:2:0:0:
250,208,59970,1,8,0:1:0:0:
293,43,60087,1,8,0:1:0:0:
293,43,60203,1,8,0:1:0:0:
345,182,60319,1,8,0:1:0:0:
179,140,60435,1,8,0:1:0:0:
357,174,60552,1,8,0:1:0:0:
176,126,60668,1,8,0:1:0:0:
370,166,60784,6,0,P|388:206|392:251,1,90,4|0,0:0|0:0,0:0:0:0:
208,257,61017,2,0,P|249:239|294:235,1,90,10|0,0:1|0:0,0:0:0:0:
455,188,61250,2,0,P|414:170|370:166,1,90,8|0,0:2|0:0,0:0:0:0:
208,257,61482,1,10,0:1:0:0:
279,125,61598,6,0,B|272:184|272:184|299:236|299:236|292:297,1,180,8|8,0:2|0:2,0:0:0:0:
122,279,61947,2,0,P|163:261|208:257,1,90,10|0,0:1|0:0,0:0:0:0:
324,320,62179,1,8,0:2:0:0:
269,181,62296,1,8,0:2:0:0:
401,253,62412,2,0,P|419:294|423:338,1,90,10|0,0:1|0:0,0:0:0:0:
260,163,62645,6,0,P|264:118|282:77,1,90,8|0,0:2|0:0,0:0:0:0:
447,122,62877,2,0,P|406:140|362:145,1,90,10|0,0:1|0:0,0:0:0:0:
196,54,63110,2,0,P|240:58|282:77,1,90,8|0,0:2|0:0,0:0:0:0:
340,230,63343,1,10,0:1:0:0:
217,144,63459,6,0,P|173:148|131:167,1,90,8|0,0:0|0:0,0:0:0:0:
317,186,63691,1,8,0:2:0:0:
351,14,63808,2,0,P|369:55|373:100,1,90,10|0,0:1|0:0,0:0:0:0:
254,248,64040,2,0,P|280:212|317:186,1,90,8|8,0:2|0:2,0:0:0:0:
498,212,64273,2,0,P|454:207|413:190,1,90,10|0,0:1|0:0,0:0:0:0:
195,124,64505,6,0,P|236:106|280:101,1,90,8|0,0:2|0:0,0:0:0:0:
85,172,64738,2,0,P|43:154|0:149,1,90,10|0,0:1|0:0,0:0:0:0:
152,258,64970,1,8,0:2:0:0:
195,124,65087,1,8,0:2:0:0:
166,291,65203,1,10,0:1:0:0:
181,91,65320,1,2,0:1:0:0:
181,91,66133,1,4,0:0:0:0:
256,192,66191,12,0,69156,0:0:0:0:
