osu file format v14

[General]
AudioFilename: audio.mp3
AudioLeadIn: 0
PreviewTime: 8168
Countdown: 0
SampleSet: Soft
StackLeniency: 0.3
Mode: 0
LetterboxInBreaks: 0
WidescreenStoryboard: 0

[Editor]
Bookmarks: 784,8691,23575,38459,45901,53343,60784
DistanceSpacing: 1
BeatDivisor: 4
GridSize: 4
TimelineZoom: 2

[Metadata]
Title:HEKIREKI TV SIZE
TitleUnicode:HEKIREKI TV SIZE
Artist:LAST ALLIANCE
ArtistUnicode:LAST ALLIANCE
Creator:pkhg
Version:IYIYO & HAZU'S INSANE
Source:はじめの一歩 New Challenger
Tags:hajime no ippo opening iyiyo hazu- happyrocket88 cris- ラスト・アライアンス
BeatmapID:1278484
BeatmapSetID:591331

[Difficulty]
HPDrainRate:5
CircleSize:4
OverallDifficulty:8
ApproachRate:9
SliderMultiplier:1.6
SliderTickRate:1

[Events]
//Background and Video events
0,0,"hajime-no-ippo-2551135-1920x1200.jpg",0,0
Video,460,"ippo.avi"
//Break Periods
//Storyboard Layer 0 (Background)
//Storyboard Layer 1 (Fail)
//Storyboard Layer 2 (Pass)
//Storyboard Layer 3 (Foreground)
//Storyboard Sound Samples

[TimingPoints]
1250,232.558139534884,4,2,1,80,1,0
8691,-111.111111111111,4,2,1,70,0,0
23575,-100,4,2,1,80,0,0
38459,-125,4,2,1,70,0,0
45901,-100,4,2,1,80,0,1
53343,-125,4,2,1,70,0,0
59854,-125,4,2,1,80,0,0
60784,-100,4,2,1,80,0,0
66191,-100,4,2,1,5,0,0

[Colours]
Combo1 : 210,210,210
Combo2 : 205,179,122

[HitObjects]
128,100,784,5,8,0:1:0:0:
184,160,901,1,8,0:1:0:0:
124,212,1017,1,8,0:1:0:0:
192,280,1133,6,0,P|249:283|352:280,1,160,12|8,0:0|0:0,0:0:0:0:
392,207,1482,2,0,P|384:168|380:129,1,80,10|0,0:1|0:0,0:0:0:0:
300,104,1715,2,0,P|295:143|288:182,1,80,8|8,0:0|0:0,0:0:0:0:
231,240,1947,1,10,0:1:0:0:
136,224,2063,6,0,P|64:250|55:325,1,160,8|8,0:0|0:0,0:0:0:0:
132,356,2412,2,0,P|175:351|232:344,1,80,10|0,0:1|0:0,0:0:0:0:
292,356,2645,2,0,P|330:333|377:302,1,80,8|8,0:0|0:0,0:0:0:0:
356,236,2877,1,10,0:1:0:0:
288,164,2994,6,0,B|231:184|231:184|132:166,1,160,8|8,0:0|0:0,0:0:0:0:
144,88,3343,2,0,L|222:102,1,80,10|0,0:1|0:0,0:0:0:0:
252,28,3575,2,0,L|330:42,1,80,8|8,0:0|0:0,0:0:0:0:
308,120,3808,6,0,B|428:144|428:144|388:264,1,240,10|8,0:1|0:0,0:0:0:0:
468,276,4273,2,0,L|443:352,1,80,10|0,0:1|0:0,0:0:0:0:
364,364,4505,1,8,0:0:0:0:
284,356,4622,1,8,0:0:0:0:
216,316,4738,1,10,0:1:0:0:
184,224,4854,6,0,P|261:242|341:239,1,160,8|8,0:0|0:0,0:0:0:0:
320,160,5203,2,0,P|316:116|316:72,1,80,10|0,0:1|0:0,0:0:0:0:
240,48,5436,2,0,P|200:48|160:52,1,80,8|8,0:0|0:0,0:0:0:0:
84,76,5668,1,10,0:1:0:0:
32,156,5784,6,0,P|30:235|68:304,1,160,8|8,0:0|0:0,0:0:0:0:
132,352,6133,2,0,B|175:359|175:359|228:352,1,80,10|0,0:1|0:0,0:0:0:0:
252,284,6366,2,0,B|288:279|288:279|331:286,1,80,8|8,0:0|0:0,0:0:0:0:
384,348,6598,1,10,0:1:0:0:
428,260,6715,6,0,L|431:100,1,160,8|8,0:0|0:0,0:0:0:0:
352,104,7064,2,0,L|348:183,1,80,10|0,0:1|0:0,0:0:0:0:
268,172,7296,2,0,L|271:92,1,80,8|8,0:0|0:0,0:0:0:0:
190,80,7529,2,0,L|187:160,1,80,10|0,0:1|0:0,0:0:0:0:
100,100,7761,5,8,0:0:0:0:
92,120,7877,1,8,0:0:0:0:
112,196,7994,1,8,0:0:0:0:
104,216,8110,1,8,0:1:0:0:
184,232,8226,1,8,0:1:0:0:
138,298,8343,2,0,L|60:312,1,80,8|8,0:0|0:0,0:0:0:0:
248,280,8575,1,12,0:0:0:0:
312,328,8691,6,0,L|383:318,1,71.9999978027344,12|0,0:0|0:0,0:0:0:0:
440,260,8924,1,8,0:1:0:0:
460,184,9040,1,0,0:0:0:0:
396,140,9156,2,0,L|324:149,1,71.9999978027344,8|0,0:0|0:0,0:0:0:0:
268,204,9389,1,8,0:1:0:0:
184,164,9505,6,0,P|201:94|202:22,1,143.999995605469,8|8,0:0|0:0,0:0:0:0:
124,16,9854,1,8,0:1:0:0:
52,48,9970,1,0,0:0:0:0:
24,124,10087,2,0,L|36:194,1,71.9999978027344,8|8,0:0|0:0,0:0:0:0:
24,272,10319,2,0,L|91:296,1,71.9999978027344,8|0,0:1|0:0,0:0:0:0:
168,352,10552,6,0,B|240:372|240:372|304:346,1,143.999995605469,8|8,0:0|0:1,0:0:0:0:
300,268,10901,2,0,B|235:293|235:293|163:273,1,143.999995605469,0|0,0:0|0:0,0:0:0:0:
160,192,11250,2,0,L|233:211,1,71.9999978027344,8|8,0:1|0:0,0:0:0:0:
304,188,11482,5,0,0:0:0:0:
300,108,11598,2,0,L|227:127,1,71.9999978027344,8|8,0:0|0:1,0:0:0:0:
152,108,11831,1,0,0:0:0:0:
204,52,11947,2,0,L|273:33,1,71.9999978027344,8|8,0:0|0:0,0:0:0:0:
352,40,12180,1,8,0:1:0:0:
440,72,12296,6,0,B|468:112|468:112|436:208,1,143.999995605469,0|0,0:0|0:0,0:0:0:0:
368,236,12645,2,0,P|325:235|292:236,1,71.9999978027344,8|0,0:1|0:0,0:0:0:0:
228,276,12877,1,8,0:0:0:0:
148,284,12994,2,0,P|127:246|109:218,1,71.9999978027344,0|8,0:0|0:1,0:0:0:0:
120,128,13226,6,0,P|190:114|260:126,1,143.999995605469,8|8,0:0|0:0,0:0:0:0:
340,135,13575,2,0,P|351:102|353:66,1,71.9999978027344,8|0,0:1|0:0,0:0:0:0:
284,28,13808,1,8,0:0:0:0:
204,32,13924,1,8,0:0:0:0:
136,72,14040,1,8,0:1:0:0:
120,148,14156,1,0,0:0:0:0:
32,184,14273,6,0,B|12:256|12:256|38:320,1,143.999995605469,8|8,0:0|0:1,0:0:0:0:
116,316,14622,2,0,B|91:251|91:251|111:179,1,143.999995605469,0|0,0:0|0:0,0:0:0:0:
192,176,14971,2,0,L|173:249,1,71.9999978027344,8|8,0:1|0:0,0:0:0:0:
196,320,15203,5,0,0:0:0:0:
276,316,15319,2,0,L|257:243,1,71.9999978027344,8|8,0:0|0:1,0:0:0:0:
276,168,15552,1,0,0:0:0:0:
332,220,15668,2,0,L|350:289,1,71.9999978027344,8|8,0:0|0:0,0:0:0:0:
416,336,15901,1,8,0:1:0:0:
460,252,16017,6,0,L|464:96,1,143.999995605469,0|0,0:0|0:0,0:0:0:0:
384,116,16366,1,8,0:1:0:0:
324,64,16482,1,0,0:0:0:0:
260,108,16597,1,8,0:0:0:0:
200,52,16714,2,0,P|172:56|128:55,1,71.9999978027344,0|8,0:0|0:1,0:0:0:0:
56,112,16947,6,0,L|59:255,1,143.999995605469,8|8,0:0|0:0,0:0:0:0:
92,328,17295,2,0,P|126:327|163:322,1,71.9999978027344,8|0,0:1|0:0,0:0:0:0:
208,256,17529,2,0,P|243:257|279:261,1,71.9999978027344,8|8,0:0|0:0,0:0:0:0:
328,324,17760,1,8,0:1:0:0:
408,320,17876,1,0,0:0:0:0:
444,232,17994,6,0,B|464:160|464:160|438:96,1,143.999995605469,8|8,0:0|0:1,0:0:0:0:
360,100,18343,2,0,B|385:165|385:165|365:237,1,143.999995605469,0|0,0:0|0:0,0:0:0:0:
284,240,18692,2,0,L|302:170,1,71.9999978027344,8|8,0:1|0:0,0:0:0:0:
280,96,18924,5,0,0:0:0:0:
200,100,19040,2,0,L|218:169,1,71.9999978027344,8|8,0:0|0:1,0:0:0:0:
200,248,19273,1,0,0:0:0:0:
144,196,19389,2,0,L|125:126,1,71.9999978027344,8|8,0:0|0:0,0:0:0:0:
60,80,19622,1,8,0:1:0:0:
24,168,19739,6,0,P|29:267|40:324,1,143.999995605469,0|0,0:0|0:0,0:0:0:0:
100,360,20088,1,8,0:1:0:0:
168,324,20204,1,0,0:0:0:0:
240,352,20319,1,8,0:0:0:0:
308,312,20436,2,0,P|348:314|396:308,1,71.9999978027344,0|8,0:0|0:1,0:0:0:0:
424,228,20668,6,0,B|399:178|399:178|405:90,1,143.999995605469,8|8,0:0|0:0,0:0:0:0:
328,72,21017,2,0,L|256:77,1,71.9999978027344,8|0,0:1|0:0,0:0:0:0:
232,156,21251,2,0,L|160:146,1,71.9999978027344,8|8,0:0|0:0,0:0:0:0:
84,144,21482,1,8,0:1:0:0:
32,204,21598,1,0,0:0:0:0:
60,296,21715,6,0,P|65:329|63:367,1,71.9999978027344,8|0,0:0|0:0,0:0:0:0:
128,252,21947,1,8,0:1:0:0:
200,284,22063,2,0,P|194:317|196:355,1,71.9999978027344,0|8,0:0|0:0,0:0:0:0:
276,356,22296,2,0,P|281:322|279:284,1,71.9999978027344,8|8,0:1|0:0,0:0:0:0:
240,216,22529,1,8,0:0:0:0:
187,155,22645,5,8,0:1:0:0:
228,87,22761,1,8,0:0:0:0:
306,105,22877,1,8,0:0:0:0:
312,183,22994,5,8,0:1:0:0:
240,216,23110,1,8,0:0:0:0:
246,294,23226,1,8,0:0:0:0:
324,312,23342,5,12,0:1:0:0:
380,236,23459,2,0,P|444:208|511:229,1,143.999995605469
488,308,23808,1,10,0:1:0:0:
424,356,23924,1,0,0:0:0:0:
344,344,24040,1,8,0:0:0:0:
276,300,24156,2,0,P|241:307|196:311,1,80,0|10,0:0|0:1,0:0:0:0:
216,216,24389,6,0,P|295:207|374:193,1,160,8|8,0:0|0:0,0:0:0:0:
388,116,24738,2,0,P|353:108|308:104,1,80,10|0,0:1|0:0,0:0:0:0:
248,56,24970,2,0,P|224:81|198:118,1,80,8|8,0:0|0:0,0:0:0:0:
126,147,25203,2,0,P|136:180|155:221,1,80,10|0,0:1|0:0,0:0:0:0:
236,276,25436,6,0,L|315:266,1,80,8|0,0:0|0:0,0:0:0:0:
328,188,25668,2,0,L|248:197,1,80,10|0,0:1|0:0,0:0:0:0:
236,276,25901,2,0,L|315:266,1,80,8|0,0:0|0:0,0:0:0:0:
328,188,26133,2,0,L|248:197,1,80,10|8,0:1|0:0,0:0:0:0:
236,276,26366,2,0,L|315:266,1,80,0|8,0:0|0:0,0:0:0:0:
328,188,26598,2,0,L|248:197,1,80,10|0,0:1|0:3,0:0:0:0:
172,224,26831,5,8,0:0:0:0:
100,192,26947,2,0,L|90:112,1,80,8|10,0:0|0:1,0:0:0:0:
176,68,27180,2,0,P|255:75|335:73,1,160,0|0,0:3|0:0,0:0:0:0:
400,124,27529,2,0,P|394:177|392:216,1,80,10|0,0:1|0:0,0:0:0:0:
312,192,27761,1,8,0:0:0:0:
260,252,27877,2,0,P|265:305|268:344,1,80,0|10,0:0|0:1,0:0:0:0:
172,340,28110,6,0,B|90:358|90:358|15:340,1,160,8|8,0:0|0:0,0:0:0:0:
40,264,28459,2,0,P|44:228|44:164,1,80,10|0,0:1|0:0,0:0:0:0:
24,107,28691,2,0,P|57:92|112:60,1,80,8|8,0:0|0:0,0:0:0:0:
151,14,28924,2,0,P|180:35|235:67,1,80,10|0,0:1|0:0,0:0:0:0:
289,120,29156,6,0,L|382:112,1,80,8|0,0:0|0:0,0:0:0:0:
392,190,29389,2,0,L|292:199,1,80,8|0,0:1|0:0,0:0:0:0:
289,120,29622,2,0,L|382:112,1,80,8|0,0:0|0:0,0:0:0:0:
392,190,29855,2,0,L|292:199,1,80,8|8,0:1|0:0,0:0:0:0:
289,120,30087,2,0,L|382:112,1,80,0|8,0:0|0:0,0:0:0:0:
392,190,30320,2,0,L|292:199,1,80,10|0,0:1|0:0,0:0:0:0:
233,183,30552,5,8,0:0:0:0:
164,224,30668,2,0,P|172:263|183:304,1,80,8|10,0:0|0:1,0:0:0:0:
261,358,30901,2,0,P|348:349|429:345,1,160
453,271,31250,2,0,P|463:232|472:193,1,80,10|0,0:1|0:0,0:0:0:0:
415,137,31482,1,8,0:0:0:0:
349,183,31598,2,0,P|310:172|272:160,1,80,0|10,0:0|0:1,0:0:0:0:
219,79,31831,6,0,P|141:69|75:111,1,160,8|8,0:0|0:0,0:0:0:0:
57,190,32180,2,0,P|61:235|71:279,1,80,10|0,0:1|0:0,0:0:0:0:
147,282,32412,2,0,P|151:236|161:193,1,80,8|8,0:0|0:0,0:0:0:0:
238,194,32645,2,0,P|242:239|252:283,1,80,10|0,0:1|0:0,0:0:0:0:
343,290,32877,6,0,L|442:280,1,80,8|0,0:0|0:0,0:0:0:0:
419,201,33110,2,0,L|339:209,1,80,10|0,0:1|0:0,0:0:0:0:
343,290,33343,2,0,L|442:280,1,80,8|0,0:0|0:0,0:0:0:0:
419,201,33576,2,0,L|339:209,1,80,10|0,0:1|0:0,0:0:0:0:
343,290,33808,2,0,L|442:280,1,80,0|8,0:0|0:0,0:0:0:0:
419,201,34041,2,0,L|339:209,1,80,10|0,0:1|0:0,0:0:0:0:
269,247,34273,5,8,0:0:0:0:
200,206,34389,2,0,P|161:198|120:202,1,80,8|10,0:0|0:1,0:0:0:0:
28,227,34622,2,0,L|12:55,1,160,0|0,0:3|0:0,0:0:0:0:
88,42,34970,2,0,L|167:49,1,80,10|0,0:1|0:0,0:0:0:0:
247,59,35203,1,8,0:0:0:0:
285,128,35319,2,0,P|288:167|288:207,1,80,0|10,0:0|0:1,0:0:0:0:
270,298,35552,6,0,B|386:331|386:331|423:317,1,160,8|8,0:0|0:0,0:0:0:0:
454,243,35901,2,0,P|455:205|448:162,1,80,10|0,0:1|0:0,0:0:0:0:
379,123,36133,2,0,P|341:121|298:129,1,80,8|8,0:0|0:0,0:0:0:0:
261,199,36366,2,0,L|163:183,1,80,10|0,0:1|0:0,0:0:0:0:
170,90,36598,6,0,P|132:88|89:96,1,80,8|8,0:0|0:1,0:0:0:0:
48,163,36831,1,8,0:1:0:0:
99,224,36947,2,0,P|136:225|180:218,1,80,10|0,0:0|0:0,0:0:0:0:
234,161,37180,2,0,P|273:159|313:166,1,80,8|10,0:0|0:1,0:0:0:0:
357,232,37412,1,8,0:0:0:0:
405,157,37529,5,0,0:0:0:0:
405,157,37645,1,0,0:0:0:0:
480,197,37761,1,8,0:1:0:0:
480,197,37877,1,8,0:1:0:0:
502,282,37994,6,0,L|412:289,1,80,8|0,0:0|0:0,0:0:0:0:
347,334,38226,2,0,L|257:341,1,80,8|2,0:0|0:1,0:0:0:0:
180,300,38459,6,0,P|149:257|161:165,1,128,12|0,0:0|0:0,0:0:0:0:
196,120,38808,1,0,0:0:0:0:
272,132,38924,2,0,P|324:128|404:124,1,128,8|0,0:1|0:0,0:0:0:0:
472,152,39273,1,2,0:1:0:0:
440,236,39389,6,0,P|376:239|312:243,1,128,8|2,0:0|0:1,0:0:0:0:
244,284,39738,1,0,0:0:0:0:
188,232,39854,2,0,P|192:196|196:140,1,64,8|0,0:1|0:0,0:0:0:0:
120,148,40087,2,0,P|116:184|112:240,1,64,0|2,0:0|0:1,0:0:0:0:
44,268,40319,6,0,P|46:299|50:331,1,64,8|0,0:0|0:0,0:0:0:0:
116,372,40552,1,2,0:1:0:0:
188,348,40668,2,0,B|252:332|252:368|316:352,1,128,0|0,0:0|0:0,0:0:0:0:
384,320,41017,2,0,P|415:314|447:314,1,64,0|2,0:0|0:0,0:0:0:0:
504,244,41250,6,0,P|516:176|484:116,1,128,8|2,0:0|0:0,0:0:0:0:
440,68,41598,1,0,0:0:0:0:
364,84,41715,2,0,P|340:80|284:76,1,64,8|0,0:1|0:0,0:0:0:0:
228,56,41947,2,0,P|204:60|148:64,1,64,0|2,0:0|0:0,0:0:0:0:
76,40,42180,6,0,B|88:84|88:84|80:196,1,128,8|2,0:0|0:0,0:0:0:0:
112,236,42529,1,0,0:0:0:0:
176,192,42645,2,0,P|236:172|312:192,1,128,8|0,0:1|0:0,0:0:0:0:
368,216,42994,1,2,0:0:0:0:
420,144,43110,6,0,P|428:100|392:24,1,128,8|2,0:0|0:0,0:0:0:0:
320,12,43459,1,0,0:0:0:0:
260,60,43575,2,0,P|264:92|268:144,1,64,8|0,0:1|0:0,0:0:0:0:
240,196,43808,2,0,P|244:228|248:280,1,64,8|2,0:1|0:0,0:0:0:0:
160,276,44040,6,0,P|157:244|153:212,1,64,8|8,0:0|0:1,0:0:0:0:
104,152,44273,2,0,P|101:120|97:88,1,64,2|0,0:0|0:0,0:0:0:0:
156,40,44505,2,0,P|216:24|284:52,1,128,8|8,0:1|0:3,0:0:0:0:
336,96,44854,1,4,0:3:0:0:
424,72,44970,6,0,P|460:76|508:80,1,64,8|0,0:1|0:0,0:0:0:0:
492,156,45203,2,0,P|460:153|428:149,1,64,4|0,0:3|0:0,0:0:0:0:
356,176,45436,1,8,0:1:0:0:
360,192,45552,1,8,0:1:0:0:
280,172,45668,1,0,0:0:0:0:
284,188,45784,1,8,0:1:0:0:
208,248,45901,6,0,P|164:244|100:240,1,80,12|0,0:0|0:0,0:0:0:0:
124,324,46133,2,0,P|163:326|203:330,1,80,10|0,0:1|0:0,0:0:0:0:
280,360,46366,2,0,P|319:358|359:354,1,80,8|0,0:2|0:0,0:0:0:0:
436,372,46598,1,10,0:1:0:0:
484,288,46715,6,0,B|480:232|480:232|457:189|457:189|452:125,1,160,8|8,0:2|0:2,0:0:0:0:
392,84,47063,2,0,P|340:68|244:124,1,160,10|8,0:1|0:2,0:0:0:0:
208,180,47412,1,8,0:2:0:0:
140,136,47529,2,0,P|144:96|148:48,1,80,10|0,0:1|0:0,0:0:0:0:
56,32,47761,6,0,P|52:71|48:111,1,80,8|0,0:2|0:0,0:0:0:0:
20,188,47994,2,0,P|23:227|27:267,1,80,10|0,0:1|0:0,0:0:0:0:
72,336,48226,2,0,P|112:328|160:324,1,80,8|0,0:2|0:0,0:0:0:0:
228,296,48459,1,10,0:1:0:0:
304,352,48575,6,0,P|320:316|272:212,1,160,8|8,0:2|0:2,0:0:0:0:
204,176,48924,2,0,P|160:180|108:184,1,80,10|0,0:1|0:0,0:0:0:0:
48,204,49156,1,8,0:2:0:0:
24,128,49273,1,8,0:2:0:0:
101,103,49389,2,0,P|140:99|180:96,1,80,10|0,0:1|0:0,0:0:0:0:
268,60,49622,6,0,P|312:64|432:72,1,160,8|10,0:2|0:1,0:0:0:0:
504,44,49970,1,0,0:0:0:0:
512,124,50087,2,0,P|508:160|504:224,1,80,8|0,0:2|0:0,0:0:0:0:
452,264,50319,2,0,P|456:300|460:364,1,80,10|8,0:1|0:2,0:0:0:0:
364,360,50552,6,0,P|361:320|356:280,1,80,0|8,0:0|0:2,0:0:0:0:
316,212,50784,2,0,P|272:192|168:240,1,160,10|8,0:1|0:2,0:0:0:0:
132,300,51133,1,8,0:2:0:0:
72,252,51250,2,0,P|76:220|80:152,1,80,10|0,0:1|0:0,0:0:0:0:
120,84,51482,5,8,0:2:0:0:
196,108,51598,1,8,0:2:0:0:
252,52,51715,2,0,P|288:56|352:60,1,80,14|0,0:1|0:0,0:0:0:0:
392,112,51947,2,0,P|428:116|492:120,1,80,14|0,0:1|0:0,0:0:0:0:
488,216,52180,6,0,P|448:213|408:208,1,80,8|8,0:2|0:1,0:0:0:0:
332,228,52412,1,8,0:1:0:0:
336,248,52529,1,8,0:1:0:0:
252,216,52645,1,8,0:1:0:0:
256,236,52761,1,2,0:1:0:0:
256,236,53343,6,0,P|216:208|128:216,1,128,4|0,0:0|0:0,0:0:0:0:
72,248,53691,1,0,0:0:0:0:
12,200,53808,2,0,P|16:144|20:60,1,128,8|0,0:1|0:0,0:0:0:0:
100,32,54156,6,0,P|148:28|188:36,1,64,8|0,0:1|0:0,0:0:0:0:
236,60,54389,2,0,P|292:52|380:48,1,128,8|0,0:1|0:0,0:0:0:0:
436,24,54738,1,8,0:1:0:0:
472,92,54854,2,0,B|480:132|480:132|464:232,1,128,8|0,0:2|0:0,0:0:0:0:
380,240,55203,6,0,P|348:238|316:235,1,64,8|8,0:2|0:1,0:0:0:0:
240,252,55436,1,8,0:1:0:0:
176,212,55551,1,0,0:0:0:0:
108,248,55668,2,0,P|112:280|120:388,1,128,8|0,0:1|0:0,0:0:0:0:
28,368,56017,6,0,P|24:312|20:280,1,64,8|0,0:1|0:0,0:0:0:0:
0,232,56249,2,0,P|4:160|12:88,1,128,8|0,0:1|0:0,0:0:0:0:
64,48,56598,1,8,0:1:0:0:
136,76,56715,2,0,B|208:84|192:44|268:56,1,128,0|0,0:0|0:0,0:0:0:0:
344,88,57063,6,0,P|372:128|360:212,1,128,8|0,0:2|0:0,0:0:0:0:
328,272,57412,1,8,0:2:0:0:
256,240,57528,2,0,P|216:244|124:252,1,128,8|0,0:1|0:0,0:0:0:0:
44,220,57877,6,0,P|32:184|36:136,1,64,8|0,0:1|0:0,0:0:0:0:
76,96,58110,1,0,0:0:0:0:
148,120,58226,2,0,P|184:116|240:112,1,64,0|0,0:2|0:0,0:0:0:0:
268,60,58459,2,0,P|304:56|360:52,1,64,8|0,0:1|0:0,0:0:0:0:
404,28,58691,1,0,0:0:0:0:
396,104,58808,1,0,0:0:0:0:
484,84,58924,6,0,B|492:120|492:120|484:224,1,128,8|0,0:2|0:0,0:0:0:0:
452,280,59273,1,8,0:2:0:0:
380,252,59389,2,0,P|336:252|304:256,1,64,10|0,0:1|0:0,0:0:0:0:
248,292,59622,2,0,P|216:294|184:294,1,64,10|0,0:1|0:0,0:0:0:0:
100,268,59854,5,8,0:2:0:0:
52,204,59970,1,8,0:1:0:0:
85,132,60086,1,8,0:1:0:0:
164,125,60202,1,8,0:1:0:0:
228,168,60319,5,8,0:1:0:0:
307,161,60435,1,8,0:1:0:0:
339,88,60551,1,8,0:1:0:0:
292,25,60667,1,8,0:1:0:0:
196,36,60784,6,0,P|160:32|96:28,1,80,4|0,0:0|0:0,0:0:0:0:
36,40,61017,2,0,P|40:64|44:124,1,80,10|0,0:1|0:0,0:0:0:0:
20,196,61250,2,0,P|24:220|28:280,1,80,8|0,0:2|0:0,0:0:0:0:
92,324,61482,1,10,0:1:0:0:
156,252,61598,6,0,P|228:216|320:256,1,160,8|8,0:2|0:2,0:0:0:0:
368,280,61947,2,0,P|364:324|360:376,1,80,10|0,0:1|0:0,0:0:0:0:
440,376,62180,2,0,P|443:336|446:296,1,80,8|8,0:2|0:2,0:0:0:0:
436,216,62412,1,10,0:1:0:0:
464,140,62529,1,0,0:0:0:0:
376,100,62645,6,0,P|328:104|264:108,1,80,8|0,0:2|0:0,0:0:0:0:
224,72,62877,2,0,P|176:76|112:80,1,80,10|0,0:1|0:0,0:0:0:0:
64,68,63110,2,0,P|68:92|72:156,1,80,8|0,0:2|0:0,0:0:0:0:
60,228,63343,1,10,0:1:0:0:
152,260,63459,6,0,B|236:280|236:228|312:248,1,160,8|8,0:0|0:2,0:0:0:0:
388,236,63808,2,0,P|384:280|384:336,1,80,10|0,0:1|0:0,0:0:0:0:
328,376,64040,1,8,0:2:0:0:
260,332,64156,1,8,0:2:0:0:
188,368,64273,2,0,P|160:364|92:360,1,80,10|0,0:1|0:0,0:0:0:0:
32,300,64505,6,0,P|20:256|32:204,1,80,8|0,0:2|0:0,0:0:0:0:
4,144,64738,2,0,P|26:104|71:76,1,80,10|0,0:1|0:0,0:0:0:0:
128,56,64970,1,8,0:2:0:0:
144,60,65087,1,8,0:2:0:0:
216,24,65203,1,10,0:1:0:0:
232,28,65320,1,2,0:1:0:0:
448,252,66133,5,4,0:0:0:0:
256,192,66191,12,0,69156,0:0:0:0:
