osu file format v14

[General]
AudioFilename: audio.mp3
AudioLeadIn: 0
PreviewTime: 8168
Countdown: 0
SampleSet: Soft
StackLeniency: 0.2
Mode: 0
LetterboxInBreaks: 0
WidescreenStoryboard: 1

[Editor]
Bookmarks: 784,8691,23575,36598,38459,45901,50087,53343,59622,60784
DistanceSpacing: 1
BeatDivisor: 4
GridSize: 32
TimelineZoom: 2.699999

[Metadata]
Title:HEKIREKI TV SIZE
TitleUnicode:HEKIREKI TV SIZE
Artist:LAST ALLIANCE
ArtistUnicode:LAST ALLIANCE
Creator:pkhg
Version:HARD
Source:はじめの一歩 New Challenger
Tags:hajime no ippo opening iyiyo hazu- happyrocket88 cris- ラスト・アライアンス
BeatmapID:1516698
BeatmapSetID:591331

[Difficulty]
HPDrainRate:5
CircleSize:3
OverallDifficulty:6
ApproachRate:8
SliderMultiplier:1.2
SliderTickRate:1

[Events]
//Background and Video events
0,0,"hajime-no-ippo-2551135-1920x1200.jpg",0,0
Video,460,"ippo.avi"
//Break Periods
//Storyboard Layer 0 (Background)
//Storyboard Layer 1 (Fail)
//Storyboard Layer 2 (Pass)
//Storyboard Layer 3 (Foreground)
//Storyboard Sound Samples

[TimingPoints]
1250,232.558139534884,4,2,1,80,1,0
8691,-111.111111111111,4,2,1,70,0,0
10552,-100,4,2,1,70,0,0
11947,-111.111111111111,4,2,1,70,0,0
17994,-100,4,2,1,70,0,0
19273,-111.111111111111,4,2,1,70,0,0
23575,-100,4,2,1,80,0,0
38459,-125,4,2,1,70,0,0
45901,-100,4,2,1,80,0,1
53343,-125,4,2,1,70,0,0
59854,-100,4,2,1,80,0,0
60784,-100,4,2,1,80,0,0
66191,-100,4,2,1,5,0,0

[Colours]
Combo1 : 210,210,210
Combo2 : 205,179,122

[HitObjects]
432,258,784,6,0,P|460:250|489:243,2,60,8|8|8,0:1|0:1|0:1,0:0:0:0:
364,319,1133,2,0,P|283:281|195:292,1,180,12|8,0:0|0:1,0:0:0:0:
91,384,1715,1,8,0:0:0:0:
42,261,1947,1,10,0:1:0:0:
42,261,2063,2,0,B|35:200|35:200|62:148|62:148|55:89,1,180,8|10,0:0|0:1,0:0:0:0:
159,0,2645,1,8,0:0:0:0:
187,140,2877,1,10,0:1:0:0:
187,140,2994,2,0,P|237:169|295:161,1,120,8|8,0:0|0:0,0:0:0:0:
364,101,3343,2,0,P|392:93|421:86,1,60,10|0,0:1|0:0,0:0:0:0:
497,136,3575,2,0,P|505:164|512:193,1,60,8|8,0:0|0:0,0:0:0:0:
456,265,3808,2,0,P|358:252|400:341,1,240,10|10,0:1|0:1,0:0:0:0:
400,341,4505,6,0,P|428:333|457:326,2,60,8|8|10,0:0|0:0|0:1,0:0:0:0:
309,342,4854,2,0,B|258:327|222:357|222:357|213:311|168:291,1,180,8|10,0:0|0:1,0:0:0:0:
35,326,5436,1,8,0:0:0:0:
69,196,5668,1,10,0:1:0:0:
69,196,5784,2,0,P|157:206|237:168,1,180,8|10,0:0|0:1,0:0:0:0:
304,47,6366,1,8,0:0:0:0:
429,118,6598,1,10,0:1:0:0:
429,118,6715,2,0,P|454:171|453:231,1,120,8|8,0:0|0:0,0:0:0:0:
389,293,7063,2,0,P|361:301|332:308,1,60,10|0,0:1|0:0,0:0:0:0:
251,351,7296,2,0,P|223:343|194:336,1,60,8|8,0:0|0:0,0:0:0:0:
104,352,7529,1,10,0:1:0:0:
104,352,7761,6,0,P|97:322|88:293,3,60,8|8|8|8,0:0|0:0|0:0|0:1,0:0:0:0:
133,215,8226,2,0,P|139:185|148:156,3,60,8|8|8|12,0:1|0:0|0:0|0:0,0:0:0:0:
215,90,8691,6,0,P|267:79|321:73,1,107.999996704102,12|8,0:0|0:1,0:0:0:0:
321,72,9156,2,0,P|346:80|373:85,1,53.9999983520508,8|0,0:0|0:0,0:0:0:0:
445,153,9389,1,8,0:1:0:0:
445,153,9505,2,0,P|455:205|461:259,1,107.999996704102,8|8,0:0|0:0,0:0:0:0:
408,335,9854,2,0,P|381:340|355:347,1,53.9999983520508,8|0,0:1|0:0,0:0:0:0:
274,302,10087,2,0,P|222:290|168:291,1,107.999996704102,8|8,0:0|0:1,0:0:0:0:
168,291,10552,6,0,B|141:253|97:250|97:250|107:235|109:216,1,120,8|8,0:0|0:1,0:0:0:0:
36,172,10901,2,0,B|74:145|77:101|77:101|92:111|110:113,1,120,0|0,0:0|0:0,0:0:0:0:
155,40,11250,2,0,B|182:78|226:81|226:81|216:96|213:114,1,120,8|0,0:1|0:0,0:0:0:0:
287,159,11599,2,0,B|249:186|246:230|246:230|231:220|212:217,1,120,8|0,0:0|0:0,0:0:0:0:
172,295,11947,1,8,0:0:0:0:
172,295,12063,2,0,P|164:320|159:347,1,53.9999983520508,8|8,0:0|0:1,0:0:0:0:
250,336,12296,6,0,P|302:325|356:319,1,107.999996704102,0|0,0:0|0:0,0:0:0:0:
448,325,12645,1,8,0:1:0:0:
501,213,12877,1,8,0:0:0:0:
501,213,12994,2,0,P|508:187|513:160,1,53.9999983520508,0|8,0:0|0:1,0:0:0:0:
470,80,13226,6,0,P|418:64|365:52,1,107.999996704102,8|8,0:0|0:0,0:0:0:0:
284,8,13575,2,0,P|258:15|231:20,1,53.9999983520508,8|0,0:1|0:0,0:0:0:0:
139,16,13808,2,0,P|125:39|111:62,1,53.9999983520508,8|8,0:0|0:0,0:0:0:0:
42,124,14041,1,8,0:1:0:0:
116,224,14273,6,0,P|100:274|133:314,1,107.999996704102,8|8,0:0|0:1,0:0:0:0:
224,297,14622,2,0,P|239:247|206:207,1,107.999996704102,0|0,0:0|0:0,0:0:0:0:
116,224,14970,2,0,P|67:163|92:90,1,161.999995056153,8|8,0:1|0:0,0:0:0:0:
168,36,15436,2,0,P|194:30|221:27,1,53.9999983520508,8|0,0:1|0:0,0:0:0:0:
296,81,15668,2,0,P|322:83|349:89,2,53.9999983520508,8|8|8,0:0|0:0|0:1,0:0:0:0:
224,139,16017,6,0,P|213:191|207:245,1,107.999996704102,0|0,0:0|0:0,0:0:0:0:
140,309,16366,1,8,0:1:0:0:
140,309,16482,1,0,0:0:0:0:
201,373,16598,2,0,P|228:380|254:385,1,53.9999983520508,8|0,0:0|0:0,0:0:0:0:
343,369,16831,1,8,0:1:0:0:
388,290,16947,6,0,P|383:236|371:183,1,107.999996704102,8|8,0:0|0:0,0:0:0:0:
420,109,17296,2,0,P|425:81|432:56,1,53.9999983520508,8|0,0:1|0:0,0:0:0:0:
358,0,17529,2,0,P|332:5|306:12,1,53.9999983520508,8|8,0:0|0:0,0:0:0:0:
244,80,17761,1,8,0:1:0:0:
243,79,17994,6,0,P|184:80|125:93,1,120,8|8,0:0|0:1,0:0:0:0:
137,185,18343,2,0,P|196:184|255:171,1,120,0|0,0:0|0:0,0:0:0:0:
300,254,18691,2,0,L|121:275,1,180,8|8,0:1|0:0,0:0:0:0:
29,289,19156,1,8,0:1:0:0:
53,166,19389,2,0,P|51:140|45:113,2,53.9999983520508,8|8|8,0:0|0:0|0:1,0:0:0:0:
139,125,19738,6,0,L|246:112,1,107.999996704102,0|0,0:0|0:0,0:0:0:0:
314,50,20087,1,8,0:1:0:0:
314,50,20203,1,0,0:0:0:0:
394,95,20319,2,0,P|399:121|402:148,1,53.9999983520508,8|0,0:0|0:0,0:0:0:0:
345,222,20552,1,8,0:1:0:0:
345,220,20668,2,0,P|409:175|483:201,1,161.999995056153,8|8,0:0|0:1,0:0:0:0:
432,315,21250,2,0,L|439:368,2,53.9999983520508,8|8|8,0:0|0:0|0:1,0:0:0:0:
309,336,21715,6,0,P|257:320|204:308,1,107.999996704102,8|8,0:0|0:1,0:0:0:0:
130,255,22063,2,0,P|78:270|25:282,2,107.999996704102,0|8|8,0:0|0:1|0:0,0:0:0:0:
170,170,22645,6,0,L|176:116,2,53.9999983520508,8|8|8,0:1|0:0|0:0,0:0:0:0:
261,149,22994,2,0,L|266:95,2,53.9999983520508,8|8|8,0:1|0:0|0:0,0:0:0:0:
235,238,23343,1,12,0:1:0:0:
235,238,23575,6,0,P|293:237|339:200,1,120,12|10,0:0|0:1,0:0:0:0:
374,117,23924,1,0,0:0:0:0:
457,151,24040,2,0,P|482:204|481:264,1,120,8|10,0:0|0:1,0:0:0:0:
512,350,24389,2,0,P|459:325|399:326,1,120,8|8,0:0|0:0,0:0:0:0:
321,280,24738,2,0,P|293:288|264:295,1,60,10|0,0:1|0:0,0:0:0:0:
187,343,24970,2,0,P|157:336|128:327,1,60,8|8,0:0|0:0,0:0:0:0:
87,246,25203,1,10,0:1:0:0:
87,246,25436,6,0,P|93:216|102:187,3,60,8|0|10|0,0:0|0:0|0:1|0:0,0:0:0:0:
179,139,25901,2,0,P|208:145|237:154,3,60,8|0|10|8,0:0|0:0|0:1|0:0,0:0:0:0:
295,224,26366,2,0,P|323:232|353:239,3,60,0|8|10|0,0:0|0:0|0:1|0:3,0:0:0:0:
429,190,26831,2,0,P|437:161|444:131,3,60,8|8|10|0,0:0|0:0|0:1|0:3,0:0:0:0:
402,51,27296,6,0,P|349:26|289:27,1,120,8|10,0:0|0:1,0:0:0:0:
288,27,27761,2,0,P|259:35|230:41,1,60,8|0,0:0|0:0,0:0:0:0:
141,23,27994,1,10,0:1:0:0:
82,90,28111,2,0,P|57:143|59:203,1,120,8|8,0:0|0:0,0:0:0:0:
147,222,28459,2,0,P|172:168|170:108,2,120,10|8|10,0:1|0:0|0:1,0:0:0:0:
147,222,29156,6,0,P|153:252|162:281,3,60,8|0|10|0,0:0|0:0|0:1|0:0,0:0:0:0:
239,329,29621,2,0,P|268:323|297:314,3,60,8|0|10|8,0:0|0:0|0:1|0:0,0:0:0:0:
346,235,30087,2,0,P|340:205|331:176,3,60,0|8|10|0,0:0|0:0|0:1|0:0,0:0:0:0:
254,128,30552,2,0,P|225:134|196:143,3,60,8|8|10|0,0:0|0:0|0:1|0:0,0:0:0:0:
142,216,31017,6,0,P|140:275|165:329,1,120,8|10,0:0|0:1,0:0:0:0:
165,329,31482,2,0,P|193:320|222:314,1,60,8|0,0:0|0:0,0:0:0:0:
306,349,31715,1,10,0:1:0:0:
371,286,31832,2,0,P|372:226|347:172,1,120,8|8,0:0|0:0,0:0:0:0:
306,93,32180,2,0,P|359:118|419:116,2,120,10|8|10,0:1|0:0|0:1,0:0:0:0:
306,93,32877,6,0,P|277:101|248:107,3,60,8|0|10|0,0:0|0:0|0:1|0:0,0:0:0:0:
170,159,33343,2,0,P|140:152|112:144,3,60,8|0|10|8,0:0|0:0|0:1|0:0,0:0:0:0:
22,191,33808,2,0,P|13:219|7:248,3,60,0|8|10|0,0:0|0:0|0:1|0:3,0:0:0:0:
58,327,34274,2,0,P|64:356|72:384,3,60,8|8|10|0,0:0|0:0|0:1|0:0,0:0:0:0:
148,332,34738,6,0,P|173:278|171:218,1,120,8|10,0:0|0:1,0:0:0:0:
171,218,35203,2,0,P|162:189|156:160,1,60,8|0,0:0|0:0,0:0:0:0:
170,69,35436,1,10,0:1:0:0:
255,40,35552,2,0,P|314:38|368:63,1,120,8|8,0:0|0:0,0:0:0:0:
382,153,35901,2,0,P|373:181|367:210,1,60,10|0,0:1|0:0,0:0:0:0:
411,289,36133,2,0,P|440:295|468:303,2,60,8|8|10,0:0|0:0|0:1,0:0:0:0:
411,289,36598,6,0,P|382:297|353:303,1,60,8|8,0:0|0:1,0:0:0:0:
268,270,36831,1,8,0:1:0:0:
211,339,36947,2,0,P|153:327|93:328,2,120,10|8|8,0:0|0:0|0:0,0:0:0:0:
297,371,37529,1,8,0:0:0:0:
297,371,37761,2,0,P|303:341|306:311,1,60,8|8,0:1|0:1,0:0:0:0:
284,223,37994,2,0,P|277:193|274:163,3,60,8|0|8|2,0:0|0:0|0:0|0:1,0:0:0:0:
310,76,38459,6,0,P|368:38|437:51,1,144,12|0,0:0|0:0,0:0:0:0:
437,51,38924,1,8,0:1:0:0:
512,139,39156,1,0,0:0:0:0:
412,185,39389,2,0,P|386:251|407:322,1,144,8|0,0:0|0:0,0:0:0:0:
411,324,39854,2,0,L|306:338,1,96,8|0,0:1|0:0,0:0:0:0:
225,282,40319,5,8,0:0:0:0:
225,282,40436,2,0,L|82:261,1,144,0|8,0:0|0:1,0:0:0:0:
6,183,41017,1,0,0:0:0:0:
108,143,41250,2,0,L|250:163,1,144,8|0,0:0|0:0,0:0:0:0:
250,163,41715,1,8,0:1:0:0:
334,243,41947,1,0,0:0:0:0:
417,170,42180,6,0,P|444:105|420:39,1,144,8|0,0:0|0:0,0:0:0:0:
414,37,42645,1,8,0:1:0:0:
310,0,42877,1,0,0:0:0:0:
241,87,43110,1,8,0:0:0:0:
241,87,43227,2,0,L|98:66,1,144,0|8,0:0|0:1,0:0:0:0:
5,125,43808,1,8,0:1:0:0:
77,209,44040,5,8,0:0:0:0:
77,209,44156,2,0,P|97:255|95:311,1,96,8|0,0:1|0:0,0:0:0:0:
95,308,44505,1,8,0:1:0:0:
181,376,44738,1,8,0:3:0:0:
269,311,44970,2,0,L|364:298,1,96,8|4,0:1|0:3,0:0:0:0:
364,298,45436,1,8,0:1:0:0:
408,219,45552,2,0,L|395:123,1,96,8|8,0:1|0:1,0:0:0:0:
435,43,45901,6,0,P|382:68|323:62,1,120,12|10,0:0|0:1,0:0:0:0:
323,62,46366,2,0,P|269:36|210:42,1,120,8|10,0:2|0:1,0:0:0:0:
149,111,46715,2,0,P|155:169|129:223,1,120,8|8,0:2|0:2,0:0:0:0:
42,204,47063,2,0,P|35:145|61:91,1,120,10|8,0:1|0:2,0:0:0:0:
122,24,47412,1,8,0:2:0:0:
210,42,47529,2,0,P|239:35|267:26,1,60,10|0,0:1|0:0,0:0:0:0:
354,53,47761,6,0,P|379:106|373:165,1,120,8|10,0:2|0:1,0:0:0:0:
319,238,48110,1,0,0:0:0:0:
364,316,48226,2,0,P|310:290|251:296,1,120,8|10,0:2|0:1,0:0:0:0:
172,340,48575,2,0,P|197:286|191:227,1,120,8|8,0:2|0:2,0:0:0:0:
102,212,48924,2,0,P|76:265|82:324,2,120,10|8|10,0:1|0:2|0:1,0:0:0:0:
223,112,49622,6,0,P|281:105|335:131,1,120,8|10,0:2|0:1,0:0:0:0:
335,131,50087,2,0,P|364:124|392:115,1,60,8|0,0:2|0:0,0:0:0:0:
471,160,50319,2,0,P|477:189|486:217,1,60,10|8,0:1|0:2,0:0:0:0:
441,296,50552,2,0,P|412:302|384:311,1,60,0|8,0:0|0:2,0:0:0:0:
304,356,50784,2,0,B|253:341|217:371|217:371|208:325|163:305,1,180,10|8,0:1|0:2,0:0:0:0:
126,221,51250,2,0,B|141:170|111:134|111:134|157:125|177:80,1,180,10|8,0:1|0:2,0:0:0:0:
264,56,51715,2,0,P|293:62|321:71,1,60,14|0,0:1|0:0,0:0:0:0:
357,156,51947,2,0,P|350:185|341:213,1,60,14|0,0:1|0:0,0:0:0:0:
262,258,52180,1,8,0:2:0:0:
340,306,52296,5,8,0:1:0:0:
261,349,52412,2,0,P|231:355|203:364,1,60,8|8,0:1|0:1,0:0:0:0:
135,302,52645,2,0,P|106:292|77:286,1,60,8|2,0:1|0:1,0:0:0:0:
77,286,53343,6,0,P|71:238|62:191,1,96,4|0,0:0|0:0,0:0:0:0:
62,191,53808,2,0,P|67:143|76:96,1,96,8|0,0:1|0:0,0:0:0:0:
152,44,54156,1,8,0:1:0:0:
152,44,54273,2,0,P|199:49|246:58,1,96,0|8,0:0|0:2,0:0:0:0:
348,180,54738,1,8,0:1:0:0:
348,180,54855,2,0,P|395:174|442:165,1,96,8|0,0:2|0:0,0:0:0:0:
423,75,55203,5,12,0:2:0:0:
423,75,55320,2,0,P|375:80|328:89,1,96,8|8,0:1|0:2,0:0:0:0:
258,148,55668,2,0,L|115:127,1,144,8|8,0:1|0:1,0:0:0:0:
58,56,56133,2,0,L|65:-6,2,48,0|8|8,0:0|0:1|0:2,0:0:0:0:
66,208,56598,1,8,0:1:0:0:
66,208,56715,2,0,L|80:302,1,96,0|0,0:0|0:0,0:0:0:0:
159,349,57063,6,0,P|206:340|253:334,1,96,12|0,0:2|0:0,0:0:0:0:
312,267,57412,1,8,0:2:0:0:
312,267,57529,2,0,P|383:276|454:288,1,144,8|8,0:1|0:1,0:0:0:0:
460,294,57994,2,0,P|466:246|474:199,1,96,0|8,0:0|0:2,0:0:0:0:
383,87,58459,2,0,P|312:99|240:108,1,144,8|0,0:1|0:0,0:0:0:0:
175,53,58924,5,8,0:2:0:0:
175,53,59040,2,0,P|127:44|80:38,1,96,8|8,0:1|0:2,0:0:0:0:
16,100,59389,2,0,P|7:147|1:194,1,96,12|12,0:1|0:1,0:0:0:0:
88,302,59854,6,0,P|116:293|145:287,3,60,8|8|8|8,0:2|0:1|0:1|0:1,0:0:0:0:
223,236,60319,2,0,P|252:242|280:250,3,60,8|8|8|8,0:1|0:1|0:1|0:1,0:0:0:0:
349,313,60784,6,0,P|402:287|462:289,2,120,4|10|8,0:0|0:1|0:2,0:0:0:0:
222,366,61482,1,10,0:1:0:0:
222,366,61598,2,0,P|168:340|108:342,1,120,8|8,0:2|0:2,0:0:0:0:
43,279,61947,2,0,P|51:250|58:221,1,60,10|0,0:1|0:0,0:0:0:0:
126,157,62180,2,0,P|155:150|183:141,1,60,8|8,0:2|0:2,0:0:0:0:
263,192,62412,6,0,P|337:236|420:208,1,180,10|0,0:1|0:0,0:0:0:0:
458,125,62877,2,0,P|450:95|442:66,1,60,10|0,0:1|0:0,0:0:0:0:
361,24,63110,2,0,P|331:31|302:39,1,60,8|0,0:2|0:0,0:0:0:0:
240,105,63343,1,10,0:1:0:0:
263,192,63459,2,0,P|271:251|275:311,1,120,8|8,0:0|0:2,0:0:0:0:
186,293,63808,2,0,P|177:233|173:173,2,120,10|8|10,0:1|0:2|0:1,0:0:0:0:
353,366,64505,6,0,P|361:306|365:246,1,120,8|10,0:2|0:1,0:0:0:0:
365,246,64970,2,0,P|372:216|380:187,1,60,8|8,0:2|0:2,0:0:0:0:
319,119,65203,2,0,P|311:89|303:60,1,60,10|2,0:1|0:1,0:0:0:0:
303,60,66133,1,4,0:0:0:0:
256,192,66191,12,0,69156,0:0:0:0:
