osu file format v14

[General]
AudioFilename: audio.mp3
AudioLeadIn: 0
PreviewTime: 8168
Countdown: 1
SampleSet: Soft
StackLeniency: 0.2
Mode: 2
LetterboxInBreaks: 0
WidescreenStoryboard: 1

[Editor]
Bookmarks: 14854,23575,25436,27296,29156,31017,32877,34738,36598,38459,45901,53343,59622,60784
DistanceSpacing: 1
BeatDivisor: 4
GridSize: 8
TimelineZoom: 2.699999

[Metadata]
Title:HEKIREKI TV SIZE
TitleUnicode:HEKIREKI TV SIZE
Artist:LAST ALLIANCE
ArtistUnicode:LAST ALLIANCE
Creator:Tyrell
Version:Fight On!!!
Source:はじめの一歩 New Challenger
Tags:hajime no ippo opening
BeatmapID:1781135
BeatmapSetID:852076

[Difficulty]
HPDrainRate:5
CircleSize:3.4
OverallDifficulty:9.6
ApproachRate:9.6
SliderMultiplier:1.8
SliderTickRate:1

[Events]
//Background and Video events
0,0,"hajime-no-ippo-2551135-1920x1200.jpg",0,0
Video,0,"Hajime_no_Ippo_New_Challenger_OP.avi"
//Break Periods
//Storyboard Layer 0 (Background)
//Storyboard Layer 1 (Fail)
//Storyboard Layer 2 (Pass)
//Storyboard Layer 3 (Foreground)
//Storyboard Sound Samples

[TimingPoints]
1250,232.558139534884,4,2,1,80,1,0
8691,-100,4,2,1,70,0,0
23575,-100,4,2,1,80,0,0
38459,-100,4,2,1,70,0,0
45901,-100,4,2,1,80,0,1
53343,-100,4,2,1,70,0,0
59854,-100,4,2,1,80,0,0
60784,-100,4,2,1,80,0,0
66191,-100,4,2,1,5,0,0

[HitObjects]
192,192,784,6,0,L|88:192,2,90,8|8|8,0:1|0:1|0:1,0:0:0:0:
376,192,1133,2,0,B|472:192|472:192|368:192,1,180,8|8,0:0|0:0,0:0:0:0:
200,288,1482,2,0,L|88:288,1,90,10|0,0:1|0:0,0:0:0:0:
232,184,1715,2,0,L|136:184,1,90,8|8,0:0|0:0,0:0:0:0:
328,280,1947,5,10,0:1:0:0:
400,208,2063,2,0,B|464:128|464:128|376:128,1,180,8|8,0:0|0:0,0:0:0:0:
200,288,2412,2,0,L|88:288,1,90,10|0,0:1|0:0,0:0:0:0:
232,192,2645,2,0,L|232:88,1,90,8|8,0:0|0:0,0:0:0:0:
424,104,2877,5,10,0:1:0:0:
352,216,2994,2,0,B|256:216|256:216|368:216,1,180,8|8,0:0|0:0,0:0:0:0:
144,128,3343,2,0,L|40:128,1,90,10|0,0:1|0:0,0:0:0:0:
176,216,3575,2,0,L|56:216,1,90,8|8,0:0|0:0,0:0:0:0:
280,304,3808,5,10,0:1:0:0:
352,240,3924,2,0,B|416:168|416:168|480:96,1,180,8|8,0:0|0:0,0:0:0:0:
240,104,4273,2,0,L|120:104,1,90,10|0,0:1|0:0,0:0:0:0:
376,336,4505,1,8,0:0:0:0:
176,336,4622,1,8,0:0:0:0:
408,272,4738,1,10,0:1:0:0:
192,224,4854,6,0,B|96:224|96:224|200:224,1,180,8|8,0:0|0:0,0:0:0:0:
368,152,5203,2,0,L|464:152,1,90,10|0,0:1|0:0,0:0:0:0:
328,288,5436,2,0,L|328:192,1,90,8|8,0:0|0:0,0:0:0:0:
144,128,5668,1,10,0:1:0:0:
72,240,5784,6,0,B|72:336|72:336|176:336,1,180,8|8,0:0|0:0,0:0:0:0:
360,328,6133,2,0,L|360:224,1,90,10|0,0:1|0:0,0:0:0:0:
232,152,6366,2,0,L|232:48,1,90,8|8,0:0|0:0,0:0:0:0:
440,56,6598,1,10,0:1:0:0:
368,136,6715,6,0,B|304:208|304:208|208:208|224:208,1,180,8|8,0:0|0:0,0:0:0:0:
416,336,7063,2,0,L|416:240,1,90,10|0,0:1|0:0,0:0:0:0:
296,152,7296,2,0,L|416:152,1,90,8|8,0:0|0:0,0:0:0:0:
184,80,7529,2,0,L|80:80,1,90,10|0,0:1|0:0,0:0:0:0:
368,336,7761,5,8,0:0:0:0:
416,280,7819,1,0,0:0:0:0:
416,208,7877,1,8,0:0:0:0:
368,144,7936,1,0,0:0:0:0:
160,312,7994,1,8,0:0:0:0:
112,256,8052,1,0,0:0:0:0:
112,176,8110,1,8,0:1:0:0:
160,112,8168,1,0,0:0:0:0:
376,112,8226,6,0,L|456:32,2,90,8|8|8,0:1|0:0|0:0,0:0:0:0:
144,200,8575,1,12,0:0:0:0:
368,296,8691,6,0,L|472:296,1,90,12|0,0:0|0:0,0:0:0:0:
328,216,8924,2,0,L|328:120,1,90,8|0,0:1|0:0,0:0:0:0:
200,96,9156,2,0,L|96:96,1,90,8|0,0:0|0:0,0:0:0:0:
240,288,9389,1,8,0:1:0:0:
368,288,9505,6,0,B|480:288|480:288|384:288,1,180,8|8,0:0|0:0,0:0:0:0:
280,168,9854,2,0,L|400:168,1,90,8|0,0:1|0:0,0:0:0:0:
240,72,10087,2,0,L|144:72,1,90,8|8,0:0|0:0,0:0:0:0:
280,216,10319,2,0,L|408:216,1,90,8|0,0:1|0:0,0:0:0:0:
168,320,10552,6,0,L|48:320,1,90,8|0,0:0|0:0,0:0:0:0:
208,248,10784,1,8,0:1:0:0:
392,248,10901,2,0,L|488:248,2,90,0|0|0,0:0|0:0|0:0,0:0:0:0:
192,128,11250,2,0,L|96:128,1,90,8|8,0:1|0:0,0:0:0:0:
312,56,11482,6,0,L|416:56,1,90,0|8,0:0|0:0,0:0:0:0:
272,216,11715,2,0,L|272:120,1,90,8|0,0:1|0:0,0:0:0:0:
400,328,11947,1,8,0:0:0:0:
272,328,12063,2,0,L|168:328,2,90,8|8|0,0:0|0:1|0:0,0:0:0:0:
464,208,12412,6,0,L|464:104,1,90,0|0,0:0|0:0,0:0:0:0:
336,64,12645,2,0,L|240:64,1,90,8|0,0:1|0:0,0:0:0:0:
120,216,12877,2,0,P|120:112|120:120,1,90,8|0,0:0|0:0,0:0:0:0:
248,216,13110,1,8,0:1:0:0:
432,216,13226,6,0,B|480:128|480:128|392:128,1,180,8|8,0:0|0:0,0:0:0:0:
272,304,13575,2,0,L|160:304,1,90,8|0,0:1|0:0,0:0:0:0:
376,296,13808,2,0,L|376:192,1,90,8|8,0:0|0:0,0:0:0:0:
152,160,14040,2,0,L|152:56,1,90,8|0,0:1|0:0,0:0:0:0:
376,64,14273,6,0,L|472:64,1,90,8|0,0:0|0:0,0:0:0:0:
336,312,14505,1,8,0:1:0:0:
128,240,14622,2,0,L|24:240,2,90,0|0|0,0:0|0:0|0:0,0:0:0:0:
256,232,14970,1,8,0:1:0:0:
328,232,15087,6,0,B|448:232|448:232|360:232,1,180,8|8,0:0|0:0,0:0:0:0:
256,304,15436,2,0,L|360:304,1,90,8|0,0:1|0:0,0:0:0:0:
472,160,15668,2,0,L|376:160,1,90,8|8,0:0|0:0,0:0:0:0:
256,72,15901,2,0,L|144:72,1,90,8|0,0:1|0:0,0:0:0:0:
376,256,16133,6,0,L|376:160,1,90,0|0,0:0|0:0,0:0:0:0:
248,328,16366,2,0,L|136:328,1,90,8|0,0:1|0:0,0:0:0:0:
288,224,16598,2,0,L|400:224,1,90,8|0,0:0|0:0,0:0:0:0:
248,112,16831,1,8,0:1:0:0:
120,136,16947,6,0,B|24:136|24:136|112:128,1,180,8|8,0:0|0:0,0:0:0:0:
240,328,17296,2,0,L|240:232,1,90,8|0,0:1|0:0,0:0:0:0:
368,320,17529,2,0,L|368:224,1,90,8|8,0:0|0:0,0:0:0:0:
240,120,17761,2,0,L|344:120,1,90,8|0,0:1|0:0,0:0:0:0:
128,328,17994,6,0,L|32:328,1,90,8|0,0:0|0:0,0:0:0:0:
168,256,18226,1,8,0:1:0:0:
368,192,18343,2,0,L|488:192,2,90,0|0|0,0:0|0:0|0:0,0:0:0:0:
240,80,18691,2,0,L|120:80,1,90,8|8,0:1|0:0,0:0:0:0:
352,336,18924,6,0,L|456:336,1,90,0|8,0:0|0:0,0:0:0:0:
312,232,19156,2,0,L|312:136,1,90,8|0,0:1|0:0,0:0:0:0:
184,232,19389,2,0,L|184:128,1,90,8|8,0:0|0:0,0:0:0:0:
56,224,19622,2,0,L|56:96,1,90,8|0,0:1|0:0,0:0:0:0:
272,336,19854,6,0,L|376:336,1,90,0|0,0:0|0:0,0:0:0:0:
232,168,20087,2,0,L|336:168,2,90,8|0|8,0:1|0:0|0:0,0:0:0:0:
360,80,20436,1,0,0:0:0:0:
232,264,20552,1,8,0:1:0:0:
360,256,20668,6,0,B|464:256|464:256|352:256,1,180,8|8,0:0|0:0,0:0:0:0:
256,144,21017,2,0,L|160:144,1,90,8|0,0:1|0:0,0:0:0:0:
296,328,21250,2,0,L|296:224,1,90,8|8,0:0|0:0,0:0:0:0:
424,208,21482,2,0,L|424:112,1,90,8|0,0:1|0:0,0:0:0:0:
192,56,21715,6,0,L|80:56,1,90,8|0,0:0|0:0,0:0:0:0:
232,264,21947,2,0,L|136:264,1,90,8|0,0:1|0:0,0:0:0:0:
272,176,22180,1,8,0:0:0:0:
456,168,22296,2,0,L|360:168,2,90,8|8|8,0:1|0:0|0:0,0:0:0:0:
256,344,22645,6,0,L|136:344,1,90,8|8,0:1|0:0,0:0:0:0:
136,280,22819,1,0,0:0:0:0:
360,280,22877,2,0,L|472:280,1,90,8|8,0:0|0:1,0:0:0:0:
480,240,23052,1,0,0:0:0:0:
256,88,23110,6,0,L|160:88,1,90,8|8,0:0|0:0,0:0:0:0:
353,183,23343,2,0,L|481:183,1,90,12|0,0:1|0:0,0:0:0:0:
318,335,23575,6,0,L|217:334,1,90,12|0,0:0|0:0,0:0:0:0:
364,251,23808,2,0,L|365:157,1,90,10|0,0:1|0:0,0:0:0:0:
271,82,24040,2,0,L|386:83,1,90,8|0,0:0|0:0,0:0:0:0:
226,226,24273,2,0,L|107:226,2,90,10|8|0,0:1|0:0|0:0,0:0:0:0:
353,146,24622,5,8,0:0:0:0:
218,323,24738,2,0,L|218:217,1,90,10|0,0:1|0:0,0:0:0:0:
344,93,24970,1,8,0:0:0:0:
217,277,25087,1,8,0:0:0:0:
352,340,25203,2,0,L|458:339,1,90,10|0,0:1|0:0,0:0:0:0:
216,162,25436,6,0,L|106:162,1,90,8|0,0:0|0:0,0:0:0:0:
350,88,25668,2,0,L|452:88,1,90,10|0,0:1|0:0,0:0:0:0:
205,288,25901,2,0,L|95:288,1,90,8|0,0:0|0:0,0:0:0:0:
339,214,26133,2,0,L|441:214,1,90,10|8,0:1|0:0,0:0:0:0:
175,132,26366,6,0,L|175:38,1,90,0|8,0:0|0:0,0:0:0:0:
408,329,26598,2,0,L|312:328,1,90,10|0,0:1|0:3,0:0:0:0:
65,235,26831,2,0,L|65:124,1,90,8|8,0:0|0:0,0:0:0:0:
379,230,27063,2,0,L|379:122,1,90,10|0,0:1|0:3,0:0:0:0:
189,334,27296,6,0,L|86:334,1,90,8|0,0:0|0:0,0:0:0:0:
235,250,27529,2,0,L|236:156,1,90,10|0,0:1|0:0,0:0:0:0:
363,84,27761,2,0,L|478:85,1,90,8|0,0:0|0:0,0:0:0:0:
317,237,27994,2,0,L|198:237,2,90,10|8|0,0:1|0:0|0:0,0:0:0:0:
181,151,28343,5,8,0:0:0:0:
46,328,28459,2,0,L|46:222,1,90,10|0,0:1|0:0,0:0:0:0:
172,98,28691,1,8,0:0:0:0:
45,282,28808,1,8,0:0:0:0:
180,345,28924,2,0,L|69:346,1,90,10|0,0:1|0:0,0:0:0:0:
332,167,29156,6,0,L|442:167,1,90,8|0,0:0|0:0,0:0:0:0:
198,93,29388,2,0,L|96:93,1,90,10|0,0:1|0:0,0:0:0:0:
343,293,29621,2,0,L|453:293,1,90,8|0,0:0|0:0,0:0:0:0:
209,219,29853,2,0,L|107:219,1,90,10|8,0:1|0:0,0:0:0:0:
373,137,30086,6,0,L|373:43,1,90,0|8,0:0|0:0,0:0:0:0:
140,334,30318,2,0,L|236:333,1,90,10|0,0:1|0:0,0:0:0:0:
483,240,30551,2,0,L|483:129,1,90,8|8,0:0|0:0,0:0:0:0:
124,235,30783,2,0,L|124:127,1,90,10|0,0:1|0:0,0:0:0:0:
325,308,31017,6,0,L|445:310,3,90,8|0|10|0,0:0|0:0|0:1|0:0,0:0:0:0:
279,215,31482,2,0,L|163:215,3,90,8|0|10|8,0:0|0:0|0:1|0:0,0:0:0:0:
53,115,31947,2,0,L|170:116,3,90,0|8|10|0,0:0|0:0|0:1|0:0,0:0:0:0:
270,336,32412,2,0,L|388:337,1,90,8|8,0:0|0:0,0:0:0:0:
223,183,32645,2,0,L|100:182,1,90,10|0,0:1|0:0,0:0:0:0:
402,186,32877,6,0,L|285:186,1,90,8|0,0:0|0:0,0:0:0:0:
88,96,33109,2,0,L|190:96,1,90,10|0,0:1|0:0,0:0:0:0:
368,275,33342,2,0,L|478:275,1,90,8|0,0:0|0:0,0:0:0:0:
234,231,33574,2,0,L|132:231,1,90,10|8,0:1|0:0,0:0:0:0:
416,154,33807,6,0,L|307:154,1,90,0|8,0:0|0:0,0:0:0:0:
56,324,34039,2,0,L|152:323,1,90,10|0,0:1|0:3,0:0:0:0:
419,256,34272,2,0,L|419:145,1,90,8|8,0:0|0:0,0:0:0:0:
59,225,34504,2,0,L|59:117,1,90,10|0,0:1|0:3,0:0:0:0:
325,308,34738,6,0,L|445:310,3,90,8|0|10|0,0:0|0:0|0:1|0:0,0:0:0:0:
279,215,35203,2,0,L|163:215,3,90,8|0|10|8,0:0|0:0|0:1|0:0,0:0:0:0:
325,126,35668,2,0,L|442:127,3,90,0|8|10|0,0:0|0:0|0:1|0:0,0:0:0:0:
207,337,36133,2,0,L|89:338,1,90,8|8,0:0|0:0,0:0:0:0:
343,190,36366,2,0,L|466:189,1,90,10|0,0:1|0:0,0:0:0:0:
120,99,36598,6,0,L|217:99,2,90,8|8|8,0:0|0:1|0:1,0:0:0:0:
392,317,36947,2,0,L|297:317,1,90,10|0,0:0|0:0,0:0:0:0:
76,221,37180,2,0,L|169:222,2,90,8|10|8,0:0|0:1|0:0,0:0:0:0:
351,158,37529,6,0,L|463:158,1,90,0|0,0:0|0:0,0:0:0:0:
171,76,37761,1,8,0:1:0:0:
395,309,37877,1,8,0:1:0:0:
169,240,37994,2,0,L|47:240,3,90,8|0|8|2,0:0|0:0|0:0|0:1,0:0:0:0:
351,192,38459,6,0,B|448:192|448:192|342:192,1,180,12|0,0:0|0:0,0:0:0:0:
283,100,38808,1,0,0:0:0:0:
157,334,38924,2,0,B|156:245|156:245|274:245,1,180,8|0,0:1|0:0,0:0:0:0:
383,139,39273,1,2,0:1:0:0:
248,178,39389,6,0,B|347:178|347:178|346:83,1,180,8|2,0:0|0:1,0:0:0:0:
210,310,39738,1,0,0:0:0:0:
346,266,39854,2,0,L|346:168,1,90,8|0,0:1|0:0,0:0:0:0:
209,83,40087,2,0,L|88:81,1,90,0|2,0:0|0:1,0:0:0:0:
344,345,40319,6,0,B|438:345|438:345|330:346,1,180,8|2,0:0|0:1,0:0:0:0:
162,243,40668,2,0,B|54:243|54:243|163:243,1,180,0|0,0:0|0:0,0:0:0:0:
261,141,41017,2,0,L|139:140,1,90,0|2,0:0|0:0,0:0:0:0:
370,312,41250,6,0,B|370:221|369:221|252:222,1,180,8|2,0:0|0:0,0:0:0:0:
63,75,41598,2,0,L|179:223,1,180,0|0,0:0|0:0,0:0:0:0:
428,230,41947,2,0,L|428:135,1,90,0|2,0:0|0:0,0:0:0:0:
174,184,42180,6,0,B|77:184|77:184|183:184,1,180,8|2,0:0|0:0,0:0:0:0:
242,92,42529,1,0,0:0:0:0:
368,326,42645,2,0,B|369:237|369:237|251:237,1,180,8|0,0:1|0:0,0:0:0:0:
142,131,42994,1,2,0:0:0:0:
277,170,43110,6,0,B|178:170|178:170|179:75,1,180,8|2,0:0|0:0,0:0:0:0:
315,302,43459,1,0,0:0:0:0:
179,258,43575,2,0,L|179:160,1,90,8|0,0:1|0:0,0:0:0:0:
316,75,43808,2,0,L|437:73,1,90,8|2,0:1|0:0,0:0:0:0:
181,337,44040,6,0,B|87:337|87:337|195:338,1,180,8|2,0:0|0:0,0:0:0:0:
363,235,44389,2,0,B|471:235|471:235|362:235,1,180,0|0,0:0|0:0,0:0:0:0:
264,133,44738,2,0,L|386:132,1,90,8|4,0:3|0:3,0:0:0:0:
155,304,44971,6,0,B|155:213|156:213|273:214,1,180,8|4,0:1|0:3,0:0:0:0:
462,67,45319,2,0,L|346:215,1,180,0|8,0:0|0:1,0:0:0:0:
98,115,45668,1,0,0:0:0:0:
412,336,45784,1,8,0:1:0:0:
186,285,45901,6,0,L|60:285,1,90,12|0,0:0|0:0,0:0:0:0:
293,204,46133,2,0,L|294:110,1,90,10|0,0:1|0:0,0:0:0:0:
86,54,46366,2,0,L|188:55,1,90,8|0,0:2|0:0,0:0:0:0:
400,314,46598,1,10,0:1:0:0:
174,216,46715,6,0,B|174:125|174:125|287:125,1,180,8|8,0:2|0:2,0:0:0:0:
56,310,47063,2,0,L|157:309,1,90,10|0,0:1|0:0,0:0:0:0:
373,222,47296,1,8,0:2:0:0:
175,85,47412,1,8,0:2:0:0:
285,283,47529,2,0,L|405:283,1,90,10|0,0:1|0:0,0:0:0:0:
186,285,47761,6,0,L|60:285,1,90,8|0,0:2|0:0,0:0:0:0:
293,204,47993,2,0,L|294:110,1,90,10|0,0:1|0:0,0:0:0:0:
86,54,48226,2,0,L|188:55,1,90,8|0,0:2|0:0,0:0:0:0:
400,314,48458,1,10,0:1:0:0:
174,216,48575,6,0,B|174:125|174:125|287:125,1,180,8|8,0:2|0:2,0:0:0:0:
56,310,48923,2,0,L|157:309,1,90,10|0,0:1|0:0,0:0:0:0:
373,222,49156,1,8,0:2:0:0:
174,80,49273,1,8,0:2:0:0:
285,283,49389,2,0,L|405:283,1,90,10|0,0:1|0:0,0:0:0:0:
149,240,49622,6,0,L|150:147,1,90,8|0,0:2|0:0,0:0:0:0:
285,84,49854,2,0,L|397:84,1,90,10|0,0:1|0:0,0:0:0:0:
176,323,50087,2,0,L|176:221,1,90,8|0,0:2|0:0,0:0:0:0:
400,166,50319,1,10,0:1:0:0:
110,189,50436,6,0,B|213:190|213:190|99:189,1,180,8|8,0:2|0:2,0:0:0:0:
361,332,50784,2,0,L|361:237,1,90,10|0,0:1|0:0,0:0:0:0:
226,158,51017,2,0,L|226:58,1,90,8|8,0:2|0:2,0:0:0:0:
452,244,51250,2,0,L|452:136,1,90,10|0,0:1|0:0,0:0:0:0:
228,290,51482,5,8,0:2:0:0:
425,89,51598,1,8,0:2:0:0:
199,215,51715,2,0,B|104:214|104:214|202:216,1,180,14|14,0:1|0:1,0:0:0:0:
386,301,52063,2,0,L|485:302,1,90,0|8,0:0|0:2,0:0:0:0:
24,137,52296,5,8,0:1:0:0:
230,134,52412,1,8,0:1:0:0:
440,132,52529,1,8,0:1:0:0:
230,134,52645,1,8,0:1:0:0:
24,137,52761,1,2,0:1:0:0:
338,338,53343,6,0,B|432:338|432:338|337:338,1,180,12|0,0:0|0:0,0:0:0:0:
148,229,53691,1,0,0:0:0:0:
275,156,53808,2,0,B|377:157|377:157|377:248,1,180,8|0,0:1|0:0,0:0:0:0:
153,73,54156,2,0,L|255:73,1,90,8|0,0:1|0:0,0:0:0:0:
441,346,54389,2,0,L|341:346,2,90,8|8|0,0:1|0:2|0:0,0:0:0:0:
305,249,54738,2,0,L|412:249,2,90,8|8|0,0:1|0:2|0:0,0:0:0:0:
78,138,55087,1,0,0:0:0:0:
338,338,55203,6,0,B|432:338|432:338|337:338,1,180,12|8,0:2|0:1,0:0:0:0:
148,229,55551,1,0,0:0:0:0:
275,240,55668,2,0,B|173:241|173:241|173:332,1,180,8|0,0:1|0:0,0:0:0:0:
371,99,56016,2,0,L|473:99,1,90,8|0,0:1|0:0,0:0:0:0:
171,206,56249,2,0,L|271:206,2,90,8|8|0,0:1|0:2|0:0,0:0:0:0:
298,323,56598,2,0,L|191:323,2,90,8|0|0,0:1|0:0|0:0,0:0:0:0:
69,138,56947,1,0,0:0:0:0:
338,338,57063,6,0,B|432:338|432:338|337:338,1,180,12|0,0:2|0:0,0:0:0:0:
148,229,57411,1,8,0:2:0:0:
275,156,57528,2,0,B|377:157|377:157|377:248,1,180,8|0,0:1|0:0,0:0:0:0:
153,73,57876,2,0,L|255:73,1,90,8|0,0:1|0:0,0:0:0:0:
444,347,58110,5,0,0:0:0:0:
346,164,58226,1,8,0:2:0:0:
445,66,58343,1,0,0:0:0:0:
185,327,58459,1,8,0:1:0:0:
279,235,58575,1,0,0:0:0:0:
177,147,58691,1,0,0:0:0:0:
422,215,58808,1,0,0:0:0:0:
197,75,58924,5,8,0:2:0:0:
394,340,59040,2,0,B|394:246|394:246|298:246,1,180,8|8,0:1|0:2,0:0:0:0:
181,142,59389,2,0,L|68:142,1,90,12|0,0:1|0:0,0:0:0:0:
363,61,59622,2,0,L|464:62,1,90,12|0,0:1|0:0,0:0:0:0:
184,338,59854,5,8,0:2:0:0:
85,251,59970,1,8,0:1:0:0:
184,184,60087,1,8,0:1:0:0:
292,103,60203,1,8,0:1:0:0:
95,309,60319,1,8,0:1:0:0:
195,240,60436,1,8,0:1:0:0:
294,173,60552,1,8,0:1:0:0:
187,63,60668,1,8,0:1:0:0:
394,337,60784,6,0,L|281:338,1,90,4|0,0:0|0:0,0:0:0:0:
177,167,61017,2,0,L|177:77,1,90,10|0,0:1|0:0,0:0:0:0:
376,278,61250,2,0,L|376:185,1,90,8|0,0:2|0:0,0:0:0:0:
241,88,61482,1,10,0:1:0:0:
448,348,61598,6,0,L|325:212,1,180,8|8,0:2|0:2,0:0:0:0:
129,128,61947,2,0,L|226:128,2,90,10|0|8,0:1|0:0|0:2,0:0:0:0:
356,316,62296,1,8,0:2:0:0:
157,237,62412,2,0,L|55:236,1,90,10|0,0:1|0:0,0:0:0:0:
339,64,62645,6,0,L|451:64,1,90,8|0,0:2|0:0,0:0:0:0:
303,222,62877,2,0,L|304:120,1,90,10|0,0:1|0:0,0:0:0:0:
106,341,63110,2,0,L|231:341,1,90,8|0,0:2|0:0,0:0:0:0:
423,265,63343,1,10,0:1:0:0:
154,145,63459,6,0,B|51:144|51:144|166:145,1,180,8|8,0:0|0:2,0:0:0:0:
382,72,63808,2,0,L|276:73,2,90,10|0|8,0:1|0:0|0:2,0:0:0:0:
158,263,64156,1,8,0:2:0:0:
430,348,64273,2,0,L|328:348,1,90,10|0,0:1|0:0,0:0:0:0:
142,170,64505,6,0,L|253:170,1,90,8|0,0:2|0:0,0:0:0:0:
449,229,64738,2,0,L|449:130,1,90,10|0,0:1|0:0,0:0:0:0:
36,263,64970,1,8,0:2:0:0:
241,263,65087,1,8,0:2:0:0:
448,264,65203,1,10,0:1:0:0:
90,128,65319,1,2,0:1:0:0:
408,231,66133,5,4,0:0:0:0:
256,192,66191,12,0,68924,0:0:0:0:
