osu file format v14

[General]
AudioFilename: HNI Op.mp3
AudioLeadIn: 0
PreviewTime: 45668
Countdown: 0
SampleSet: None
StackLeniency: 0.7
Mode: 0
LetterboxInBreaks: 1
WidescreenStoryboard: 0

[Editor]
DistanceSpacing: 1
BeatDivisor: 4
GridSize: 4
TimelineZoom: 2.699999

[Metadata]
Title:HEKIREKI
TitleUnicode:HEKIREKI
Artist:LAST ALLIANCE
ArtistUnicode:LAST ALLIANCE
Creator:kayiedee
Version:Victory
Source:はじめの一歩: New Challenger
Tags:hajime no ippo rock estellia- Ameth Rianno
BeatmapID:976078
BeatmapSetID:455357

[Difficulty]
HPDrainRate:6.6
CircleSize:4.4
OverallDifficulty:8.8
ApproachRate:9.9
SliderMultiplier:1.4
SliderTickRate:1

[Events]
//Background and Video events
0,0,"hajime-no-ippo-2551135-1920x1200.jpg",0,0
//Break Periods
//Storyboard Layer 0 (Background)
//Storyboard Layer 1 (Fail)
//Storyboard Layer 2 (Pass)
//Storyboard Layer 3 (Foreground)
//Storyboard Sound Samples

[TimingPoints]
-610,232.558139534884,4,3,1,80,1,0
8808,-100,4,3,1,100,0,0
9040,-100,4,3,1,80,0,0
38459,-133.333333333333,4,3,1,50,0,0
45552,-100,4,3,1,60,0,0
45668,-100,4,3,1,70,0,0
45784,-100,4,3,1,80,0,0
45901,-83.3333333333333,4,3,1,40,0,1
46017,-83.3333333333333,4,3,1,100,0,1
46249,-83.3333333333333,4,3,1,80,0,1
52877,-133.333333333333,4,3,1,40,0,0
53343,-83.3333333333333,4,3,1,80,0,1
60901,-83.3333333333333,4,3,1,100,0,1
61133,-83.3333333333333,4,3,1,80,0,1
65320,-133.333333333333,4,3,1,80,0,0

[Colours]
Combo1 : 128,128,128
Combo2 : 128,64,0
Combo3 : 255,0,0
Combo4 : 64,0,0
Combo5 : 255,128,0

[HitObjects]
424,173,785,5,0,0:0:0:0:
388,376,901,1,0,0:0:0:0:
493,219,1017,1,0,0:0:0:0:
375,116,1134,6,0,P|352:192|384:240,1,140
416,44,1483,2,0,P|372:32|332:48,1,69.9999999999999,8|0,0:0|0:0,0:0:0:0:
336,188,1715,2,0,P|380:200|420:184,1,69.9999999999999
375,116,1948,1,8,0:0:0:0:
216,64,2064,2,0,B|168:48|168:48|76:68,1,140
164,140,2413,2,0,B|176:176|176:176|168:224,1,69.9999999999999,8|0,0:0|0:0,0:0:0:0:
56,284,2645,2,0,B|44:248|44:248|52:196,1,69.9999999999999
231,179,2878,1,8,0:0:0:0:
436,332,2994,6,0,B|388:348|388:348|340:348|340:348|292:332,1,140
160,192,3343,2,0,P|168:140|192:120,1,69.9999999999999,8|0,0:0|0:0,0:0:0:0:
364,36,3576,1,0,0:0:0:0:
364,248,3692,1,0,0:0:0:0:
231,179,3808,1,8,0:0:0:0:
468,36,3924,2,0,B|475:123|475:123|468:192,1,140
364,36,4273,1,8,0:0:0:0:
440,304,4506,2,0,P|452:248|440:216,1,69.9999999999999
364,36,4738,1,8,0:0:0:0:
352,256,4855,6,0,B|360:192|360:192|340:124|340:124|352:36,1,210,0|8,0:0|0:0,0:0:0:0:
256,136,5320,1,0,0:0:0:0:
440,108,5436,1,0,0:0:0:0:
188,164,5552,1,0,0:0:0:0:
372,184,5669,1,8,0:0:0:0:
197,91,5785,6,0,P|128:120|120:188,1,140
256,224,6134,2,0,B|296:228|296:228|344:216,1,69.9999999999999,8|0,0:0|0:0,0:0:0:0:
197,91,6366,2,0,B|157:87|157:87|109:99,1,69.9999999999999
59,308,6599,2,0,B|99:312|99:312|147:300,1,69.9999999999999,8|0,0:0|0:0,0:0:0:0:
247,187,6831,1,0,0:0:0:0:
112,112,6948,1,0,0:0:0:0:
115,266,7064,1,8,0:0:0:0:
197,91,7180,1,0,0:0:0:0:
102,228,7296,1,0,0:0:0:0:
260,118,7413,1,0,0:0:0:0:
184,254,7529,6,0,B|220:241|220:241|256:216,1,69.9999999999999,8|0,0:0|0:0,0:0:0:0:
395,37,7762,2,0,B|373:68|373:68|359:110,1,69.9999999999999,8|0,0:0|0:0,0:0:0:0:
351,336,7994,2,0,B|349:297|349:297|337:255,1,69.9999999999999,8|0,0:0|0:0,0:0:0:0:
212,68,8227,1,0,0:0:0:0:
325,180,8343,1,0,0:0:0:0:
482,203,8459,1,0,3:0:0:0:
369,91,8576,6,0,P|284:88|240:216,1,210,0|4,0:0|0:0,0:0:0:0:
381,297,9041,2,0,P|380:240|316:176,1,140
287,266,9390,1,8,0:0:0:0:
482,203,9506,2,0,L|467:31,1,140
324,72,9855,2,0,B|322:95|322:95|392:88,1,70,8|0,0:0|0:0,0:0:0:0:
196,72,10087,2,0,B|194:95|194:95|264:88,1,70
68,72,10320,2,0,B|66:95|66:95|136:88,1,70,8|0,0:0|0:0,0:0:0:0:
112,300,10552,6,0,L|112:204,1,70
196,72,10785,1,8,0:0:0:0:
112,300,10901,2,0,L|136:207,1,70
252,101,11134,1,0,0:0:0:0:
112,300,11250,2,0,L|160:216,1,70,8|0,0:0|0:0,0:0:0:0:
237,179,11483,2,0,L|320:131,1,70
405,136,11715,2,0,L|501:136,1,70,8|0,0:0|0:0,0:0:0:0:
323,362,11948,2,0,P|304:328|304:272,2,70,0|0|8,0:0|0:0|0:0,0:0:0:0:
204,208,12296,6,0,B|252:220|252:220|296:208|296:208|368:220,1,140
472,264,12645,1,12,0:0:0:0:
300,300,12762,1,0,0:0:0:0:
417,169,12878,1,0,0:0:0:0:
398,343,12994,1,0,0:0:0:0:
310,190,13110,1,0,0:0:0:0:
462,246,13227,2,0,P|388:256|334:202,1,140
62,256,13576,2,0,P|101:279|114:328,1,70,8|0,0:0|0:0,0:0:0:0:
217,142,13808,2,0,P|216:187|180:223,1,70
393,219,14041,2,0,P|353:241|304:228,1,70,8|0,0:0|0:0,0:0:0:0:
136,160,14273,6,0,L|40:160,1,70
64,372,14506,1,8,0:0:0:0:
217,142,14622,2,0,L|121:142,1,70
145,354,14855,1,0,0:0:0:0:
298,124,14971,2,0,L|202:124,1,70,8|0,0:0|0:0,0:0:0:0:
226,336,15203,1,0,0:0:0:0:
166,142,15320,1,0,0:0:0:0:
350,106,15436,1,0,0:0:0:0:
276,216,15552,1,0,0:0:0:0:
240,32,15669,1,0,0:0:0:0:
276,216,15785,2,0,L|252:108,1,70,0|8,0:0|0:0,0:0:0:0:
240,32,16017,6,0,B|192:48|192:48|160:32|160:32|112:32|112:32|80:48|80:48|32:32,1,210,0|12,0:0|0:0,0:0:0:0:
172,146,16483,1,0,0:0:0:0:
240,32,16599,1,0,0:0:0:0:
110,149,16715,1,0,0:0:0:0:
42,35,16831,1,0,0:0:0:0:
110,149,16948,2,0,P|96:184|48:212,1,70
146,320,17180,2,0,P|183:314|231:342,1,70,0|8,0:0|0:0,0:0:0:0:
277,203,17413,2,0,P|253:173|253:117,1,70
391,83,17645,2,0,P|377:117|329:146,2,70,0|8|0,0:3|0:3|0:3,0:3:0:0:
437,241,17994,5,0,0:0:0:0:
436,100,18110,1,0,0:0:0:0:
388,304,18227,1,8,0:0:0:0:
153,182,18343,1,0,0:0:0:0:
357,230,18459,1,0,0:0:0:0:
227,292,18576,1,0,0:0:0:0:
275,88,18692,1,8,0:0:0:0:
323,292,18808,1,0,0:0:0:0:
224,148,18924,1,0,0:0:0:0:
398,134,19041,1,0,0:0:0:0:
209,259,19157,2,0,L|200:184,1,70,8|0,0:0|0:0,0:0:0:0:
388,304,19390,1,0,0:0:0:0:
272,200,19506,2,0,P|232:176|184:179,1,70,0|8,0:0|0:0,0:0:0:0:
0,360,19738,6,0,B|76:380|76:380|212:356,1,210,0|12,0:0|0:0,0:0:0:0:
226,151,20203,1,0,0:0:0:0:
220,340,20320,1,0,0:0:0:0:
394,234,20436,2,0,L|387:313,1,70,0|8,0:0|0:0,0:0:0:0:
205,357,20669,2,0,L|190:185,1,140
367,152,21017,1,8,0:0:0:0:
226,151,21134,1,0,0:0:0:0:
396,236,21250,2,0,B|356:240|356:240|312:220,1,70
197,67,21483,2,0,B|237:63|237:63|281:83,1,70,8|0,0:0|0:0,0:0:0:0:
220,340,21715,1,0,0:0:0:0:
226,151,21948,5,8,0:0:0:0:
220,340,22064,1,0,0:0:0:0:
197,67,22296,5,0,0:0:0:0:
267,242,22413,1,8,0:0:0:0:
284,83,22645,5,0,3:0:0:0:
328,331,22762,1,0,0:0:0:0:
368,124,22878,1,8,0:0:0:0:
362,313,22994,1,0,0:0:0:0:
440,47,23110,1,0,3:0:0:0:
396,295,23227,1,0,0:0:0:0:
200,164,23343,2,0,P|232:140|288:148,1,70,8|0,0:0|0:0,0:0:0:0:
368,340,23576,6,0,B|292:352|292:352|224:340,1,140,0|12,0:0|0:0,0:0:0:0:
84,192,23924,1,0,0:0:0:0:
296,192,24041,1,0,0:0:0:0:
153,315,24157,1,0,0:0:0:0:
197,67,24273,1,8,3:0:0:0:
184,288,24390,2,0,B|195:245|170:203|170:203|189:177|189:177|150:121|197:62,1,210,0|8,0:0|0:0,0:0:0:0:
76,64,24855,1,0,0:0:0:0:
276,120,24971,2,0,L|345:116,1,70
96,260,25203,2,0,L|8:256,1,70,8|0,0:0|0:0,0:0:0:0:
296,192,25436,5,0,0:0:0:0:
184,288,25552,1,0,0:0:0:0:
192,184,25669,1,8,0:0:0:0:
288,296,25785,1,0,0:0:0:0:
316,176,25901,5,0,0:0:0:0:
164,304,26017,1,0,0:0:0:0:
176,164,26134,1,8,0:0:0:0:
304,316,26250,1,0,0:0:0:0:
336,160,26366,5,0,0:0:0:0:
144,320,26483,1,0,0:0:0:0:
160,144,26599,1,8,0:0:0:0:
320,336,26715,1,0,0:0:0:0:
356,144,26831,5,0,0:0:0:0:
124,336,26948,1,0,0:0:0:0:
144,124,27064,1,8,0:0:0:0:
336,356,27180,1,0,0:0:0:0:
240,240,27296,6,0,P|216:168|240:112,1,140,0|12,0:0|0:0,0:0:0:0:
400,68,27645,1,0,0:0:0:0:
385,169,27762,2,0,L|305:175,1,70
144,124,27994,1,8,0:0:0:0:
296,192,28110,1,0,0:0:0:0:
144,260,28227,2,0,L|64:266,1,70
240,111,28459,2,0,L|319:104,1,70,8|0,0:0|0:0,0:0:0:0:
100,232,28692,2,0,L|20:238,1,70
284,139,28924,2,0,L|364:133,1,70
326,324,29157,5,0,0:0:0:0:
242,202,29273,1,0,0:0:0:0:
389,190,29390,1,8,0:0:0:0:
242,202,29506,1,0,0:0:0:0:
326,324,29622,5,0,0:0:0:0:
258,137,29738,1,0,0:0:0:0:
389,190,29855,1,8,0:0:0:0:
258,137,29971,1,0,0:0:0:0:
326,324,30087,5,0,0:0:0:0:
303,75,30203,1,0,0:0:0:0:
389,190,30320,1,8,0:0:0:0:
303,75,30436,1,0,0:0:0:0:
326,324,30552,5,0,0:0:0:0:
376,27,30669,1,0,0:0:0:0:
389,190,30785,1,8,0:0:0:0:
376,27,30901,1,0,0:0:0:0:
389,190,31017,6,0,L|376:28,1,140,0|12,0:0|0:0,0:0:0:0:
172,203,31483,2,0,L|278:201,1,70
389,190,31715,1,8,0:0:0:0:
156,216,31831,2,0,B|244:220|244:220|288:188|288:188|396:192,1,210,0|8,0:0|0:0,0:0:0:0:
396,328,32413,2,0,P|352:328|292:316,1,70
258,137,32645,2,0,P|302:137|362:149,1,70,8|0,0:0|0:0,0:0:0:0:
156,212,32878,5,0,0:0:0:0:
219,345,32994,1,0,0:0:0:0:
356,212,33110,1,8,0:0:0:0:
293,345,33227,1,0,0:0:0:0:
132,191,33343,5,0,0:0:0:0:
190,355,33459,1,0,0:0:0:0:
379,191,33576,1,8,0:0:0:0:
322,355,33692,1,0,0:0:0:0:
117,165,33808,5,0,0:0:0:0:
159,355,33924,1,0,0:0:0:0:
394,165,34041,1,8,0:0:0:0:
353,355,34157,1,0,0:0:0:0:
112,135,34273,5,0,0:0:0:0:
131,345,34390,1,0,0:0:0:0:
400,135,34506,1,8,0:0:0:0:
381,345,34622,1,0,0:0:0:0:
117,105,34738,6,0,P|188:92|260:104,1,140,0|12,0:0|0:0,0:0:0:0:
400,135,35203,2,0,P|468:144|500:140,1,70
440,28,35436,1,8,0:0:0:0:
236,96,35552,2,0,L|256:336,1,210,0|8,0:0|0:0,0:0:0:0:
381,345,36134,2,0,P|392:304|384:264,1,70
123,277,36366,2,0,P|120:311|131:345,1,70,8|0,0:0|0:0,0:0:0:0:
256,300,36599,6,0,L|256:228,2,70
404,284,36948,1,0,0:0:0:0:
388,136,37064,2,0,L|388:216,1,70
240,152,37296,2,0,L|312:152,1,70
256,300,37529,1,0,0:0:0:0:
404,284,37645,1,0,0:0:0:0:
236,276,37762,1,8,0:0:0:0:
384,260,37878,1,8,0:0:0:0:
216,252,37994,1,0,0:0:0:0:
406,211,38110,1,0,0:0:0:0:
331,326,38227,1,8,0:0:0:0:
312,116,38343,1,0,0:0:0:0:
331,326,38459,6,0,B|332:344|332:344|368:304|332:244,1,105.000004005432,0|2,0:0|0:0,0:0:0:0:
256,192,38808,1,0,0:0:0:0:
101,190,38924,2,0,B|84:181|84:181|101:233|171:231,1,105.000004005432,0|2,0:0|0:0,0:0:0:0:
256,192,39273,1,0,0:0:0:0:
334,59,39390,2,0,B|349:49|349:49|296:37|262:99,1,105.000004005432,0|2,0:0|0:0,0:0:0:0:
256,192,39738,2,0,B|340:184|340:184|376:192,1,105.000004005432
336,328,40087,1,2,0:0:0:0:
195,340,40203,1,0,0:0:0:0:
114,223,40320,6,0,P|107:169|150:111,1,105.000004005432
195,340,40669,2,0,P|152:372|80:364,1,105.000004005432
256,192,41017,1,8,0:0:0:0:
256,192,41250,6,0,B|208:228|208:228|140:228,1,105.000004005432,0|2,0:0|0:0,0:0:0:0:
160,0,41599,2,0,B|205:0|205:0|253:36,1,105.000004005432,0|2,0:0|0:0,0:0:0:0:
389,112,41948,1,8,0:0:0:0:
248,112,42064,1,0,0:0:0:0:
320,56,42180,6,0,P|340:112|320:168,1,105.000004005432,0|2,0:0|0:0,0:0:0:0:
248,112,42529,1,0,0:0:0:0:
388,56,42645,2,0,P|400:112|384:176,1,105.000004005432,0|2,0:0|0:0,0:0:0:0:
248,112,42994,1,0,0:0:0:0:
452,56,43110,2,0,P|460:112|448:180,1,105.000004005432,0|2,0:0|0:0,0:0:0:0:
248,112,43459,1,0,0:0:0:0:
452,56,43576,2,0,P|460:112|448:180,1,105.000004005432,0|2,0:0|0:0,0:0:0:0:
300,328,43924,1,0,0:0:0:0:
408,224,44041,2,0,P|424:192|444:180,1,52.5000020027161
303,178,44273,2,0,P|291:144|297:121,1,52.5000020027161
196,220,44506,2,0,P|163:204|151:184,1,52.5000020027161
150,325,44738,6,0,P|104:320|136:296,3,105.000004005432,0|0|0|8,0:0|0:0|0:0|0:0,0:0:0:0:
196,220,45552,1,8,0:0:0:0:
300,328,45669,1,8,0:0:0:0:
373,131,45785,1,8,0:0:0:0:
100,256,45901,6,0,P|136:314|232:318,1,167.999994873047,0|12,0:0|0:0,0:0:0:0:
92,112,46250,1,0,0:0:0:0:
196,220,46366,2,0,P|200:272|176:320,1,83.9999974365235
100,256,46599,1,8,0:0:0:0:
292,184,46715,2,0,L|380:184,2,83.9999974365235
123,23,47064,1,8,0:0:0:0:
100,256,47180,2,0,B|112:199|112:199|98:150|98:150|116:88,1,167.999994873047
123,23,47529,1,8,0:0:0:0:
24,296,47762,6,0,P|92:348|168:304,1,167.999994873047,0|12,0:0|0:0,0:0:0:0:
288,184,48110,1,0,0:0:0:0:
188,156,48227,1,0,0:0:0:0:
159,317,48343,1,0,0:0:0:0:
262,83,48459,2,0,P|288:184|240:248,2,167.999994873047,8|0|8,0:0|0:0|0:0,0:0:0:0:
159,317,49041,1,0,0:0:0:0:
104,148,49157,2,0,L|195:156,1,83.9999974365235
300,328,49390,2,0,L|208:336,1,83.9999974365235,8|0,0:0|0:0,0:0:0:0:
114,93,49622,6,0,B|128:180|128:180|96:264,1,167.999994873047,0|4,0:0|0:0,0:0:0:0:
96,80,49971,1,0,0:0:0:0:
204,120,50087,2,0,P|272:128|304:120,1,83.9999974365235
408,8,50320,2,0,P|340:0|308:8,1,83.9999974365235,8|0,0:0|0:0,0:0:0:0:
352,176,50552,2,0,L|360:80,1,83.9999974365235
96,80,50785,1,8,0:0:0:0:
204,120,50901,1,0,0:0:0:0:
115,193,51017,2,0,L|107:289,1,83.9999974365235
277,209,51250,1,8,0:0:0:0:
317,101,51366,1,0,0:0:0:0:
188,282,51483,6,0,P|180:196|204:120,2,167.999994873047,0|4|12,0:0|0:0|0:0,0:0:0:0:
348,176,52064,2,0,L|440:168,1,83.9999974365235
188,284,52296,1,8,0:0:0:0:
317,101,52413,1,0,0:0:0:0:
219,359,52529,1,8,0:0:0:0:
293,25,52645,1,12,0:0:0:0:
304,248,52878,6,0,P|256:268|208:248,1,105.000004005432
224,44,53343,6,0,P|272:124|256:192,1,167.999994873047
0,132,53692,1,0,0:0:0:0:
156,142,53808,2,0,B|237:136|237:136|326:96,1,167.999994873047,4|0,0:0|0:0,0:0:0:0:
400,40,54157,1,0,0:0:0:0:
304,248,54273,1,0,0:0:0:0:
248,96,54390,1,0,0:0:0:0:
456,192,54506,2,0,P|460:264|448:312,1,83.9999974365235
304,248,54738,2,0,L|200:256,1,83.9999974365235,4|0,0:0|0:0,0:0:0:0:
0,192,54971,2,0,L|104:184,1,83.9999974365235
304,248,55203,6,0,L|408:240,1,83.9999974365235
342,63,55436,2,0,P|252:91|235:198,2,167.999994873047,0|4|0,0:0|0:0|0:0,0:0:0:0:
324,160,56046,1,0,0:0:0:0:
76,192,56134,1,0,0:0:0:0:
315,224,56250,1,0,0:0:0:0:
164,26,56366,2,0,P|112:16|60:32,1,83.9999974365235
140,200,56599,2,0,L|124:108,1,83.9999974365235,4|0,0:0|0:0,0:0:0:0:
338,49,56831,2,0,L|321:141,1,83.9999974365235
368,296,57064,6,0,P|284:308|232:252,1,167.999994873047
338,49,57413,1,0,0:0:0:0:
315,224,57529,2,0,B|316:168|316:168|336:112|336:112|336:48,1,167.999994873047,4|0,0:0|0:0,0:0:0:0:
140,200,57878,1,0,0:0:0:0:
416,192,57994,1,0,0:0:0:0:
232,96,58110,1,0,0:0:0:0:
240,372,58227,2,0,B|237:324|237:324|212:272,1,83.9999974365235
108,88,58459,2,0,B|151:109|151:109|208:113,1,83.9999974365235,4|0,0:0|0:0,0:0:0:0:
419,115,58692,2,0,B|379:142|379:142|347:190,1,83.9999974365235
184,312,58924,6,0,P|264:292|320:372,2,167.999994873047,0|0|4,0:0|0:0|0:0,0:0:0:0:
92,236,59506,2,0,P|80:192|96:136,1,83.9999974365235
420,148,59738,2,0,P|432:192|416:248,1,83.9999974365235
316,244,59971,5,0,0:0:0:0:
196,140,60087,1,8,0:0:0:0:
340,166,60203,5,0,0:0:0:0:
172,218,60320,1,8,0:0:0:0:
420,148,60436,5,0,0:0:0:0:
92,236,60552,1,8,0:0:0:0:
476,208,60669,5,8,0:0:0:0:
36,176,60785,1,0,0:0:0:0:
452,17,61017,6,0,P|476:97|404:149,1,167.999994873047,12|0,0:0|0:0,0:0:0:0:
196,140,61366,1,0,0:0:0:0:
388,72,61483,1,8,0:0:0:0:
291,234,61599,2,0,P|272:172|272:144,1,83.9999974365235
329,34,61831,1,0,0:0:0:0:
372,256,61948,2,0,P|348:300|296:316,1,83.9999974365235,8|0,0:0|0:0,0:0:0:0:
196,140,62180,1,0,0:0:0:0:
388,208,62297,1,0,0:0:0:0:
192,316,62413,1,8,0:0:0:0:
256,76,62529,1,0,0:0:0:0:
480,192,62645,6,0,L|471:283,1,83.9999974365235
372,248,62878,2,0,L|386:80,1,167.999994873047,8|0,0:0|0:0,0:0:0:0:
132,135,63227,1,0,0:0:0:0:
376,164,63343,2,0,P|447:137|463:54,1,167.999994873047,8|0,0:0|0:0,0:0:0:0:
112,54,63692,2,0,B|116:102|116:102|135:142,1,83.9999974365235
269,277,63924,1,8,0:0:0:0:
245,51,64041,1,0,0:0:0:0:
153,210,64157,2,0,P|136:264|140:300,1,83.9999974365235
340,156,64389,1,0,0:0:0:0:
116,108,64506,1,0,0:0:0:0:
132,248,64622,6,0,B|88:268|88:268|24:276,2,83.9999974365235
203,110,64971,1,0,0:0:0:0:
102,343,65087,1,0,0:0:0:0:
36,176,65203,1,0,0:0:0:0:
269,277,65320,1,0,0:0:0:0:
256,192,65669,5,0,0:0:0:0:
256,192,65901,1,0,0:0:0:0:
96,192,66134,2,0,B|112:112|176:80|224:112|256:192|256:192|288:272|336:320|400:288|528:192|400:80|336:64|288:112|256:192|256:192|224:272|176:304|112:272|96:192,1,945.00003604889
