osu file format v14

[General]
AudioFilename: HNI Op.mp3
AudioLeadIn: 0
PreviewTime: 45668
Countdown: 0
SampleSet: None
StackLeniency: 0.7
Mode: 0
LetterboxInBreaks: 1
WidescreenStoryboard: 0

[Editor]
DistanceSpacing: 1
BeatDivisor: 4
GridSize: 4
TimelineZoom: 1.7

[Metadata]
Title:HEKIREKI
TitleUnicode:HEKIREKI
Artist:LAST ALLIANCE
ArtistUnicode:LAST ALLIANCE
Creator:kayiedee
Version:Normal
Source:はじめの一歩: New Challenger
Tags:hajime no ippo rock estellia- Ameth Rianno
BeatmapID:980479
BeatmapSetID:455357

[Difficulty]
HPDrainRate:3.5
CircleSize:3.5
OverallDifficulty:4
ApproachRate:5
SliderMultiplier:0.7
SliderTickRate:1

[Events]
//Background and Video events
0,0,"hajime-no-ippo-2551135-1920x1200.jpg",0,0
//Break Periods
//Storyboard Layer 0 (Background)
//Storyboard Layer 1 (Fail)
//Storyboard Layer 2 (Pass)
//Storyboard Layer 3 (Foreground)
//Storyboard Sound Samples

[TimingPoints]
-610,232.558139534884,4,3,1,80,1,0
45901,-80,4,3,1,80,0,1
52878,-100,4,3,1,80,0,0
53343,-80,4,3,1,80,0,1
65320,-80,4,3,1,80,0,0

[Colours]
Combo1 : 128,128,128
Combo2 : 128,64,0
Combo3 : 255,0,0
Combo4 : 64,0,0
Combo5 : 255,128,0

[HitObjects]
0,228,785,6,0,L|16:272,2,35
16,196,1134,2,0,P|68:180|132:192,1,105,0|4,0:0|0:0,0:0:0:0:
164,240,1715,2,0,L|248:240,1,70,0|8,0:0|0:0,0:0:0:0:
256,268,2064,2,0,B|268:320|268:320|256:380,1,105,0|8,0:0|0:0,0:0:0:0:
312,328,2645,2,0,L|392:328,1,70,0|8,0:0|0:0,0:0:0:0:
404,300,2994,6,0,P|420:248|400:196,1,105,0|8,0:0|0:0,0:0:0:0:
332,204,3576,2,0,P|324:152|332:128,1,70,0|8,0:0|0:0,0:0:0:0:
356,112,3924,2,0,L|280:112,1,70
252,112,4273,1,8,0:0:0:0:
192,76,4506,6,0,L|220:36,2,35,0|0|8,0:0|0:0|0:0,0:0:0:0:
156,76,4855,2,0,P|100:76|64:32,1,105,0|8,0:0|0:0,0:0:0:0:
4,12,5436,2,0,L|4:88,1,70,0|8,0:0|0:0,0:0:0:0:
4,116,5785,2,0,B|32:116|32:116|80:164|80:164|80:188,1,105,0|8,0:0|0:0,0:0:0:0:
76,244,6366,6,0,P|120:232|144:208,1,70,0|8,0:0|0:0,0:0:0:0:
164,192,6715,2,0,L|276:192,1,105,0|8,0:0|0:0,0:0:0:0:
304,252,7296,2,0,L|220:252,1,70,0|8,0:0|0:0,0:0:0:0:
168,228,7762,2,0,P|144:192|140:152,1,70,0|8,0:0|0:0,0:0:0:0:
168,104,8227,2,0,L|168:60,2,35,0|0|8,0:0|0:0|0:0,0:0:0:0:
204,44,8692,6,0,L|288:44,1,70,0|4,0:0|0:0,0:0:0:0:
316,100,9157,1,0,0:0:0:0:
284,160,9390,1,8,0:0:0:0:
334,212,9622,6,0,L|404:212,1,70,0|8,0:0|0:0,0:0:0:0:
454,264,10087,1,0,0:0:0:0:
422,324,10320,1,8,0:0:0:0:
372,368,10552,6,0,B|320:352|320:352|260:372,1,105
256,264,11250,2,0,B|208:279|208:279|156:263,1,105
80,192,11948,2,0,P|60:184|32:180,2,35
16,168,12413,6,0,L|32:84,1,70,0|4,0:0|0:0,0:0:0:0:
88,60,12878,1,0,0:0:0:0:
156,60,13110,1,8,0:0:0:0:
213,99,13343,6,0,L|228:168,1,70,0|8,0:0|0:0,0:0:0:0:
285,207,13808,1,0,0:0:0:0:
353,207,14041,1,8,0:0:0:0:
410,167,14273,6,0,B|416:132|416:132|404:100|404:100|412:56,1,105
320,8,14971,2,0,B|314:43|314:43|326:75|326:75|318:119,1,105
256,196,15669,2,0,L|256:240,2,35
256,268,16134,6,0,P|304:264|336:272,1,70,0|4,0:0|0:0,0:0:0:0:
392,284,16599,1,0,0:0:0:0:
392,216,16831,1,8,0:0:0:0:
392,144,17064,6,0,P|344:140|312:152,1,70,0|8,0:0|0:0,0:0:0:0:
256,160,17529,1,0,0:0:0:0:
256,92,17762,1,8,0:0:0:0:
188,104,17994,6,0,P|131:116|88:88,1,105
152,8,18692,2,0,P|209:-4|276:52,1,140
260,112,19390,2,0,L|304:112,2,35
328,124,19855,6,0,L|328:208,1,70,0|4,0:0|0:0,0:0:0:0:
276,240,20320,2,0,L|276:324,1,70,0|8,0:0|0:0,0:0:0:0:
204,312,20785,1,0,0:0:0:0:
204,242,21017,1,8,0:0:0:0:
152,196,21250,5,0,0:0:0:0:
152,126,21483,1,8,0:0:0:0:
204,80,21715,2,0,P|212:160|96:168,1,210
152,126,22645,2,0,B|256:96|256:156|368:128,1,210
428,112,23576,6,0,L|416:264,1,140
376,308,24273,1,8,0:0:0:0:
304,308,24506,2,0,L|292:160,1,140
284,100,25203,1,8,0:0:0:0:
228,140,25436,2,0,L|148:140,3,70,0|0|8|0,0:0|0:0|0:0|0:0,0:0:0:0:
180,172,26366,2,0,L|100:172,3,70,0|0|8|0,0:0|0:0|0:0|0:0,0:0:0:0:
132,204,27296,6,0,P|156:280|108:328,1,140
88,260,27994,1,8,0:0:0:0:
160,260,28227,2,0,L|244:260,1,70,0|8,0:0|0:0,0:0:0:0:
256,324,28692,2,0,L|336:324,1,70,0|8,0:0|0:0,0:0:0:0:
372,272,29157,2,0,L|372:192,3,70,0|0|8|0,0:0|0:0|0:0|0:0,0:0:0:0:
404,224,30087,2,0,L|404:144,3,70,0|0|8|0,0:0|0:0|0:0|0:0,0:0:0:0:
372,176,31017,6,0,P|409:117|419:48,1,140
368,0,31715,1,8,0:0:0:0:
296,0,31948,2,0,P|237:37|168:47,1,140
100,48,32645,1,8,0:0:0:0:
120,116,32878,2,0,L|40:116,3,70,0|0|8|0,0:0|0:0|0:0|0:0,0:0:0:0:
8,172,33808,2,0,L|8:248,3,70,0|0|8|0,0:0|0:0|0:0|0:0,0:0:0:0:
77,243,34738,6,0,B|145:231|145:231|213:195,1,140
212,128,35436,1,8,0:0:0:0:
150,97,35669,2,0,P|142:137|222:197,1,140
276,172,36366,1,8,0:0:0:0:
324,224,36599,2,0,B|356:252|356:252|356:312|356:312|392:332|392:332|424:312|424:312|424:200,1,280
424,76,37994,5,0,0:0:0:0:
363,36,38227,1,0,0:0:0:0:
298,68,38459,2,0,L|148:68,1,140
92,192,39390,2,0,L|240:192,1,140
200,128,40087,1,0,0:0:0:0:
168,192,40320,2,0,P|188:244|240:260,2,105
96,192,41250,2,0,P|120:140|176:120,2,105
96,264,42180,5,0,0:0:0:0:
220,332,42645,1,0,0:0:0:0:
217,191,43110,5,0,0:0:0:0:
284,312,43576,2,0,L|368:300,1,70
404,252,44041,2,0,L|480:244,2,70
356,200,44738,2,0,P|328:116|424:116,1,210
396,284,45901,6,0,P|288:272|240:196,1,175
256,136,46599,1,8,0:0:0:0:
196,72,46831,2,0,P|136:68|100:72,1,87.5,0|8,0:0|0:0,0:0:0:0:
108,160,47296,2,0,P|168:164|204:160,1,87.5,0|8,0:0|0:0,0:0:0:0:
276,124,47762,5,0,0:0:0:0:
332,188,47994,1,8,0:0:0:0:
268,244,48227,1,0,0:0:0:0:
212,180,48459,2,0,P|168:244|56:248,1,175,8|8,0:0|0:0,0:0:0:0:
12,316,49157,2,0,P|48:340|124:340,1,87.5,0|8,0:0|0:0,0:0:0:0:
180,348,49622,5,0,0:0:0:0:
256,308,49855,1,8,0:0:0:0:
260,223,50087,1,0,0:0:0:0:
188,178,50320,1,0,0:0:0:0:
184,263,50552,6,0,B|224:272|224:272|272:272,1,87.5,0|8,0:0|0:0,0:0:0:0:
346,232,51017,2,0,B|306:223|306:223|258:223,1,87.5,0|8,0:0|0:0,0:0:0:0:
188,178,51483,2,0,P|176:128|212:76,2,87.5,0|4|4,0:0|0:0|0:0,0:0:0:0:
264,138,52180,2,0,L|328:136,4,43.75,0|8|0|8|4,0:0|0:0|0:0|0:0|0:0,0:0:0:0:
416,352,53343,6,0,B|416:312|416:312|440:216|440:216|440:176,1,175,0|4,0:0|0:0,0:0:0:0:
352,180,54041,2,0,L|352:128,2,43.75
352,268,54506,1,0,0:0:0:0:
275,224,54738,2,0,P|200:208|160:208,1,87.5,4|0,0:0|0:0,0:0:0:0:
100,204,55203,6,0,P|48:120|80:52,1,175,0|4,0:0|0:0,0:0:0:0:
136,120,55901,2,0,L|208:120,2,43.75
100,204,56366,1,0,0:0:0:0:
136,280,56599,2,0,P|140:328|136:372,1,87.5,4|0,0:0|0:0,0:0:0:0:
220,340,57064,6,0,P|316:324|400:344,1,175,0|4,0:0|0:0,0:0:0:0:
392,252,57762,2,0,L|444:252,2,43.75
316,212,58227,1,0,0:0:0:0:
240,172,58459,2,0,P|174:163|155:141,1,87.5,4|0,0:0|0:0,0:0:0:0:
220,85,58924,6,0,P|286:96|265:256,1,262.5
186,242,59855,2,0,L|122:242,2,43.75,8|0|8,0:0|0:0|0:0,0:0:0:0:
240,172,60320,2,0,L|312:174,2,43.75,8|0|8,0:0|0:0|0:0,0:0:0:0:
163,130,60785,1,0,0:0:0:0:
238,84,61017,6,0,P|265:43|305:26,1,87.5,4|0,0:0|0:0,0:0:0:0:
328,110,61483,2,0,P|366:129|388:166,1,87.5,8|0,0:0|0:0,0:0:0:0:
304,196,61948,2,0,L|196:196,1,87.5,8|0,0:0|0:0,0:0:0:0:
140,156,62413,1,8,0:0:0:0:
64,116,62645,6,0,L|64:28,2,87.5,0|8|0,0:0|0:0|0:0,0:0:0:0:
68,202,63343,2,0,L|68:312,2,87.5,8|0|8,0:0|0:0|0:0,0:0:0:0:
144,242,64041,2,0,P|188:228|236:240,1,87.5,0|8,0:0|0:0,0:0:0:0:
192,312,64506,1,0,0:0:0:0:
280,316,64738,6,0,B|328:308|336:324|384:316,2,87.5
216,192,65669,2,0,B|264:184|272:200|320:192,1,87.5
256,192,66134,12,0,68227,0:0:0:0:
