osu file format v14

[General]
AudioFilename: HNI Op.mp3
AudioLeadIn: 0
PreviewTime: 45668
Countdown: 0
SampleSet: None
StackLeniency: 0.7
Mode: 0
LetterboxInBreaks: 1
WidescreenStoryboard: 0

[Editor]
DistanceSpacing: 1.1
BeatDivisor: 4
GridSize: 4
TimelineZoom: 1.6

[Metadata]
Title:HEKIREKI
TitleUnicode:HEKIREKI
Artist:LAST ALLIANCE
ArtistUnicode:LAST ALLIANCE
Creator:kayiedee
Version:Insane
Source:はじめの一歩: New Challenger
Tags:hajime no ippo rock estellia- Ameth Rianno
BeatmapID:976077
BeatmapSetID:455357

[Difficulty]
HPDrainRate:6
CircleSize:4
OverallDifficulty:7
ApproachRate:9
SliderMultiplier:0.999999999999999
SliderTickRate:1

[Events]
//Background and Video events
0,0,"hajime-no-ippo-2551135-1920x1200.jpg",0,0
//Break Periods
//Storyboard Layer 0 (Background)
//Storyboard Layer 1 (Fail)
//Storyboard Layer 2 (Pass)
//Storyboard Layer 3 (Foreground)
//Storyboard Sound Samples

[TimingPoints]
-610,232.558139534884,4,3,1,80,1,0
38924,-133.333333333333,4,3,1,80,0,0
39389,-200,4,3,1,80,0,0
39854,-100,4,3,1,80,0,0
42645,-133.333333333333,4,3,1,80,0,0
43110,-200,4,3,1,80,0,0
43575,-100,4,3,1,80,0,0
45552,-100,4,3,1,100,0,0
45901,-83.3333333333333,4,3,1,50,0,1
46133,-83.3333333333333,4,3,1,100,0,1
46249,-83.3333333333333,4,3,1,80,0,1
52878,-83.3333333333333,4,3,1,80,0,0
53343,-83.3333333333333,4,3,1,80,0,1
65320,-133.333333333333,4,3,1,80,0,0

[Colours]
Combo1 : 128,128,128
Combo2 : 128,64,0
Combo3 : 255,0,0
Combo4 : 64,0,0
Combo5 : 255,128,0

[HitObjects]
49,70,785,5,0,0:0:0:0:
136,116,901,1,0,0:0:0:0:
52,168,1017,1,0,0:0:0:0:
52,168,1134,6,0,P|28:216|52:272,1,99.9999999999999
172,232,1483,2,0,L|104:220,1,50,8|0,0:0|0:0,0:0:0:0:
124,320,1715,2,0,L|173:311,1,50
288,236,1948,1,8,0:0:0:0:
307,127,2064,2,0,L|288:232,1,99.9999999999999
271,328,2413,2,0,P|304:336|332:332,1,50,8|0,0:0|0:0,0:0:0:0:
420,196,2645,2,0,P|387:188|359:192,1,50,0|0,0:0|0:0,0:0:0:0:
284,256,2878,1,8,0:0:0:0:
215,185,2994,6,0,B|208:120|208:120|216:72,1,99.9999999999999
355,114,3343,2,0,L|288:132,2,50,8|0|0,0:0|0:0|0:0,0:0:0:0:
407,198,3692,1,0,0:0:0:0:
491,146,3808,1,8,0:0:0:0:
439,62,3924,2,0,P|448:136|428:176,1,99.9999999999999
355,114,4273,1,8,0:0:0:0:
324,312,4506,2,0,L|324:372,2,50,0|0|8,0:0|0:0|0:0,0:0:0:0:
292,232,4855,6,0,B|336:232|336:232|400:248|400:248|456:248,1,150,0|8,0:0|0:0,0:0:0:0:
251,232,5320,1,0,0:0:0:0:
408,164,5436,1,0,0:0:0:0:
324,312,5552,1,0,0:0:0:0:
304,142,5669,1,8,0:0:0:0:
418,267,5785,2,0,P|360:212|284:216,1,150,0|8,0:0|0:0,0:0:0:0:
206,308,6366,2,0,L|256:308,2,50,0|0|8,0:0|0:0|0:0,0:0:0:0:
136,252,6715,6,0,P|124:276|120:304,1,50
340,298,6948,2,0,P|337:274|320:248,1,50,0|8,0:0|0:0,0:0:0:0:
136,252,7180,2,0,P|124:228|124:200,1,50
290,317,7413,6,0,P|287:341|276:364,2,50
206,308,7762,1,8,0:0:0:0:
194,274,7878,1,8,0:0:0:0:
192,239,7994,1,8,0:0:0:0:
198,205,8110,1,8,0:0:0:0:
214,174,8227,1,0,0:0:0:0:
166,165,8343,1,0,3:0:0:0:
119,157,8459,1,0,3:0:0:0:
72,148,8576,1,0,3:0:0:0:
20,139,8692,6,0,B|20:88|20:88|56:44,1,99.9999999999999,0|4,0:0|0:0,0:0:0:0:
119,157,9157,1,0,0:0:0:0:
151,247,9273,1,0,0:0:0:0:
182,84,9390,1,0,0:0:0:0:
214,174,9506,2,0,L|372:160,1,150,0|8,0:0|0:0,0:0:0:0:
465,46,9971,1,0,3:0:0:0:
512,192,10087,2,0,L|440:200,1,50
305,186,10320,2,0,L|256:192,1,50
109,165,10552,6,0,P|149:205|145:261,1,99.9999999999999,0|8,0:0|0:0,0:0:0:0:
30,306,10901,2,0,P|39:258|79:229,1,99.9999999999999
192,303,11250,2,0,P|145:319|100:299,1,99.9999999999999,8|0,0:0|0:0,0:0:0:0:
108,164,11599,2,0,L|180:164,1,62.5,0|8,0:0|0:0,0:0:0:0:
260,164,11831,1,0,0:0:0:0:
212,80,11948,2,0,L|272:80,2,50,0|0|8,0:0|0:0|0:0,0:0:0:0:
80,80,12296,6,0,B|64:168|64:168|80:244,1,150,0|4,0:0|0:0,0:0:0:0:
192,303,12878,1,0,0:0:0:0:
98,285,12994,1,0,0:0:0:0:
160,213,13110,1,8,0:0:0:0:
221,140,13227,2,0,P|268:120|324:148,1,99.9999999999999
280,248,13576,2,0,L|268:184,1,50,8|0,0:0|0:0,0:0:0:0:
108,164,13808,2,0,L|120:228,1,50
280,80,14041,2,0,L|268:16,1,50,8|0,0:0|0:0,0:0:0:0:
221,140,14273,6,0,P|280:168|324:152,1,99.9999999999999,0|8,0:0|0:0,0:0:0:0:
412,72,14622,2,0,L|392:184,1,99.9999999999999
238,238,14971,2,0,L|220:128,1,99.9999999999999,8|0,0:0|0:0,0:0:0:0:
396,233,15320,2,0,P|429:206|392:188,1,99.9999999999999
238,238,15669,2,0,L|178:238,2,50,0|0|8,0:0|0:0|0:0,0:0:0:0:
112,192,16017,6,0,L|96:352,1,150,0|4,0:0|0:0,0:0:0:0:
184,308,16483,1,0,0:0:0:0:
26,225,16599,1,0,0:0:0:0:
176,129,16715,2,0,L|168:200,1,50,0|8,0:0|0:0,0:0:0:0:
184,308,16948,2,0,P|260:316|336:296,1,150,0|8,0:0|0:0,0:0:0:0:
355,121,17529,2,0,B|296:120,1,50
330,298,17762,2,0,B|392:300,1,50,8|0,0:0|0:0,0:0:0:0:
342,209,17994,6,0,B|312:204|312:204|264:216|264:216|236:212,1,99.9999999999999,0|8,0:0|0:0,0:0:0:0:
126,290,18343,2,0,B|156:295|156:295|204:283|204:283|232:287,1,99.9999999999999
264,132,18692,2,0,B|234:127|234:127|186:139|186:139|158:135,1,99.9999999999999,8|0,0:0|0:0,0:0:0:0:
48,213,19041,2,0,B|78:218|78:218|126:206|126:206|154:210,1,99.9999999999999
256,208,19390,2,0,L|256:152,1,50
256,56,19622,1,8,0:0:0:0:
140,112,19738,6,0,P|200:120|256:56,1,150,0|4,0:0|0:0,0:0:0:0:
176,40,20203,1,0,0:0:0:0:
176,192,20320,2,0,L|232:192,2,50,0|0|8,0:0|0:0|0:0,0:0:0:0:
124,96,20669,1,0,0:0:0:0:
66,189,20785,2,0,B|76:240|76:240|112:284,1,99.9999999999999
187,82,21250,2,0,P|148:36|100:36,1,99.9999999999999
294,203,21715,2,0,B|337:182|337:182|389:185,1,99.9999999999999
356,280,22064,1,0,0:0:0:0:
224,192,22296,5,0,0:0:0:0:
224,192,22413,1,0,0:0:0:0:
356,280,22645,1,0,0:0:0:0:
356,280,22762,1,0,0:0:0:0:
334,170,22994,2,0,L|344:112,2,50
298,318,23343,1,8,0:0:0:0:
264,324,23459,1,0,0:0:0:0:
229,322,23576,6,0,B|212:296|212:296|204:204,1,112.5,0|4,0:0|0:0,0:0:0:0:
296,68,23924,1,0,0:0:0:0:
228,208,24041,2,0,B|280:208,1,50
196,40,24273,2,0,B|144:40,1,50,8|0,0:0|0:0,0:0:0:0:
318,80,24506,2,0,P|370:96|414:80,2,99.9999999999999,0|8|0,0:0|0:0|0:0,0:0:0:0:
364,16,25087,1,0,0:0:0:0:
493,129,25203,2,0,L|496:80,1,50,8|0,0:0|0:0,0:0:0:0:
492,280,25436,6,0,L|488:208,1,50
416,79,25669,2,0,L|412:151,1,50
412,280,25901,6,0,L|408:208,1,50
336,79,26134,2,0,L|332:151,1,50
332,280,26366,6,0,L|328:208,1,50
256,79,26599,2,0,L|252:151,1,50
252,280,26831,6,0,L|248:208,1,50
176,79,27064,2,0,L|172:151,1,50
172,280,27296,6,0,B|120:272|120:272|64:292,1,99.9999999999999,0|4,0:0|0:0,0:0:0:0:
252,280,27762,1,0,0:0:0:0:
128,356,27878,1,0,0:0:0:0:
228,380,27994,1,8,0:0:0:0:
152,256,28110,1,0,0:0:0:0:
252,280,28227,2,0,P|304:296|348:280,2,99.9999999999999,0|8|0,0:0|0:0|0:0,0:0:0:0:
296,188,28808,1,0,0:0:0:0:
382,213,28924,2,0,L|432:216,1,50,8|0,0:0|0:0,0:0:0:0:
232,212,29157,6,0,L|304:208,1,50
408,184,29390,2,0,L|336:180,1,50
208,180,29622,6,0,L|280:176,1,50
384,152,29855,2,0,L|312:148,1,50
184,148,30087,6,0,L|256:144,1,50
360,120,30320,2,0,L|288:116,1,50
160,116,30552,6,0,L|232:112,1,50
336,88,30785,1,0,0:0:0:0:
336,88,30901,1,0,0:0:0:0:
336,88,31017,6,0,B|336:160|336:160|320:208,1,99.9999999999999,0|4,0:0|0:0,0:0:0:0:
376,272,31483,2,0,L|432:272,2,50,0|0|8,0:0|0:0|0:0,0:0:0:0:
308,172,31831,2,0,B|280:144|280:144|160:156,1,150,0|8,0:0|0:0,0:0:0:0:
128,356,32413,2,0,L|232:356,1,99.9999999999999,0|8,0:0|0:0,0:0:0:0:
376,272,32878,5,0,0:0:0:0:
376,224,32994,1,0,0:0:0:0:
376,172,33110,2,0,L|376:116,1,50,8|0,0:0|0:0,0:0:0:0:
304,72,33343,5,0,0:0:0:0:
304,120,33459,1,0,0:0:0:0:
304,172,33576,2,0,L|304:228,1,50,8|0,0:0|0:0,0:0:0:0:
232,272,33808,5,0,0:0:0:0:
232,224,33924,1,0,0:0:0:0:
232,172,34041,2,0,L|232:116,1,50,8|0,0:0|0:0,0:0:0:0:
164,72,34273,5,0,0:0:0:0:
164,120,34390,1,0,0:0:0:0:
164,172,34506,2,0,L|164:228,1,50,8|0,0:0|0:0,0:0:0:0:
304,172,34738,6,0,P|272:112|228:104,1,99.9999999999999,0|4,0:0|0:0,0:0:0:0:
96,172,35203,2,0,L|40:192,1,50
232,172,35436,2,0,L|212:116,1,50
232,289,35669,2,0,P|280:300|336:284,2,99.9999999999999,0|8|0,0:0|0:0|0:0,0:0:0:0:
264,148,36366,2,0,P|276:184|276:216,1,50,8|0,0:0|0:0,0:0:0:0:
280,306,36599,6,0,L|280:356,2,50,0|0|8,0:0|0:0|0:0,0:0:0:0:
208,246,36948,2,0,L|208:196,2,50
136,356,37296,2,0,L|136:296,1,50,8|0,0:0|0:0,0:0:0:0:
64,196,37529,2,0,L|72:256,1,50
136,356,37762,2,8,L|148:296,1,50,8|0,0:0|0:0,0:0:0:0:
208,196,37994,2,0,L|224:256,1,50,8|0,0:0|0:0,0:0:0:0:
280,356,38227,2,8,L|300:296,1,50,8|0,0:0|0:0,0:0:0:0:
280,112,38459,6,0,B|440:112,1,150
280,184,38924,2,0,L|424:184,1,112.500004291535
280,256,39390,2,0,L|376:256,1,75
192,256,39855,2,0,P|160:224|168:152,1,100
240,188,40203,1,0,0:0:0:0:
240,344,40320,6,0,L|124:344,1,100
119,191,40669,2,0,B|178:228|178:228|204:276,1,100
140,344,41017,1,8,0:0:0:0:
240,188,41250,6,0,B|292:196|292:196|360:184,1,100
340,36,41599,2,0,B|288:28|288:28|220:40,1,100
240,188,41948,1,8,0:0:0:0:
336,188,42064,1,0,0:0:0:0:
288,112,42180,6,0,L|288:264,1,150
216,112,42645,2,0,L|216:224,1,112.500004291535
144,112,43110,2,0,L|144:196,1,75
307,85,43576,2,0,B|255:85|255:85|195:125,1,100
288,260,44041,6,0,B|340:260|340:260|400:220,2,100
312,64,44738,2,0,L|312:176,1,100,0|0,0:0|0:0,0:0:0:0:
216,324,45203,2,0,L|216:212,1,100,0|0,0:0|0:0,0:0:0:0:
135,138,45552,1,0,0:0:0:0:
80,240,45785,1,8,0:0:0:0:
102,251,45901,6,0,B|165:250|165:250|240:210,1,119.999996337891,0|4,0:0|0:0,0:0:0:0:
312,152,46250,1,0,0:0:0:0:
464,196,46366,2,0,P|476:224|476:268,1,59.9999981689454
348,246,46599,2,0,P|336:218|336:174,1,59.9999981689454,8|0,0:0|0:0,0:0:0:0:
420,200,46831,1,0,0:0:0:0:
431,327,46948,1,0,0:0:0:0:
312,272,47064,2,0,L|312:120,2,119.999996337891,8|0|8,0:0|0:0|0:0,0:0:0:0:
174,313,47645,1,0,0:0:0:0:
168,203,47762,6,0,L|232:200,1,59.9999981689454
64,320,47994,2,0,L|0:323,1,59.9999981689454,8|0,0:0|0:0,0:0:0:0:
174,313,48227,2,0,L|177:377,1,59.9999981689454
57,209,48459,2,0,P|72:140|136:100,2,119.999996337891,8|0|8,0:0|0:0|0:0,0:0:0:0:
265,250,49041,1,0,0:0:0:0:
168,143,49157,2,0,L|168:219,1,59.9999981689454
265,310,49390,2,0,L|265:230,1,59.9999981689454,8|0,0:0|0:0,0:0:0:0:
256,72,49622,6,0,P|204:24|136:28,1,119.999996337891,0|4,0:0|0:0,0:0:0:0:
164,144,49971,1,0,0:0:0:0:
348,144,50087,1,0,0:0:0:0:
256,52,50203,1,0,0:0:0:0:
256,232,50320,2,0,P|212:240|180:232,1,59.9999981689454,8|0,0:0|0:0,0:0:0:0:
72,56,50552,2,0,P|116:48|148:56,1,59.9999981689454
76,236,50785,2,0,P|68:192|76:160,1,59.9999981689454,8|0,0:0|0:0,0:0:0:0:
252,52,51017,2,0,P|260:96|252:128,1,59.9999981689454
164,144,51250,2,0,L|81:129,1,59.9999981689454,8|0,0:0|0:0,0:0:0:0:
76,236,51483,6,0,L|209:259,2,119.999996337891,0|4|4,0:0|0:0|0:0,0:0:0:0:
348,144,52180,2,0,L|412:128,1,59.9999981689454
256,232,52413,1,0,0:0:0:0:
333,77,52529,1,8,0:0:0:0:
428,221,52645,1,8,0:0:0:0:
270,298,53343,6,0,L|282:158,1,119.999996337891
333,77,53692,1,0,0:0:0:0:
459,147,53808,2,0,P|391:163|318:101,1,119.999996337891,4|0,0:0|0:0,0:0:0:0:
404,76,54157,1,0,0:0:0:0:
400,240,54273,2,0,L|400:320,1,59.9999981689454
264,300,54506,2,0,L|264:220,1,59.9999981689454
332,272,54738,2,0,L|332:352,1,59.9999981689454,4|0,0:0|0:0,0:0:0:0:
196,332,54971,2,0,L|196:252,1,59.9999981689454
234,173,55203,6,0,P|189:231|126:235,2,119.999996337891
112,115,55901,2,0,L|162:165,1,59.9999981689454
208,36,56134,2,0,L|208:108,1,59.9999981689454
332,47,56366,2,0,L|281:98,1,59.9999981689454
412,144,56599,2,0,L|340:143,1,59.9999981689454,4|0,0:0|0:0,0:0:0:0:
400,268,56831,2,0,L|349:217,1,59.9999981689454
208,100,57064,6,0,B|144:96|144:96|60:108,2,119.999996337891,0|0|4,0:0|0:0|0:0,0:0:0:0:
179,251,57762,2,0,L|230:302,1,59.9999981689454
400,268,57994,2,0,L|349:217,1,59.9999981689454
298,149,58227,2,0,L|247:200,1,59.9999981689454
281,370,58459,2,0,L|332:319,1,59.9999981689454,4|0,0:0|0:0,0:0:0:0:
179,251,58692,2,0,L|230:302,1,59.9999981689454
300,148,58924,6,0,P|224:136|196:164,2,119.999996337891,0|0|4,0:0|0:0|0:0,0:0:0:0:
244,40,59622,2,0,L|332:40,1,59.9999981689454
360,148,59855,2,0,L|432:148,1,59.9999981689453
415,243,60087,1,8,0:0:0:0:
396,283,60203,1,0,3:0:0:0:
368,316,60320,1,8,0:0:0:0:
332,341,60436,1,0,0:0:0:0:
291,356,60552,1,8,0:0:0:0:
247,359,60669,1,8,0:0:0:0:
204,351,60785,6,0,L|192:211,1,119.999996337891,0|4,0:0|0:0,0:0:0:0:
124,72,61250,2,0,L|131:159,2,59.9999981689454,0|0|8,0:0|0:0|0:0,0:0:0:0:
190,23,61599,1,0,0:0:0:0:
190,23,61715,2,0,B|206:59|206:59|240:86,1,59.9999981689454
273,200,61948,2,0,B|296:167|296:167|302:124,1,59.9999981689454,8|0,0:0|0:0,0:0:0:0:
385,40,62180,2,0,B|345:36|345:36|305:52,1,59.9999981689454
273,200,62413,2,0,B|313:204|313:204|353:188,1,59.9999981689454,8|0,0:0|0:0,0:0:0:0:
300,112,62645,6,0,B|212:108|212:108|168:120,1,119.999996337891,0|8,0:0|0:0,0:0:0:0:
192,232,62994,1,0,0:0:0:0:
200,104,63110,1,0,0:0:0:0:
86,162,63227,1,0,0:0:0:0:
176,248,63343,2,0,P|240:268|336:236,2,119.999996337891,8|0|8,0:0|0:0|0:0,0:0:0:0:
309,194,63924,2,0,L|308:124,2,59.9999981689454
176,244,64273,1,8,0:0:0:0:
200,104,64389,1,0,0:0:0:0:
309,194,64506,1,0,3:0:0:0:
263,325,64738,6,0,L|267:264,1,59.9999981689454,8|0,0:0|0:0,0:0:0:0:
249,59,64971,2,0,L|244:120,1,59.9999981689454
240,184,65203,1,0,0:0:0:0:
240,184,65320,1,0,0:0:0:0:
144,140,65669,1,0,0:0:0:0:
144,140,65901,1,0,0:0:0:0:
144,140,66134,6,0,B|275:71|275:71|383:175|383:175|319:303|319:303|175:287|175:287|152:180,1,675.000025749208,4|0,0:0|0:0,0:0:0:0:
