osu file format v14

[General]
AudioFilename: HNI Op.mp3
AudioLeadIn: 0
PreviewTime: 45668
Countdown: 0
SampleSet: None
StackLeniency: 0.7
Mode: 0
LetterboxInBreaks: 1
WidescreenStoryboard: 0

[Editor]
DistanceSpacing: 1.1
BeatDivisor: 4
GridSize: 4
TimelineZoom: 1.7

[Metadata]
Title:HEKIREKI
TitleUnicode:HEKIREKI
Artist:LAST ALLIANCE
ArtistUnicode:LAST ALLIANCE
Creator:kayiedee
Version:Hard
Source:はじめの一歩: New Challenger
Tags:hajime no ippo rock estellia- Ameth Rianno
BeatmapID:976076
BeatmapSetID:455357

[Difficulty]
HPDrainRate:5.5
CircleSize:4
OverallDifficulty:6
ApproachRate:8
SliderMultiplier:0.8
SliderTickRate:1

[Events]
//Background and Video events
0,0,"hajime-no-ippo-2551135-1920x1200.jpg",0,0
//Break Periods
//Storyboard Layer 0 (Background)
//Storyboard Layer 1 (Fail)
//Storyboard Layer 2 (Pass)
//Storyboard Layer 3 (Foreground)
//Storyboard Sound Samples

[TimingPoints]
-610,232.558139534884,4,3,1,80,1,0
38924,-133.333333333333,4,3,1,80,0,0
39389,-200,4,3,1,80,0,0
39854,-100,4,3,1,80,0,0
42645,-133.333333333333,4,3,1,80,0,0
43110,-200,4,3,1,80,0,0
43575,-100,4,3,1,80,0,0
45901,-83.3333333333333,4,3,1,80,0,1
52878,-83.3333333333333,4,3,1,80,0,0
53343,-83.3333333333333,4,3,1,80,0,1
61017,-83.3333333333333,4,3,1,100,0,1
61133,-83.3333333333333,4,3,1,80,0,1
65320,-100,4,3,1,80,0,0

[Colours]
Combo1 : 128,128,128
Combo2 : 128,64,0
Combo3 : 255,0,0
Combo4 : 64,0,0
Combo5 : 255,128,0

[HitObjects]
60,192,785,5,0,0:0:0:0:
60,192,901,1,0,0:0:0:0:
60,192,1017,1,0,0:0:0:0:
60,192,1134,6,0,L|76:328,1,120,0|4,0:0|0:0,0:0:0:0:
216,216,1715,2,0,P|170:202|128:220,1,80
176,320,2064,1,0,0:0:0:0:
176,320,2180,2,0,B|232:332|232:332|256:324,1,80,0|8,0:0|0:0,0:0:0:0:
304,216,2645,2,0,P|308:168|296:136,1,80,0|8,0:0|0:0,0:0:0:0:
236,80,3110,6,0,P|216:128|220:164,1,80,0|8,0:0|0:0,0:0:0:0:
204,232,3576,2,0,L|296:216,1,80,0|8,0:0|0:0,0:0:0:0:
300,216,3924,2,0,P|288:256|312:300,1,80
321,309,4273,1,8,0:0:0:0:
240,276,4506,2,0,L|191:248,2,40,0|0|8,0:0|0:0|0:0,0:0:0:0:
321,309,4855,6,0,B|376:296|392:352|448:304,1,120,0|8,0:0|0:0,0:0:0:0:
446,172,5436,2,0,B|414:147|358:151,1,80,0|8,0:0|0:0,0:0:0:0:
300,216,5785,1,0,0:0:0:0:
300,216,5901,2,0,L|216:216,1,80,0|8,0:0|0:0,0:0:0:0:
120,192,6366,2,0,B|112:152|112:152|120:104,1,80,0|8,0:0|0:0,0:0:0:0:
1,113,6831,6,0,B|8:152|8:152|0:192,1,80,0|8,0:0|0:0,0:0:0:0:
76,256,7296,2,0,P|108:224|120:176,1,80,0|8,0:0|0:0,0:0:0:0:
264,156,7762,2,0,P|220:144|172:157,1,80,0|8,0:0|0:0,0:0:0:0:
84,43,8227,1,0,0:0:0:0:
122,53,8343,1,8,0:0:0:0:
161,63,8459,1,0,0:0:0:0:
199,53,8576,1,0,0:0:0:0:
238,42,8692,6,0,L|324:56,1,80,0|4,0:0|0:0,0:0:0:0:
436,76,9157,1,0,0:0:0:0:
436,76,9273,1,0,0:0:0:0:
436,76,9390,1,8,0:0:0:0:
342,143,9622,2,0,L|256:157,1,80,0|8,0:0|0:0,0:0:0:0:
144,177,10087,1,0,0:0:0:0:
144,177,10203,1,0,0:0:0:0:
144,177,10320,1,8,0:0:0:0:
248,231,10552,5,0,0:0:0:0:
152,104,10785,1,8,0:0:0:0:
152,104,10901,2,0,P|160:142|191:179,1,80
224,192,11250,2,0,B|268:184|268:184|304:184,1,80,8|0,0:0|0:0,0:0:0:0:
340,160,11599,2,0,P|352:104|336:76,1,80
244,71,11948,1,0,0:0:0:0:
244,71,12064,1,0,0:0:0:0:
244,71,12180,1,8,0:0:0:0:
160,164,12413,6,0,B|152:200|152:200|164:252,1,80,0|4,0:0|0:0,0:0:0:0:
256,192,12878,1,0,0:0:0:0:
256,192,12994,1,0,0:0:0:0:
256,192,13110,1,8,0:0:0:0:
352,164,13343,2,0,B|360:200|360:200|348:252,1,80,0|8,0:0|0:0,0:0:0:0:
260,320,13808,1,0,0:0:0:0:
260,320,13924,1,0,0:0:0:0:
260,320,14041,1,8,0:0:0:0:
48,296,14273,6,0,B|100:320|100:320|140:320,1,80
212,256,14622,2,0,B|160:232|160:232|120:232,1,80
116,232,14971,1,0,0:0:0:0:
8,124,15203,2,0,P|48:152|96:152,1,80
232,176,15669,2,0,B|256:96,1,80
256,60,16017,6,0,B|192:48|192:48|124:68,1,120,0|4,0:0|0:0,0:0:0:0:
200,128,16599,1,0,0:0:0:0:
200,128,16715,1,0,0:0:0:0:
200,128,16831,1,8,0:0:0:0:
311,131,17064,2,0,P|352:116|400:128,2,80,0|8|0,0:0|0:0|0:0,0:0:0:0:
368,268,17762,2,0,L|360:216,1,40,8|0,0:0|0:0,0:0:0:0:
256,192,17994,6,0,L|200:192,2,40,0|0|8,0:0|0:0|0:0,0:0:0:0:
288,300,18343,2,0,L|288:348,2,40,0|8|0,0:0|0:0|0:0,0:0:0:0:
396,268,18692,2,0,L|448:268,2,40
364,160,19041,2,0,L|364:104,2,40,8|0|0,0:0|0:0|0:0,0:0:0:0:
256,192,19390,1,0,0:0:0:0:
230,178,19506,1,0,0:0:0:0:
202,173,19622,1,8,0:0:0:0:
174,178,19738,1,0,0:0:0:0:
150,193,19855,6,0,B|160:152|160:152|152:96,1,80,0|4,0:0|0:0,0:0:0:0:
60,144,20320,1,0,0:0:0:0:
60,144,20436,1,0,0:0:0:0:
60,144,20552,1,8,0:0:0:0:
202,173,20785,2,0,L|296:164,1,80,0|8,0:0|0:0,0:0:0:0:
440,184,21250,2,0,L|346:193,1,80,0|8,0:0|0:0,0:0:0:0:
256,192,21715,5,0,0:0:0:0:
136,192,21948,2,0,L|80:192,1,40
196,88,22296,2,0,L|168:39,1,40
316,88,22645,2,0,L|344:39,1,40
372,158,22878,1,0,0:0:0:0:
376,191,22994,1,0,0:0:0:0:
371,223,23110,1,0,0:0:0:0:
359,251,23227,1,0,0:0:0:0:
340,276,23343,1,8,0:0:0:0:
316,295,23459,1,0,0:0:0:0:
287,307,23576,6,0,P|248:280|204:280,1,80,0|4,0:0|0:0,0:0:0:0:
224,384,24041,1,0,0:0:0:0:
224,384,24157,1,0,0:0:0:0:
224,384,24273,1,8,0:0:0:0:
340,276,24506,2,0,L|340:184,1,80,0|8,0:0|0:0,0:0:0:0:
184,156,24971,1,0,0:0:0:0:
328,156,25203,1,8,0:0:0:0:
168,192,25436,6,0,L|168:240,2,40,0|0|8,0:0|0:0|0:0,0:0:0:0:
256,132,25901,2,0,L|256:180,2,40,0|0|8,0:0|0:0|0:0,0:0:0:0:
344,72,26366,2,0,L|344:124,2,40,0|0|8,0:0|0:0|0:0,0:0:0:0:
432,12,26831,2,0,L|432:64,2,40,0|0|8,0:0|0:0|0:0,0:0:0:0:
432,60,27296,6,0,P|448:100|436:152,1,80,0|4,0:0|0:0,0:0:0:0:
328,112,27762,1,0,0:0:0:0:
328,112,27878,1,0,0:0:0:0:
328,112,27994,1,8,0:0:0:0:
322,229,28227,2,0,P|276:220|244:192,1,80,0|8,0:0|0:0,0:0:0:0:
328,112,28692,2,0,P|374:121|406:149,1,80,0|8,0:0|0:0,0:0:0:0:
432,252,29157,6,0,L|432:300,2,40,0|0|8,0:0|0:0|0:0,0:0:0:0:
344,192,29622,2,0,L|344:240,2,40,0|0|8,0:0|0:0|0:0,0:0:0:0:
256,132,30087,2,0,L|256:184,2,40,0|0|8,0:0|0:0|0:0,0:0:0:0:
168,72,30552,2,0,L|168:120,2,40,0|0|8,0:0|0:0|0:0,0:0:0:0:
168,72,31017,6,0,B|108:76|128:84|72:88,1,80,0|4,0:0|0:0,0:0:0:0:
12,192,31483,1,0,0:0:0:0:
12,192,31599,1,0,0:0:0:0:
12,192,31715,1,8,0:0:0:0:
168,152,31948,2,0,L|168:72,1,80,0|8,0:0|0:0,0:0:0:0:
110,250,32413,2,0,L|110:330,1,80,0|8,0:0|0:0,0:0:0:0:
224,252,32878,5,0,0:0:0:0:
258,259,32994,1,0,0:0:0:0:
291,249,33110,1,8,0:0:0:0:
316,224,33227,1,0,0:0:0:0:
323,189,33343,2,0,L|324:140,3,40,0|0|8|0,0:0|0:0|0:0|0:0,0:0:0:0:
256,188,33808,1,0,0:0:0:0:
221,180,33924,1,0,0:0:0:0:
188,190,34041,1,8,0:0:0:0:
163,216,34157,1,0,0:0:0:0:
156,250,34273,2,0,L|155:299,3,40,0|0|8|0,0:0|0:0|0:0|0:0,0:0:0:0:
163,216,34738,6,0,P|196:184|232:180,1,80,0|4,0:0|0:0,0:0:0:0:
328,148,35203,2,0,L|328:96,3,40
328,148,35669,2,0,L|420:148,1,80,0|8,0:0|0:0,0:0:0:0:
408,236,36134,2,0,L|312:236,1,80,0|8,0:0|0:0,0:0:0:0:
192,244,36599,6,0,L|144:252,2,40,0|0|8,0:0|0:0|0:0,0:0:0:0:
256,192,36948,1,0,0:0:0:0:
256,192,37180,1,0,0:0:0:0:
320,140,37413,1,0,0:0:0:0:
320,140,37529,2,0,L|368:132,3,40,0|0|8|0,0:0|0:0|0:0|0:0,0:0:0:0:
421,97,37994,1,0,0:0:0:0:
417,131,38110,1,0,0:0:0:0:
414,166,38227,1,8,0:0:0:0:
411,201,38343,1,0,0:0:0:0:
408,236,38459,6,0,L|396:367,1,120
340,264,38924,2,0,L|331:363,1,90.0000034332277,0|0,3:0|3:0,3:0:0:0:
272,296,39390,2,0,L|265:367,1,60,0|0,0:3|0:3,0:3:0:0:
278,221,39855,2,0,P|304:160|296:128,1,80
159,127,40320,6,0,L|232:160,1,80
391,95,40669,2,0,L|311:59,1,80
276,44,41017,1,8,0:0:0:0:
232,160,41250,6,0,L|152:124,1,80
0,192,41599,2,0,L|80:228,1,80
232,160,41948,1,8,0:0:0:0:
232,160,42064,1,0,0:0:0:0:
232,160,42180,6,0,L|220:29,1,120
164,132,42645,2,0,L|155:33,1,90.0000034332277,0|0,3:0|3:0,3:0:0:0:
96,100,43110,2,0,L|89:29,1,60,0|0,0:3|0:3,0:3:0:0:
28,132,43576,2,0,P|56:168|120:168,1,80
232,160,44041,6,0,L|319:167,1,80
443,178,44506,1,0,0:0:0:0:
292,264,44738,1,0,0:0:0:0:
363,105,44971,1,0,0:0:0:0:
398,275,45203,1,0,0:0:0:0:
269,157,45436,1,0,0:0:0:0:
269,157,45552,1,8,0:0:0:0:
48,112,45785,1,8,0:0:0:0:
48,112,45901,6,0,P|100:132|148:108,1,95.9999970703126,0|4,0:0|0:0,0:0:0:0:
256,192,46366,2,0,P|204:172|156:196,1,95.9999970703126,0|8,0:0|0:0,0:0:0:0:
208,240,46715,1,0,0:0:0:0:
230,249,46831,1,0,0:0:0:0:
254,253,46948,1,0,0:0:0:0:
280,248,47064,2,0,L|280:136,2,95.9999970703126,8|0|8,0:0|0:0|0:0,0:0:0:0:
384,164,47762,6,0,L|384:52,1,95.9999970703126,0|8,0:0|0:0,0:0:0:0:
197,109,48227,2,0,B|233:141|233:141|280:152,1,95.9999970703126,0|8,0:0|0:0,0:0:0:0:
384,68,48692,2,0,L|384:20,2,47.9999985351563,0|0|8,0:0|0:0|0:0,0:0:0:0:
260,80,49157,2,0,B|224:48|224:48|177:37,1,95.9999970703126,0|8,0:0|0:0,0:0:0:0:
0,36,49622,6,0,L|22:162,2,95.9999970703126,0|4|0,0:0|0:0|0:0,0:0:0:0:
192,112,50320,1,8,0:0:0:0:
192,112,50436,1,0,0:0:0:0:
192,112,50552,2,0,L|170:238,2,95.9999970703126,0|8|0,0:0|0:0|0:0,0:0:0:0:
16,200,51250,1,8,0:0:0:0:
16,200,51366,1,0,0:0:0:0:
16,200,51483,6,0,B|88:192|88:192|128:228,2,95.9999970703126,0|4|0,0:0|0:0|0:0,0:0:0:0:
188,280,52180,1,0,0:0:0:0:
222,297,52296,1,8,0:0:0:0:
260,303,52413,1,0,0:0:0:0:
298,294,52529,1,0,0:0:0:0:
330,274,52645,1,8,0:0:0:0:
330,274,53343,6,0,B|340:212|340:212|328:160,2,95.9999970703126,0|0|4,0:0|0:0|0:0,0:0:0:0:
192,280,54041,2,0,P|184:240|184:224,1,47.9999985351563
248,136,54273,2,0,P|256:176|256:192,1,47.9999985351563
240,340,54506,1,0,0:0:0:0:
136,220,54738,2,0,P|188:200|248:224,1,95.9999970703126,4|0,0:0|0:0,0:0:0:0:
20,264,55203,6,0,L|1:157,2,95.9999970703126,0|0|4,3:0|3:0|3:0,3:0:0:0:
124,144,55901,1,0,0:0:0:0:
124,144,56017,1,0,0:0:0:0:
124,144,56134,2,0,P|88:156|72:188,1,47.9999985351563
148,296,56366,2,0,P|184:284|200:252,1,47.9999985351563
268,200,56599,2,0,B|288:140|288:140|288:80,1,95.9999970703126,4|0,0:0|0:0,0:0:0:0:
128,48,57064,6,0,P|180:80|228:64,1,95.9999970703126
363,50,57529,2,0,P|326:21|280:24,1,95.9999970703126,4|0,0:0|0:0,0:0:0:0:
252,92,57878,1,0,0:0:0:0:
240,124,57994,2,0,L|176:124,2,47.9999985351563
128,48,58459,2,0,P|92:96|104:156,1,95.9999970703126,4|0,0:0|0:0,0:0:0:0:
245,195,58924,6,0,P|221:139|163:120,1,95.9999970703126
304,272,59390,1,4,0:0:0:0:
267,145,59622,2,0,L|323:145,1,47.9999985351563
176,240,59855,2,0,L|120:240,1,47.9999985351563
234,173,60087,1,8,0:0:0:0:
218,143,60203,1,0,0:0:0:0:
208,112,60320,2,0,L|208:56,3,47.9999985351563,8|0|8|8,3:0|3:0|3:0|3:0,3:0:0:0:
176,240,60785,5,0,0:0:0:0:
208,112,61017,2,0,P|256:96|312:96,1,95.9999970703126,4|0,0:0|0:0,0:0:0:0:
432,96,61483,1,8,0:0:0:0:
460,120,61599,2,8,L|446:275,1,143.999995605469,0|8,0:0|0:0,0:0:0:0:
368,380,62180,2,0,L|358:272,1,95.9999970703126,0|8,0:0|0:0,0:0:0:0:
348,140,62645,6,0,P|292:132|256:192,2,95.9999970703126,0|8|0,0:0|0:0|0:0,0:0:0:0:
164,244,63343,2,0,P|220:252|256:192,2,95.9999970703126,8|0|8,0:0|0:0|0:0,0:0:0:0:
192,160,64041,2,0,L|56:160,1,95.9999970703126,0|8,0:0|0:0,0:0:0:0:
92,344,64506,1,0,0:0:0:0:
192,160,64738,6,0,L|200:108,1,47.9999985351563
88,112,64971,2,0,L|95:159,2,47.9999985351563
181,45,65320,1,0,0:0:0:0:
256,192,65669,5,0,0:0:0:0:
256,192,65901,1,0,0:0:0:0:
256,64,66134,2,0,B|272:128|288:160|320:176|384:192|384:192|320:208|288:224|272:256|256:320|256:320|240:256|224:224|192:208|128:192|128:192|192:176|224:160|240:128,1,720
