osu file format v14

[General]
AudioFilename: HNI Op.mp3
AudioLeadIn: 0
PreviewTime: 45668
Countdown: 0
SampleSet: None
StackLeniency: 0.7
Mode: 0
LetterboxInBreaks: 1
WidescreenStoryboard: 0

[Editor]
DistanceSpacing: 1
BeatDivisor: 4
GridSize: 4
TimelineZoom: 1.7

[Metadata]
Title:HEKIREKI
TitleUnicode:HEKIREKI
Artist:LAST ALLIANCE
ArtistUnicode:LAST ALLIANCE
Creator:kayiedee
Version:Easy
Source:はじめの一歩: New Challenger
Tags:hajime no ippo rock estellia- Ameth Rianno
BeatmapID:976075
BeatmapSetID:455357

[Difficulty]
HPDrainRate:2
CircleSize:3
OverallDifficulty:2
ApproachRate:3
SliderMultiplier:0.400000005960464
SliderTickRate:1

[Events]
//Background and Video events
0,0,"hajime-no-ippo-2551135-1920x1200.jpg",0,0
//Break Periods
//Storyboard Layer 0 (Background)
//Storyboard Layer 1 (Fail)
//Storyboard Layer 2 (Pass)
//Storyboard Layer 3 (Foreground)
//Storyboard Sound Samples

[TimingPoints]
-610,232.558139534884,4,3,1,80,1,0
45901,-100,4,3,1,80,0,1
52878,-100,4,3,1,80,0,0
53343,-100,4,3,1,80,0,1
65320,-100,4,3,1,80,0,0

[Colours]
Combo1 : 128,128,128
Combo2 : 128,64,0
Combo3 : 255,0,0
Combo4 : 64,0,0
Combo5 : 255,128,0

[HitObjects]
256,40,1134,6,0,P|360:16|468:120,1,260.000003874302,0|4,0:0|0:0,0:0:0:0:
400,152,3110,2,0,B|384:192|384:192|400:312,1,160.000002384186
320,292,4506,1,0,0:0:0:0:
256,340,4971,2,0,P|264:236|380:240,1,240.000003576278,0|4,0:0|0:0,0:0:0:0:
320,292,6831,2,0,B|260:292|260:292|216:308|216:308|160:308,1,160.000002384186,0|8,0:0|0:0,0:0:0:0:
84,300,8227,1,8,0:0:0:0:
36,236,8692,6,0,L|44:148,1,80.0000011920929,0|4,0:0|0:0,0:0:0:0:
120,128,9622,2,0,L|112:40,1,80.0000011920929,0|4,0:0|0:0,0:0:0:0:
184,16,10552,2,0,P|229:6|266:18,2,80.0000011920929
224,84,11948,1,0,0:0:0:0:
280,140,12413,6,0,P|300:104|300:60,1,80.0000011920929,0|4,0:0|0:0,0:0:0:0:
224,84,13343,2,0,P|204:120|204:164,1,80.0000011920929,0|4,0:0|0:0,0:0:0:0:
256,220,14273,2,0,B|296:212|296:212|340:220,2,80.0000011920929
296,288,15669,1,0,0:0:0:0:
336,356,16134,6,0,B|296:364|296:364|252:356,1,80.0000011920929,0|4,0:0|0:0,0:0:0:0:
252,276,17064,6,0,B|212:268|212:268|168:276,1,80.0000011920929,0|4,0:0|0:0,0:0:0:0:
106,232,17994,2,0,P|102:184|121:151,2,80.0000011920929
184,204,19390,1,0,0:0:0:0:
256,167,19855,2,0,L|344:162,1,80.0000011920929,0|4,0:0|0:0,0:0:0:0:
344,242,20785,2,0,L|256:247,1,80.0000011920929,0|4,0:0|0:0,0:0:0:0:
256,167,21715,2,0,P|286:105|246:26,1,160.000002384186
127,133,23576,6,0,P|103:255|198:303,1,240.000003576279
264,272,25436,2,0,P|253:233|223:207,1,80.0000011920929
140,204,26366,2,0,P|112:228|100:272,1,80.0000011920929
63,343,27296,6,0,P|140:341|180:276,1,160.000002384186
99,271,28692,1,4,0:0:0:0:
143,203,29157,2,0,P|187:195|227:209,1,80.0000011920929,0|8,0:0|0:0,0:0:0:0:
256,276,30087,2,0,P|216:284|178:272,1,80.0000011920929,0|8,0:0|0:0,0:0:0:0:
221,205,31017,6,0,B|297:205|297:205|385:165|385:165|460:164,1,240.000003576279,0|4,0:0|0:0,0:0:0:0:
458,85,32878,2,0,L|370:85,1,80.0000011920929,0|8,0:0|0:0,0:0:0:0:
308,124,33808,2,0,L|308:36,1,80.0000011920929,0|8,0:0|0:0,0:0:0:0:
388,60,34738,2,0,P|300:124|224:40,1,240.000003576279,0|4,0:0|0:0,0:0:0:0:
144,32,36599,2,0,B|140:96|140:96|164:192,1,160.000002384186
244,192,37994,2,0,L|284:192,1,40.0000005960464
324,192,38459,5,0,0:0:0:0:
408,192,38924,1,0,0:0:0:0:
366,264,39390,1,0,0:0:0:0:
324,192,39855,2,0,L|324:144,1,40.0000005960464
324,112,40320,2,0,P|344:56|404:40,1,120.000001788139
428,64,41250,2,0,P|408:120|348:136,1,120.000001788139
324,112,42180,5,0,0:0:0:0:
366,184,42645,1,0,0:0:0:0:
324,256,43110,1,0,0:0:0:0:
240,255,43576,2,0,L|216:216,1,40.0000005960464
200,184,44041,6,0,P|168:144|48:236,1,240.000003576279,0|8,0:0|0:0,0:0:0:0:
124,212,45901,6,0,B|112:168|112:168|112:128,1,79.9999999999998,0|4,0:0|0:0,0:0:0:0:
190,118,46831,2,0,B|202:162|202:162|202:202,1,79.9999999999998
202,236,47529,1,0,0:0:0:0:
164,252,47762,2,0,B|120:239|120:239|85:239,1,79.9999999999998,0|4,0:0|0:0,0:0:0:0:
64,316,48692,2,0,B|108:328|108:328|142:328,1,79.9999999999998
182,314,49390,1,0,0:0:0:0:
220,301,49622,6,0,L|316:301,1,79.9999999999998,0|4,0:0|0:0,0:0:0:0:
364,252,50552,2,0,L|364:156,1,79.9999999999998
284,184,51483,2,0,L|284:224,2,39.9999999999999
252,160,52180,1,0,0:0:0:0:
220,136,52413,2,0,L|220:96,2,39.9999999999999
140,144,53343,6,0,B|112:200|148:260|212:264|212:264|288:264,1,239.999999999999,4|0,0:0|0:0,0:0:0:0:
324,260,54971,1,0,0:0:0:0:
356,236,55203,2,0,B|356:332|356:332|452:332|452:332|452:268,1,239.999999999999,4|0,0:0|0:0,0:0:0:0:
432,248,56831,1,0,0:0:0:0:
412,212,57064,6,0,P|382:103|477:42,1,239.999999999999,4|0,0:0|0:0,0:0:0:0:
476,80,58692,1,0,0:0:0:0:
476,120,58924,2,0,P|418:134|364:111,1,120,4|0,0:0|0:0,0:0:0:0:
284,120,60087,2,0,L|284:80,2,39.9999999999999
288,160,60785,5,0,0:0:0:0:
264,192,61017,2,0,L|136:192,1,120
104,192,61948,2,0,L|48:192,2,39.9999999999999,8|0|0,0:0|0:0|0:0,0:0:0:0:
108,152,62645,6,0,P|163:139|180:72,1,120,0|8,0:0|0:0,0:0:0:0:
224,84,63576,2,0,L|352:84,1,120
348,164,64738,6,0,L|400:164,2,39.9999999999999
272,192,65669,2,0,L|272:232,1,39.9999999999999
256,192,66134,12,0,68227,0:0:0:0:
