osu file format v14

[General]
AudioFilename: audio.mp3
AudioLeadIn: 0
PreviewTime: 52877
Countdown: 0
SampleSet: Soft
StackLeniency: 0.6
Mode: 0
LetterboxInBreaks: 0
WidescreenStoryboard: 1

[Editor]
DistanceSpacing: 1.3
BeatDivisor: 4
GridSize: 32
TimelineZoom: 2.699999

[Metadata]
Title:HEKIREKI (TV Size)
TitleUnicode:HEKIREKI (TV Size)
Artist:LAST ALLIANCE
ArtistUnicode:LAST ALLIANCE
Creator:Nymphe
Version:NORMAL
Source:はじめの一歩 New Challenger
Tags:hajime no ippo opening rock japanese jrock ラスト・アライアンス Keep on smashing Reform anime Kujinn blue -Kemsyt kiyoshi guarden
BeatmapID:3111250
BeatmapSetID:1519389

[Difficulty]
HPDrainRate:3.5
CircleSize:3.2
OverallDifficulty:4
ApproachRate:6
SliderMultiplier:0.7
SliderTickRate:1

[Events]
//Background and Video events
0,0,"cropped-1920-1080-73836.jpg",0,0
Video,480,"Hajimenoipponewchallenger-Op1-1.mp4"
//Break Periods
//Storyboard Layer 0 (Background)
//Storyboard Layer 1 (Fail)
//Storyboard Layer 2 (Pass)
//Storyboard Layer 3 (Foreground)
//Storyboard Layer 4 (Overlay)
//Storyboard Sound Samples

[TimingPoints]
319,232.558139534884,4,2,1,90,1,0
319,-100,4,2,1,90,0,0
1888,-100,4,2,1,5,0,0
1946,-100,4,2,1,90,0,0
2819,-100,4,2,1,5,0,0
2877,-100,4,2,1,90,0,0
3749,-100,4,2,1,5,0,0
3807,-100,4,2,1,90,0,0
5028,-100,4,2,1,5,0,0
5086,-100,4,2,1,90,0,0
5609,-100,4,2,1,5,0,0
5667,-100,4,2,1,90,0,0
6539,-100,4,2,1,5,0,0
6597,-100,4,2,1,90,0,0
7470,-100,4,2,1,5,0,0
7528,-100,4,2,1,90,0,0
8691,-100,4,2,1,80,0,0
21888,-100,4,2,1,5,0,0
21946,-100,4,2,1,80,0,0
22644,-100,4,2,1,80,0,0
23574,-100,4,2,1,90,0,0
35842,-100,4,2,1,5,0,0
35900,-100,4,2,1,90,0,0
38458,-100,4,2,1,70,0,0
45900,-100,4,2,1,90,0,0
46074,-100,4,2,1,5,0,0
46132,-100,4,2,1,90,0,0
47935,-100,4,2,1,5,0,0
47993,-100,4,2,1,90,0,0
49795,-100,4,2,1,5,0,0
49853,-100,4,2,1,90,0,0
53342,-100,4,2,1,85,0,0
54912,-100,4,2,1,5,0,0
54970,-100,4,2,1,85,0,0
60784,-100,4,2,1,95,0,0
62819,-100,4,2,1,5,0,0
62877,-100,4,2,1,95,0,0
64679,-100,4,2,1,5,0,0
64737,-100,4,2,1,95,0,0
66132,-100,4,2,1,80,0,0
67295,-100,4,2,1,70,0,0
68225,-100,4,2,1,60,0,0
69156,-100,4,2,1,30,0,0
69621,-100,4,2,1,5,0,0

[Colours]
Combo1 : 210,210,210
Combo2 : 205,179,122

[HitObjects]
83,47,784,6,0,L|38:41,2,35,10|10|10,0:0|0:0|0:0,0:0:0:0:
105,86,1133,2,0,L|121:200,1,105,6|10,3:2|0:0,0:0:0:0:
67,265,1715,1,2,3:2:0:0:
132,330,1947,2,0,B|198:354|198:354|276:322,1,140,10|10,0:0|0:0,0:0:0:0:
350,350,2645,1,2,3:2:0:0:
427,302,2877,6,0,B|453:263|435:232|419:246|387:202|412:166,1,140,10|10,0:0|0:0,0:0:0:0:
474,113,3575,1,2,3:0:0:0:
413,44,3808,2,0,L|260:68,1,140,8|10,0:0|0:0,0:0:0:0:
195,21,4505,1,2,3:2:0:0:
129,84,4738,6,0,B|177:123|177:123|159:205,1,140,10|10,0:0|0:0,0:0:0:0:
115,278,5436,1,2,3:2:0:0:
47,338,5668,2,0,B|-5:293|-5:293|16:219,1,140,10|10,0:0|0:0,0:0:0:0:
11,133,6366,1,2,3:2:0:0:
61,57,6598,6,0,P|125:33|189:57,1,140,10|10,0:0|0:0,0:0:0:0:
232,137,7296,1,2,3:2:0:0:
290,206,7529,2,0,B|328:181|363:214|351:224|380:258|420:234,1,140,10|0,0:0|3:0,0:0:0:0:
503,229,8226,2,0,B|516:265|516:265|504:296,1,70,10|0,0:0|3:0,0:0:0:0:
442,361,8691,6,0,B|404:352|404:352|365:374|365:374|307:361,1,140,6|2,3:2|3:2,0:0:0:0:
249,293,9389,2,0,L|176:305,1,70,8|0,0:0|0:0,0:0:0:0:
121,374,9854,2,0,B|137:234,1,140,10|10,0:0|0:0,0:0:0:0:
101,146,10552,6,0,P|49:137|9:184,2,105,2|2|10,3:2|0:0|0:0,0:0:0:0:
223,206,11598,2,0,B|275:225|275:225|321:205,1,105,0|2,3:0|3:2,0:0:0:0:
369,128,12179,1,8,0:0:0:0:
414,49,12412,6,0,B|422:189,1,140,2|2,3:2|3:2,0:0:0:0:
483,256,13110,1,8,0:0:0:0:
445,339,13343,2,0,L|372:351,1,70,0|10,3:2|0:0,0:0:0:0:
311,285,13808,2,0,L|239:275,1,70,2|10,3:2|0:0,0:0:0:0:
151,262,14273,6,0,P|133:313|169:362,2,105,2|2|10,3:2|0:0|0:0,0:0:0:0:
260,179,15319,1,0,3:0:0:0:
260,179,15436,2,0,P|280:140|266:111,1,70,8|2,0:0|3:2,0:0:0:0:
220,42,15901,1,8,0:0:0:0:
304,9,16133,6,0,B|373:3|373:3|446:42,1,140,2|2,3:2|3:2,0:0:0:0:
479,116,16831,1,8,0:0:0:0:
451,202,17063,2,0,B|408:188|382:218|399:237|369:270|318:246,1,140,0|2,3:2|3:2,0:0:0:0:
259,198,17761,1,10,0:2:0:0:
176,236,17994,6,0,P|144:188|155:145,2,105,2|2|10,3:2|0:2|0:2,0:0:0:0:
254,347,19040,1,0,3:0:0:0:
254,347,19156,2,0,L|181:336,1,70,8|2,0:0|3:2,0:0:0:0:
99,370,19622,1,8,0:0:0:0:
30,310,19853,6,0,L|24:199,1,105,2|2,3:2|0:2,0:0:0:0:
28,159,20319,1,2,3:2:0:0:
91,93,20552,1,8,0:0:0:0:
91,93,20668,2,0,P|148:103|210:112,1,105,2|10,3:2|0:2,0:0:0:0:
252,180,21250,2,0,P|294:174|332:170,1,70,2|10,3:2|0:2,0:0:0:0:
399,122,21715,6,0,P|433:85|415:37,2,105,2|2|0,3:2|0:2|3:0,0:0:0:0:
321,170,22645,2,0,P|329:212|337:242,1,70,10|0,0:2|3:0,0:0:0:0:
413,286,23110,2,0,P|405:326|397:356,1,70,2|14,3:2|0:2,0:0:0:0:
307,368,23575,6,0,B|253:355|253:355|220:379|220:379|177:367,1,140,6|2,3:2|3:2,0:0:0:0:
98,318,24272,1,8,0:0:0:0:
144,240,24505,2,0,P|157:198|146:172,1,70,2|10,0:0|0:2,0:0:0:0:
59,152,24970,2,0,P|46:110|57:84,1,70,2|10,3:2|0:2,0:0:0:0:
127,31,25436,6,0,P|90:2|36:3,2,105,2|2|10,3:2|0:2|0:2,0:0:0:0:
158,116,26365,1,2,3:2:0:0:
239,159,26598,1,8,0:0:0:0:
307,99,26830,2,0,L|300:54,2,35,2|2|8,3:2|3:2|0:0,0:0:0:0:
392,132,27296,6,0,P|416:159|416:236,1,105,2|0,3:2|0:0,0:0:0:0:
407,268,27760,2,0,L|419:310,1,35,2|2,3:2|0:2,0:0:0:0:
346,360,28109,2,0,B|293:381|293:381|240:354,1,105,2|10,3:2|0:2,0:0:0:0:
202,280,28691,1,2,3:2:0:0:
120,240,28923,1,10,0:2:0:0:
40,283,29156,6,0,P|12:319|33:378,2,105,2|2|10,3:2|0:2|0:2,0:0:0:0:
193,173,30319,2,0,P|204:141|188:106,1,70,8|2,0:0|3:2,0:0:0:0:
159,75,30667,1,2,3:2:0:0:
228,15,30900,1,2,0:2:0:0:
228,15,31017,6,0,L|301:26,1,70,2|10,3:2|0:2,0:0:0:0:
370,79,31481,1,2,3:2:0:0:
438,18,31714,1,8,0:0:0:0:
504,79,31946,2,0,P|499:115|492:149,1,70,2|10,3:2|0:2,0:0:0:0:
467,236,32412,1,2,3:2:0:0:
380,264,32644,1,10,0:2:0:0:
401,354,32877,6,0,P|444:376|504:363,2,105,2|2|10,3:2|0:2|0:2,0:0:0:0:
315,321,33807,2,0,B|285:306|262:322|269:330|240:345|208:326,1,105,0|0,3:2|0:0,0:0:0:0:
186,293,34273,1,2,3:2:0:0:
114,349,34505,1,8,0:0:0:0:
48,286,34738,6,0,P|44:243|43:211,1,70,2|10,3:2|0:2,0:0:0:0:
17,129,35202,1,2,3:2:0:0:
84,64,35435,1,10,0:2:0:0:
174,70,35668,2,0,P|185:114|187:145,1,70,0|10,3:2|0:0,0:0:0:0:
136,214,36133,1,2,3:2:0:0:
200,278,36366,1,10,0:2:0:0:
275,226,36598,6,0,L|356:217,1,70,2|10,3:2|0:2,0:0:0:0:
381,191,36947,2,0,L|450:198,1,70,2|2,3:2|3:2,0:0:0:0:
489,222,37296,1,8,0:0:0:0:
465,310,37529,2,0,P|428:330|391:326,1,70,0|8,0:0|0:0,0:0:0:0:
362,317,37877,1,8,0:0:0:0:
362,317,37993,2,0,L|284:328,1,70,2|2,3:2|3:2,0:0:0:0:
202,343,38459,6,0,B|156:306|156:306|187:224,1,140,6|10,3:2|0:2,0:0:0:0:
319,133,39389,2,0,B|365:96|365:96|334:14,1,140,2|10,3:2|0:2,0:0:0:0:
246,4,40087,1,2,0:2:0:0:
180,73,40319,6,0,P|135:40|146:-5,2,105,2|2|0,3:2|0:2|0:0,0:0:0:0:
228,150,41250,2,0,L|214:264,2,105,0|0|2,3:0|0:0|0:2,0:0:0:0:
304,101,42180,6,0,B|371:80|371:80|445:108,1,140,2|10,3:2|0:2,0:0:0:0:
496,276,43110,2,0,B|429:297|429:297|363:272,1,140,2|10,3:2|0:2,0:0:0:0:
285,225,43808,1,10,0:2:0:0:
210,276,44040,6,0,P|183:320|200:372,2,105,2|2|10,3:2|0:2|0:2,0:0:0:0:
159,200,44970,2,0,P|151:154|146:124,1,70,2|10,3:2|0:2,0:0:0:0:
168,45,45436,1,10,0:2:0:0:
168,45,45552,2,0,L|251:59,1,70,8|8,0:0|0:0,0:0:0:0:
269,88,45900,6,0,L|338:76,1,70,6|10,3:2|0:2,0:0:0:0:
399,8,46366,1,2,3:2:0:0:
473,59,46598,2,0,B|506:101|506:101|489:191,1,140,10|10,0:2|0:2,0:0:0:0:
426,252,47295,1,0,3:0:0:0:
485,317,47529,1,10,0:2:0:0:
400,351,47761,6,0,B|359:324|325:348|340:368|299:388|258:355,1,140,2|2,3:2|3:2,0:0:0:0:
254,274,48459,2,0,B|189:251|189:251|129:295,1,140,10|10,0:2|0:2,0:0:0:0:
62,353,49156,1,2,3:2:0:0:
1,284,49389,1,10,0:2:0:0:
62,217,49622,6,0,P|79:174|71:143,1,70,0|8,3:0|0:0,0:0:0:0:
10,87,50086,1,2,3:2:0:0:
57,9,50319,1,10,0:2:0:0:
145,29,50551,2,0,L|189:42,1,35,2|0,0:2|3:0,0:0:0:0:
217,62,50784,2,0,L|293:49,1,70,10|0,0:2|3:0,0:0:0:0:
373,22,51250,6,0,P|424:65|400:136,1,140,10|8,0:2|0:0,0:0:0:0:
343,193,51947,1,2,3:2:0:0:
416,247,52180,2,0,L|406:325,1,70,10|10,0:2|0:2,0:0:0:0:
401,365,52529,1,8,0:0:0:0:
401,365,52645,2,0,P|365:376|335:360,1,70,10|2,0:2|0:0,0:0:0:0:
155,358,53343,6,0,B|115:299|115:299|151:233,1,140,6|10,3:2|0:2,0:0:0:0:
211,173,54040,1,2,0:2:0:0:
142,113,54272,2,0,P|137:68|133:37,1,70,0|2,3:2|3:2,0:0:0:0:
220,0,54738,1,10,0:2:0:0:
289,58,54970,1,2,0:2:0:0:
366,10,55203,6,0,P|430:17|451:91,1,140,2|10,3:2|0:2,0:0:0:0:
466,171,55901,1,2,0:2:0:0:
418,248,56133,2,0,L|347:232,1,70,2|2,3:2|3:2,0:0:0:0:
273,282,56598,1,10,0:2:0:0:
199,229,56831,1,2,0:2:0:0:
129,288,57063,6,0,P|63:275|64:205,1,140,2|10,3:2|0:2,0:0:0:0:
111,137,57761,1,2,0:2:0:0:
79,51,57994,2,0,L|155:35,1,70,0|2,3:2|3:2,0:0:0:0:
207,105,58459,2,0,L|275:119,1,70,10|2,0:2|3:2,0:0:0:0:
342,57,58924,6,0,L|316:205,1,140,2|8,3:2|0:0,0:0:0:0:
258,263,59622,1,10,0:0:0:0:
318,330,59854,2,0,P|364:341|391:329,1,70,2|10,3:2|0:2,0:0:0:0:
423,309,60203,1,8,0:0:0:0:
423,309,60319,2,0,L|418:262,2,35,10|8|10,0:2|0:0|0:2,0:0:0:0:
505,270,60784,6,0,L|496:118,1,140,6|2,3:2|3:2,0:0:0:0:
447,53,61481,2,0,P|430:52|399:50,1,35,10|0,0:2|0:0,0:0:0:0:
370,71,61714,2,0,L|292:56,1,70,0|10,3:2|0:2,0:0:0:0:
217,21,62180,1,2,3:2:0:0:
149,82,62412,6,0,B|105:108|105:108|130:200,1,140,10|10,0:2|0:2,0:0:0:0:
159,279,63110,1,2,3:2:0:0:
231,334,63343,2,0,B|268:314|302:350|288:362|317:396|365:371,1,140,10|10,0:2|0:2,0:0:0:0:
437,345,64039,1,2,3:2:0:0:
497,273,64272,1,10,0:2:0:0:
414,214,64505,6,0,B|386:143|386:143|420:78,1,140,0|2,3:0|3:2,0:0:0:0:
496,18,65203,1,10,0:2:0:0:
496,18,65319,2,0,L|454:11,1,35,2|2,3:2|0:0,0:0:0:0:
256,192,66132,5,6,3:2:0:0:
256,192,66250,12,0,69621,0:0:0:0:
