osu file format v14

[General]
AudioFilename: audio.mp3
AudioLeadIn: 0
PreviewTime: 52877
Countdown: 0
SampleSet: Soft
StackLeniency: 0.7
Mode: 0
LetterboxInBreaks: 0
WidescreenStoryboard: 0

[Editor]
Bookmarks: 70086
DistanceSpacing: 1.1
BeatDivisor: 4
GridSize: 32
TimelineZoom: 1.4

[Metadata]
Title:HEKIREKI (TV Size)
TitleUnicode:HEKIREKI (TV Size)
Artist:LAST ALLIANCE
ArtistUnicode:LAST ALLIANCE
Creator:Nymphe
Version:NEW CHALLENGER
Source:はじめの一歩 New Challenger
Tags:hajime no ippo opening rock japanese jrock ラスト・アライアンス Keep on smashing Reform anime Kujinn blue -Kemsyt kiyoshi guarden
BeatmapID:3109997
BeatmapSetID:1519389

[Difficulty]
HPDrainRate:5.5
CircleSize:4.3
OverallDifficulty:9
ApproachRate:9.5
SliderMultiplier:1.9
SliderTickRate:1

[Events]
//Background and Video events
0,0,"cropped-1920-1080-73836.jpg",0,0
Video,480,"Hajimenoipponewchallenger-Op1-1.mp4"
//Break Periods
//Storyboard Layer 0 (Background)
//Storyboard Layer 1 (Fail)
//Storyboard Layer 2 (Pass)
//Storyboard Layer 3 (Foreground)
//Storyboard Layer 4 (Overlay)
//Storyboard Sound Samples

[TimingPoints]
319,232.558139534884,4,2,1,90,1,0
319,-111.111111111111,4,2,1,90,0,0
1888,-111.111111111111,4,2,1,5,0,0
1946,-111.111111111111,4,2,1,90,0,0
2819,-111.111111111111,4,2,1,5,0,0
2877,-111.111111111111,4,2,1,90,0,0
3749,-111.111111111111,4,2,1,5,0,0
3807,-111.111111111111,4,2,1,90,0,0
5028,-111.111111111111,4,2,1,5,0,0
5086,-111.111111111111,4,2,1,90,0,0
5609,-111.111111111111,4,2,1,5,0,0
5667,-111.111111111111,4,2,1,90,0,0
6539,-111.111111111111,4,2,1,5,0,0
6597,-111.111111111111,4,2,1,90,0,0
7470,-111.111111111111,4,2,1,5,0,0
7528,-111.111111111111,4,2,1,90,0,0
8691,-125,4,2,1,80,0,0
21888,-125,4,2,1,5,0,0
21946,-125,4,2,1,80,0,0
22644,-117.647058823529,4,2,1,80,0,0
23574,-111.111111111111,4,2,1,90,0,0
35842,-111.111111111111,4,2,1,5,0,0
35900,-111.111111111111,4,2,1,90,0,0
38458,-142.857142857143,4,2,1,70,0,0
45900,-100,4,2,1,90,0,0
46074,-99.9999999999999,4,2,1,5,0,0
46132,-99.9999999999999,4,2,1,90,0,0
47935,-99.9999999999999,4,2,1,5,0,0
47993,-99.9999999999999,4,2,1,90,0,0
49795,-99.9999999999999,4,2,1,5,0,0
49853,-99.9999999999999,4,2,1,90,0,0
53342,-133.333333333333,4,2,1,85,0,0
54912,-133.333333333333,4,2,1,5,0,0
54970,-133.333333333333,4,2,1,85,0,0
60784,-117.647058823529,4,2,1,95,0,0
62819,-117.647058823529,4,2,1,5,0,0
62877,-117.647058823529,4,2,1,95,0,0
64679,-117.647058823529,4,2,1,5,0,0
64737,-117.647058823529,4,2,1,95,0,0
66132,-222.222222222222,4,2,1,80,0,0
67295,-222.222222222222,4,2,1,70,0,0
68225,-222.222222222222,4,2,1,60,0,0
69156,-222.222222222222,4,2,1,30,0,0
69621,-222.222222222222,4,2,1,5,0,0

[Colours]
Combo1 : 146,217,128
Combo2 : 100,141,210
Combo3 : 174,126,106

[HitObjects]
481,327,784,5,10,0:0:0:0:
405,301,901,1,10,0:0:0:0:
329,275,1017,1,10,0:0:0:0:
204,77,1132,6,0,B|252:43|288:83|288:83|308:135|375:113,1,170.999994781494,6|0,3:2|3:0,0:0:0:0:
474,15,1481,2,0,P|428:28|416:66,1,85.4999973907472,10|0,0:0|0:0,0:0:0:0:
507,216,1714,2,0,B|441:204|441:204|444:209|444:209|379:197,1,128.249996086121,2|0,3:2|0:0,0:0:0:0:
371,210,1946,1,10,0:0:0:0:
178,334,2063,6,0,B|212:372|212:372|273:321|226:256,1,170.999994781494,2|0,3:2|3:0,0:0:0:0:
101,154,2412,2,0,P|111:198|154:206,1,85.4999973907472,10|0,0:0|0:0,0:0:0:0:
304,89,2644,2,0,B|268:67|241:100|247:108|219:138|183:114,1,128.249996086121,2|0,3:2|0:0,0:0:0:0:
173,99,2877,1,10,0:0:0:0:
369,211,2993,6,0,B|410:209|431:172|431:172|424:240|489:250,1,170.999994781494,2|0,3:2|3:0,0:0:0:0:
310,371,3342,2,0,P|269:354|266:309,1,85.4999973907472,10|0,0:0|0:0,0:0:0:0:
173,99,3574,2,0,B|208:79|208:79|190:170,1,128.249996086121,2|0,3:2|0:0,0:0:0:0:
175,182,3807,1,8,0:0:0:0:
10,308,3923,6,0,B|50:318|84:293|84:293|154:321|101:388,1,170.999994781494,0|0,3:0|3:0,0:0:0:0:
25,202,4272,2,0,P|-1:168|15:125,1,85.4999973907472,10|0,0:0|0:0,0:0:0:0:
156,11,4505,1,2,3:2:0:0:
231,41,4621,1,2,3:2:0:0:
306,71,4737,1,10,0:0:0:0:
124,215,4853,6,0,B|165:205|165:205|203:236|203:236|254:224,1,128.249996086121,2|0,3:2|0:0,0:0:0:0:
244,210,5086,1,0,3:0:0:0:
361,370,5202,2,0,P|316:358|304:319,1,85.4999973907472,10|0,0:0|0:0,0:0:0:0:
366,144,5435,2,0,B|430:137|430:137|427:140|427:140|499:132,1,128.249996086121,2|0,3:2|0:0,0:0:0:0:
505,152,5667,1,10,0:0:0:0:
305,30,5784,6,0,B|261:42|239:1|239:1|244:69|185:82,1,170.999994781494,2|0,3:2|3:0,0:0:0:0:
124,215,6132,2,0,P|171:203|182:168,1,85.4999973907472,10|0,0:0|0:0,0:0:0:0:
44,0,6365,2,0,B|81:24|81:24|50:110,1,128.249996086121,2|0,3:2|0:0,0:0:0:0:
34,123,6598,1,10,0:0:0:0:
1,312,6714,6,0,B|38:273|81:311|81:311|101:365|175:345,1,170.999994781494,2|0,3:2|3:0,0:0:0:0:
243,129,7063,2,0,B|195:137|195:137|178:182,1,85.4999973907472,10|0,0:0|0:0,0:0:0:0:
307,368,7295,2,0,B|276:388|276:388|288:290,1,128.249996086121,2|0,3:2|0:0,0:0:0:0:
335,244,7528,2,0,B|369:278|369:278|357:324,1,85.4999973907472,10|0,0:0|0:0,0:0:0:0:
290,24,7760,5,0,3:0:0:0:
414,124,7877,1,0,3:0:0:0:
234,245,7993,1,0,3:0:0:0:
314,128,8109,1,8,0:0:0:0:
492,323,8225,5,10,0:0:0:0:
426,375,8342,2,0,P|396:327|413:293,1,85.4999973907472,2|0,3:2|3:0,0:0:0:0:
499,148,8574,1,6,3:2:0:0:
335,244,8691,6,0,P|287:236|244:229,1,76,6|0,3:2|0:0,0:0:0:0:
161,362,8923,2,0,P|199:350|212:315,1,76,10|0,0:0|0:0,0:0:0:0:
128,179,9156,1,2,3:2:0:0:
119,191,9272,2,0,P|127:236|135:274,1,76,2|8,3:2|0:0,0:0:0:0:
2,121,9505,6,0,B|43:148|73:108|58:93|93:57|147:89,1,152,2|0,3:2|3:0,0:0:0:0:
282,41,9853,1,10,0:0:0:0:
211,6,9970,1,2,0:0:0:0:
228,164,10086,2,0,P|207:119|227:86,1,76,2|0,3:2|3:0,0:0:0:0:
361,23,10319,2,0,P|369:59|348:89,1,76,10|0,0:0|0:0,0:0:0:0:
418,234,10551,6,0,B|332:187|332:187|362:192|392:170,1,152,2|8,3:2|0:0,0:0:0:0:
497,41,10900,2,0,B|466:15|466:15|492:132,1,152,2|0,0:0|0:0,0:0:0:0:
508,242,11249,1,10,0:0:0:0:
350,324,11365,6,0,B|387:293|422:327|422:327|442:378|500:362,1,152,2|0,3:2|3:0,0:0:0:0:
291,254,11714,2,0,P|261:225|219:228,1,76,8|0,0:0|0:0,0:0:0:0:
114,364,11946,1,2,3:2:0:0:
122,375,12063,2,0,P|135:328|146:286,1,76,2|8,3:2|0:0,0:0:0:0:
97,234,12295,1,2,0:0:0:0:
217,153,12412,6,0,P|234:194|224:231,1,76,2|0,3:2|0:0,0:0:0:0:
75,114,12644,2,0,P|69:76|85:43,1,76,10|0,0:0|0:0,0:0:0:0:
259,4,12877,1,2,3:2:0:0:
270,13,12993,2,0,P|224:9|171:3,1,76,2|8,0:0|0:0,0:0:0:0:
395,128,13225,6,0,B|358:147|358:147|309:91|360:47,1,152,2|0,3:2|3:0,0:0:0:0:
502,145,13574,2,0,P|492:194|483:233,1,76,10|0,0:0|0:0,0:0:0:0:
384,315,13807,1,2,3:2:0:0:
443,360,13923,1,2,3:2:0:0:
392,222,14039,2,0,P|348:230|305:240,1,76,10|0,0:0|0:0,0:0:0:0:
129,335,14272,6,0,B|183:325|183:325|218:357|218:357|286:346,1,152,2|8,3:2|0:0,0:0:0:0:
70,193,14621,2,0,B|103:224|76:258|76:258|23:280|54:345,1,152,2|0,0:0|0:0,0:0:0:0:
179,168,14970,1,10,0:0:0:0:
39,45,15086,6,0,B|4:76|4:76|52:134|108:92,1,152,0|0,3:0|3:0,0:0:0:0:
219,9,15435,2,0,P|178:16|153:50,1,76,8|0,0:0|0:0,0:0:0:0:
315,123,15667,1,2,3:2:0:0:
327,132,15784,2,0,P|322:81|316:45,1,76,2|8,3:2|0:0,0:0:0:0:
376,1,16016,1,2,0:0:0:0:
377,209,16132,6,0,P|338:231|304:219,1,76,2|0,3:2|0:0,0:0:0:0:
445,110,16365,2,0,P|481:103|512:124,1,76,10|2,0:2|0:2,0:0:0:0:
464,286,16598,1,2,3:2:0:0:
452,295,16715,2,0,P|457:244|463:208,1,76,2|8,0:2|0:0,0:0:0:0:
374,362,16946,6,0,B|348:324|308:338|308:338|283:378|244:367,1,152,2|0,3:2|3:0,0:0:0:0:
261,176,17295,2,0,B|301:191|301:191|313:237,1,76,10|0,0:2|0:0,0:0:0:0:
81,335,17528,1,2,3:2:0:0:
154,367,17644,1,0,3:0:0:0:
80,235,17760,2,0,P|35:231|6:261,1,76,10|0,0:2|0:0,0:0:0:0:
203,256,17993,6,0,B|171:288|171:288|165:163,1,152,2|8,3:2|0:0,0:0:0:0:
21,56,18342,2,0,B|63:70|86:35|86:35|142:47|129:107,1,152,2|0,0:2|0:0,0:0:0:0:
80,235,18691,1,10,0:2:0:0:
225,110,18807,6,0,B|319:85|319:85|288:99|283:135,1,152,2|0,3:2|3:0,0:0:0:0:
431,222,19156,2,0,P|387:207|379:175,1,76,8|0,0:0|0:0,0:0:0:0:
462,25,19388,1,2,3:2:0:0:
473,37,19505,2,0,P|461:80|453:115,1,76,2|8,3:2|0:0,0:0:0:0:
501,177,19737,1,2,0:2:0:0:
431,329,19853,6,0,P|474:321|520:312,1,76,2|0,3:2|0:0,0:0:0:0:
431,222,20086,2,0,P|393:215|356:207,1,76,10|2,0:2|0:2,0:0:0:0:
297,348,20319,1,2,3:2:0:0:
306,358,20435,2,0,P|332:325|321:291,1,76,2|8,0:2|0:0,0:0:0:0:
127,265,20667,6,0,B|170:297|207:265|185:239|229:205|277:235,1,152,2|0,3:2|3:0,0:0:0:0:
178,68,21016,2,0,P|162:109|189:147,1,76,10|0,0:2|0:0,0:0:0:0:
314,33,21249,1,2,3:2:0:0:
243,1,21365,1,0,3:0:0:0:
293,131,21481,2,0,P|338:123|384:112,1,76,10|2,0:2|0:2,0:0:0:0:
512,40,21714,6,0,B|451:33|451:33|455:31|455:31|398:26,1,114,2|0,3:2|0:0,0:0:0:0:
396,40,21946,1,10,0:2:0:0:
478,203,22063,2,0,P|502:166|490:129,1,76,2|0,0:2|3:0,0:0:0:0:
393,313,22295,1,10,0:2:0:0:
408,322,22412,2,0,P|455:317|506:312,1,76,0|0,3:0|3:0,0:0:0:0:
302,219,22644,5,10,0:2:0:0:
349,160,22760,2,0,P|386:197|382:234,1,80.750001540184,0|0,3:0|3:0,0:0:0:0:
282,377,22993,1,8,0:0:0:0:
206,352,23109,1,2,3:2:0:0:
130,327,23225,1,2,3:2:0:0:
206,366,23342,2,0,P|233:329|222:295,1,80.750001540184,14|2,0:2|0:2,0:0:0:0:
238,88,23574,6,0,P|280:60|325:71,1,85.4999973907472,6|0,3:2|0:0,0:0:0:0:
161,235,23807,2,0,P|119:236|86:211,1,85.4999973907472,10|2,0:2|0:2,0:0:0:0:
167,37,24039,1,2,3:2:0:0:
316,173,24156,2,0,P|307:233|298:283,1,85.4999973907472,2|8,0:2|0:0,0:0:0:0:
14,74,24388,6,0,B|55:44|94:81|94:81|112:138|174:126,1,170.999994781494,2|0,3:2|3:0,0:0:0:0:
85,326,24737,2,0,P|45:293|54:247,1,85.4999973907472,10|0,0:2|0:0,0:0:0:0:
246,115,24970,1,2,3:2:0:0:
133,241,25086,1,0,3:0:0:0:
262,359,25202,2,0,P|254:312|248:269,1,85.4999973907472,10|0,0:2|0:0,0:0:0:0:
433,105,25435,6,0,B|404:92|388:71|388:71|342:142|399:187,1,170.999994781494,2|8,3:2|0:0,0:0:0:0:
502,307,25784,2,0,B|488:259|436:273|436:273|414:334|364:315,1,170.999994781494,2|0,0:2|0:0,0:0:0:0:
279,185,26132,1,10,0:2:0:0:
209,312,26249,6,0,B|306:264|306:264|273:289|282:333,1,170.999994781494,2|0,3:2|3:0,0:0:0:0:
109,384,26598,2,0,P|77:346|99:304,1,85.4999973907472,8|0,0:0|0:0,0:0:0:0:
35,140,26830,1,2,3:2:0:0:
209,312,26946,2,0,P|241:274|219:232,1,85.4999973907472,2|8,3:2|0:0,0:0:0:0:
159,68,27179,1,2,0:2:0:0:
31,221,27295,6,0,P|79:228|129:233,1,85.4999973907472,2|0,3:2|0:0,0:0:0:0:
309,108,27528,2,0,P|266:114|224:118,1,85.4999973907472,10|0,0:2|0:0,0:0:0:0:
320,287,27760,1,2,3:2:0:0:
417,47,27877,2,0,P|410:105|402:146,1,85.4999973907472,2|8,0:2|0:0,0:0:0:0:
494,355,28109,6,0,P|498:285|409:262,1,170.999994781494,2|0,3:2|3:0,0:0:0:0:
261,351,28458,2,0,P|301:376|350:360,1,85.4999973907472,10|0,0:2|0:0,0:0:0:0:
193,220,28691,1,2,3:2:0:0:
145,369,28807,1,0,3:0:0:0:
320,287,28923,2,0,P|310:227|305:188,1,85.4999973907472,10|0,0:2|0:0,0:0:0:0:
134,36,29156,6,0,B|112:-5|60:-10|20:20|30:73|70:77,1,170.999994781494,2|8,3:2|0:0,0:0:0:0:
48,244,29505,2,0,B|78:282|119:251|119:251|143:196|211:226,1,170.999994781494,2|0,0:2|0:0,0:0:0:0:
368,171,29853,1,10,0:2:0:0:
244,33,29970,6,0,B|289:1|289:1|265:145,1,170.999994781494,2|0,3:2|3:0,0:0:0:0:
453,155,30319,2,0,P|428:103|385:97,1,85.4999973907472,8|0,0:0|0:0,0:0:0:0:
273,249,30551,1,2,3:2:0:0:
428,329,30667,2,0,P|476:322|534:314,1,85.4999973907472,2|8,3:2|0:0,0:0:0:0:
368,171,30900,1,2,0:2:0:0:
310,328,31016,6,0,P|270:343|229:324,1,85.4999973907472,2|0,3:2|0:0,0:0:0:0:
55,167,31249,2,0,P|95:152|136:171,1,85.4999973907472,10|0,0:2|0:0,0:0:0:0:
273,249,31481,1,2,3:2:0:0:
110,357,31598,2,0,P|81:314|98:278,1,85.4999973907472,2|8,0:2|0:0,0:0:0:0:
281,120,31830,6,0,B|184:88|184:88|228:103|227:145,1,170.999994781494,2|0,3:2|3:0,0:0:0:0:
310,328,32179,2,0,B|356:341|356:341|393:313,1,85.4999973907472,10|0,0:2|0:0,0:0:0:0:
395,116,32412,1,2,3:2:0:0:
273,249,32528,1,2,3:2:0:0:
483,317,32644,2,0,P|472:264|462:219,1,85.4999973907472,10|0,0:2|0:0,0:0:0:0:
324,30,32877,6,0,B|365:-10|406:23|406:23|430:78|496:48,1,170.999994781494,2|8,3:2|0:0,0:0:0:0:
226,136,33225,2,0,B|193:167|193:167|130:108|178:57,1,170.999994781494,2|0,0:2|0:0,0:0:0:0:
361,199,33574,1,10,0:2:0:0:
113,330,33691,6,0,B|168:314|168:314|218:356|218:356|283:336,1,170.999994781494,2|0,3:2|3:0,0:0:0:0:
450,162,34039,2,0,P|444:217|437:256,1,85.4999973907472,8|0,0:0|0:0,0:0:0:0:
508,342,34272,1,2,3:2:0:0:
320,131,34388,2,0,P|324:173|331:215,1,85.4999973907472,2|8,3:2|0:0,0:0:0:0:
416,36,34621,1,0,0:0:0:0:
227,177,34737,6,0,P|185:203|142:186,1,85.4999973907472,2|0,3:2|0:0,0:0:0:0:
20,82,34970,2,0,P|61:75|94:99,1,85.4999973907472,10|0,0:2|0:0,0:0:0:0:
147,294,35202,1,2,3:2:0:0:
33,199,35319,1,2,0:2:0:0:
186,28,35435,2,0,P|181:70|174:112,1,85.4999973907472,10|2,0:2|3:2,0:0:0:0:
266,339,35667,6,0,B|334:325|334:325|338:329|338:329|394:318,1,128.249996086121,0|0,3:2|0:0,0:0:0:0:
390,318,35900,2,0,B|409:271|409:271|390:235,1,85.4999973907472,10|2,0:0|0:2,0:0:0:0:
338,47,36132,1,2,3:2:0:0:
471,118,36249,1,2,3:2:0:0:
328,199,36365,2,0,P|286:209|254:179,1,85.4999973907472,10|0,0:2|0:0,0:0:0:0:
140,17,36598,5,2,3:2:0:0:
234,93,36714,1,8,0:0:0:0:
55,199,36830,1,10,0:2:0:0:
129,113,36946,2,0,P|137:170|143:221,1,85.4999973907472,2|0,3:2|3:0,0:0:0:0:
53,342,37179,2,0,P|65:285|92:275,1,85.4999973907472,2|8,3:2|0:0,0:0:0:0:
219,339,37412,6,0,B|247:301|292:320|292:320|323:377|375:354,1,170.999994781494,2|0,3:2|3:0,0:0:0:0:
438,137,37760,1,8,0:0:0:0:
322,219,37877,1,8,0:0:0:0:
420,297,37993,2,0,B|449:327|449:327|520:282|470:218,1,170.999994781494,2|2,3:2|3:2,0:0:0:0:
336,124,38342,1,4,3:2:0:0:
469,41,38458,6,0,B|477:10|511:4|511:4|473:-5|435:21|461:37|429:74|378:61,1,199.499993911743,6|0,3:2|0:0,0:0:0:0:
188,25,38923,2,0,B|223:-7|268:-1|298:13|311:38|304:57|288:79|261:85|246:63|241:43|260:31,1,199.499993911743,10|0,0:2|0:0,0:0:0:0:
17,124,39388,6,0,B|57:113|70:63|70:63|69:148|142:150,1,199.499993911743,2|0,3:2|0:0,0:0:0:0:
242,213,39853,2,0,P|234:175|222:123,1,66.4999979705811,10|0,0:2|0:0,0:0:0:0:
129,305,40086,2,0,P|137:267|149:215,1,66.4999979705811,2|0,0:2|0:0,0:0:0:0:
242,354,40319,6,0,P|280:367|311:355,1,66.4999979705811,2|0,3:2|0:0,0:0:0:0:
390,271,40551,1,2,0:2:0:0:
322,239,40667,1,2,0:2:0:0:
464,334,40784,2,0,P|481:286|469:266,1,66.4999979705811,8|0,0:0|0:0,0:0:0:0:
399,189,41016,2,0,P|382:141|394:121,1,66.4999979705811
512,33,41249,6,0,B|472:1|438:32|452:45|420:72|375:44,1,132.999995941162,0|0,3:0|0:0,0:0:0:0:
247,117,41598,1,0,0:0:0:0:
300,0,41714,2,0,P|307:47|314:81,1,66.4999979705811,10|0,0:2|0:0,0:0:0:0:
157,154,41946,2,0,P|163:121|167:88,1,66.4999979705811,2|0,0:2|0:0,0:0:0:0:
317,183,42179,6,0,B|363:207|397:171|397:171|480:191|437:266,1,199.499993911743,2|0,3:2|0:0,0:0:0:0:
477,359,42644,2,0,B|411:384|380:303|380:303|416:350|453:337,1,199.499993911743,10|0,0:2|0:0,0:0:0:0:
309,368,43109,6,0,B|255:387|214:328|253:322|209:245|142:286,1,199.499993911743,2|0,3:2|0:0,0:0:0:0:
26,220,43574,2,0,P|36:268|44:304,1,66.4999979705811,10|0,0:2|0:0,0:0:0:0:
133,117,43807,2,0,P|123:165|115:201,1,66.4999979705811,10|0,0:2|0:0,0:0:0:0:
74,34,44039,6,0,P|109:11|149:19,1,66.4999979705811,2|8,3:2|0:0,0:0:0:0:
284,54,44272,1,2,0:2:0:0:
232,1,44388,1,2,0:2:0:0:
231,122,44505,2,0,P|266:145|306:137,1,66.4999979705811,10|0,0:2|0:0,0:0:0:0:
364,90,44737,2,8,P|399:67|439:75,1,66.4999979705811,2|8,3:2|0:3,0:3:0:0:
502,205,44970,6,0,P|511:152|515:126,1,66.4999979705811,2|0,3:2|0:0,0:0:0:0:
353,203,45202,2,0,P|358:235|363:268,1,66.4999979705811,10|0,0:2|0:0,0:0:0:0:
460,365,45435,1,10,0:2:0:0:
512,311,45551,2,0,P|485:287|440:293,1,66.4999979705811,8|2,0:0|0:2,0:0:0:0:
326,384,45784,1,8,0:0:0:0:
242,214,45900,6,0,B|205:187|176:209|176:209|148:251|104:232,1,142.5,6|0,3:2|0:0,0:0:0:0:
116,236,46132,2,0,P|84:197|101:157,1,95,10|0,0:2|0:0,0:0:0:0:
241,6,46365,2,0,P|231:57|223:108,1,95,2|0,3:2|0:0,0:0:0:0:
312,296,46598,1,10,0:2:0:0:
405,169,46714,6,0,B|421:155|449:148|449:148|385:75|315:134,1,190,2|0,3:2|3:0,0:0:0:0:
185,384,47063,2,0,B|180:329|244:329|244:329|266:386|334:369,1,190,10|0,0:2|3:0,0:0:0:0:
489,249,47412,1,0,3:0:0:0:
325,125,47528,2,0,P|332:182|336:233,1,95,10|0,0:2|0:0,0:0:0:0:
193,28,47760,6,0,B|148:64|94:33|94:33|128:-1,1,142.5,2|0,3:2|0:0,0:0:0:0:
119,7,47993,2,0,P|111:73|105:125,1,95,10|0,0:2|0:0,0:0:0:0:
0,235,48225,2,0,P|2:187|52:162,1,95,2|0,3:2|0:0,0:0:0:0:
220,204,48458,1,10,0:2:0:0:
58,353,48574,6,0,B|122:334|122:334|167:381|167:381|248:356,1,190,2|0,3:2|3:0,0:0:0:0:
326,144,48923,2,0,P|315:205|306:252,1,95,10|0,0:2|0:0,0:0:0:0:
410,72,49156,1,2,3:2:0:0:
240,114,49272,1,0,3:0:0:0:
415,308,49388,2,0,P|406:261|397:214,1,95,10|0,0:2|0:0,0:0:0:0:
220,204,49621,6,0,B|188:183|153:203|153:203|133:245|86:230,1,142.5,0|0,3:0|0:0,0:0:0:0:
94,232,49853,2,0,P|64:194|80:153,1,95,8|0,0:0|0:0,0:0:0:0:
221,364,50086,2,0,P|271:349|317:337,1,95,2|0,3:2|0:0,0:0:0:0:
504,247,50319,1,10,0:2:0:0:
336,169,50435,1,0,3:0:0:0:
411,384,50551,6,0,P|436:344|411:288,1,95,2|0,0:2|3:0,0:0:0:0:
283,99,50784,2,0,B|274:82|246:66|246:66|314:9|366:82,1,190,10|0,0:2|3:0,0:0:0:0:
241,319,51132,1,0,3:0:0:0:
54,165,51249,2,0,P|110:175|166:181,1,95,10|0,0:2|0:0,0:0:0:0:
311,270,51481,5,2,3:2:0:0:
173,367,51598,1,0,3:0:0:0:
260,195,51714,2,0,P|307:170|358:196,1,95,12|0,0:2|0:0,0:0:0:0:
466,373,51946,2,0,P|475:314|485:262,1,95,14|0,0:2|0:0,0:0:0:0:
387,72,52179,1,2,3:2:0:0:
455,126,52295,1,2,3:2:0:0:
296,88,52412,5,10,0:2:0:0:
432,8,52528,1,8,0:0:0:0:
319,233,52644,5,10,0:2:0:0:
180,143,52760,1,8,0:2:0:0:
164,145,52877,5,2,0:0:0:0:
164,145,53342,6,0,P|162:79|94:72,1,142.500005435944,6|2,3:2|0:2,0:0:0:0:
18,212,53691,1,2,3:2:0:0:
23,195,53807,2,0,P|36:245|42:272,1,71.2500027179719,10|0,0:2|0:0,0:0:0:0:
2,354,54039,1,2,0:2:0:0:
124,292,54156,6,0,B|166:269|198:310|182:320|216:353|258:329,1,142.500005435944,10|8,0:2|0:0,0:0:0:0:
334,208,54505,2,0,P|300:227|290:268,1,71.2500027179719,2|0,3:2|0:0,0:0:0:0:
365,384,54737,2,0,B|416:373|416:373|415:377|415:377|471:367,1,106.875004076958,10|0,0:2|0:0,0:0:0:0:
464,368,54970,2,0,P|480:329|463:299,1,71.2500027179719,2|0,0:2|0:0,0:0:0:0:
413,112,55202,6,0,B|447:87|447:87|426:207,1,142.500005435944,2|10,3:2|0:2,0:0:0:0:
340,35,55551,1,0,3:0:0:0:
357,28,55667,2,0,P|308:19|272:13,1,71.2500027179719,10|0,0:2|0:0,0:0:0:0:
191,138,55900,2,0,P|225:117|228:80,1,71.2500027179719,2|10,0:2|0:2,0:0:0:0:
71,6,56132,5,2,3:2:0:0:
150,62,56249,1,8,0:0:0:0:
31,178,56365,2,0,P|25:139|20:101,1,71.2500027179719,2|0,3:2|0:0,0:0:0:0:
94,290,56598,1,10,0:2:0:0:
29,332,56714,1,0,3:0:0:0:
103,208,56830,2,0,P|147:220|183:232,1,71.2500027179719,2|0,0:2|0:0,0:0:0:0:
200,356,57063,6,0,B|243:338|243:338|288:367|288:367|350:345,1,142.500005435944,2|2,3:2|0:2,0:0:0:0:
432,291,57412,1,0,3:0:0:0:
424,274,57528,2,0,P|413:331|407:367,1,71.2500027179719,10|0,0:2|0:0,0:0:0:0:
327,264,57760,1,2,0:2:0:0:
438,186,57877,6,0,B|480:173|480:173|365:154,1,142.500005435944,10|8,0:2|0:0,0:0:0:0:
298,44,58225,2,0,P|336:56|349:84,1,71.2500027179719,2|0,3:2|0:0,0:0:0:0:
242,216,58458,2,0,P|248:156|250:129,1,71.2500027179719,10|0,0:2|0:0,0:0:0:0:
140,8,58691,1,2,3:2:0:0:
211,47,58807,1,8,0:0:0:0:
40,166,58923,6,0,P|52:105|135:102,1,142.500005435944,2|0,3:2|0:0,0:0:0:0:
91,242,59272,1,2,3:2:0:0:
80,231,59388,2,0,P|88:276|94:309,1,71.2500027179719,8|0,0:0|0:0,0:0:0:0:
175,377,59621,2,0,P|182:343|188:307,1,71.2500027179719,10|0,0:0|0:0,0:0:0:0:
258,143,59853,5,2,3:2:0:0:
339,241,59970,1,8,0:0:0:0:
280,49,60086,1,10,0:2:0:0:
154,187,60202,1,8,0:0:0:0:
404,128,60319,6,0,P|395:76|390:39,1,71.2500027179719,10|8,0:2|0:0,0:0:0:0:
320,329,60551,1,10,0:2:0:0:
489,215,60667,1,10,0:2:0:0:
280,49,60784,6,0,B|246:9|205:36|205:36|181:88|117:62,1,161.500003080368,6|10,3:2|0:2,0:0:0:0:
6,7,61132,1,2,0:2:0:0:
43,198,61249,2,0,P|54:146|61:108,1,80.750001540184,2|0,3:2|0:0,0:0:0:0:
186,234,61481,1,10,0:2:0:0:
21,357,61598,6,0,B|10:341|-10:330|-10:330|43:279|98:332,1,161.500003080368,2|0,3:2|3:0,0:0:0:0:
319,288,61946,2,0,B|218:317|218:317|258:301|263:273,1,161.500003080368,10|2,0:2|3:2,0:0:0:0:
357,112,62295,1,0,3:0:0:0:
466,280,62412,2,0,P|457:329|451:367,1,80.750001540184,10|0,0:2|0:0,0:0:0:0:
268,153,62644,6,0,B|207:146|207:146|210:149|210:149|151:141,1,121.125002310276,2|0,3:2|0:0,0:0:0:0:
155,141,62877,2,0,P|132:102|149:69,1,80.750001540184,10|0,0:2|0:0,0:0:0:0:
295,271,63109,2,0,P|340:262|383:256,1,80.750001540184,2|0,3:2|0:0,0:0:0:0:
466,198,63342,1,10,0:2:0:0:
376,22,63458,6,0,B|340:-4|340:-4|356:111,1,161.500003080368,2|0,3:2|3:0,0:0:0:0:
209,259,63807,2,0,P|225:217|269:199,1,80.750001540184,10|0,0:2|0:0,0:0:0:0:
402,355,64039,1,2,3:2:0:0:
295,271,64156,1,0,3:0:0:0:
466,198,64272,2,0,P|455:255|446:296,1,80.750001540184,10|0,0:2|3:0,0:0:0:0:
244,359,64505,6,0,B|218:340|188:356|188:356|167:382|133:371,1,121.125002310276,0|0,3:0|0:0,0:0:0:0:
132,370,64737,2,0,P|111:332|129:299,1,80.750001540184,10|0,0:2|0:0,0:0:0:0:
209,103,64970,1,2,3:2:0:0:
39,215,65086,1,0,3:0:0:0:
209,259,65202,1,10,0:2:0:0:
94,105,65319,2,0,P|89:62|84:12,1,80.750001540184,2|2,3:2|0:0,0:0:0:0:
444,236,66132,6,0,B|416:245|391:227|391:227|399:251|399:251|431:275|485:258|485:258|502:64|502:64|415:21|415:21|236:69|236:69|262:163|262:163|312:161|312:161|323:78|323:78|339:162|339:162|386:160|386:160|401:76|401:76|423:162|423:162|459:169|459:169|466:99|466:99,1,1282.49996086121,6|0,3:2|0:0,0:0:0:0:
