osu file format v14

[General]
AudioFilename: audio.mp3
AudioLeadIn: 0
PreviewTime: 52877
Countdown: 0
SampleSet: Soft
StackLeniency: 0.7
Mode: 0
LetterboxInBreaks: 0
WidescreenStoryboard: 1

[Editor]
Bookmarks: 70086
DistanceSpacing: 1.3
BeatDivisor: 4
GridSize: 32
TimelineZoom: 1.4

[Metadata]
Title:HEKIREKI (TV Size)
TitleUnicode:HEKIREKI (TV Size)
Artist:LAST ALLIANCE
ArtistUnicode:LAST ALLIANCE
Creator:Nymphe
Version:HARD
Source:はじめの一歩 New Challenger
Tags:hajime no ippo opening rock japanese jrock ラスト・アライアンス Keep on smashing Reform anime Kujinn blue -Kemsyt kiyoshi guarden
BeatmapID:3111565
BeatmapSetID:1519389

[Difficulty]
HPDrainRate:4
CircleSize:4
OverallDifficulty:7
ApproachRate:8
SliderMultiplier:1.3
SliderTickRate:1

[Events]
//Background and Video events
0,0,"cropped-1920-1080-73836.jpg",0,0
Video,480,"Hajimenoipponewchallenger-Op1-1.mp4"
//Break Periods
//Storyboard Layer 0 (Background)
//Storyboard Layer 1 (Fail)
//Storyboard Layer 2 (Pass)
//Storyboard Layer 3 (Foreground)
//Storyboard Layer 4 (Overlay)
//Storyboard Sound Samples

[TimingPoints]
319,232.558139534884,4,2,1,90,1,0
319,-111.111111111111,4,2,1,90,0,0
1888,-111.111111111111,4,2,1,5,0,0
1946,-111.111111111111,4,2,1,90,0,0
2819,-111.111111111111,4,2,1,5,0,0
2877,-111.111111111111,4,2,1,90,0,0
3749,-111.111111111111,4,2,1,5,0,0
3807,-111.111111111111,4,2,1,90,0,0
5028,-111.111111111111,4,2,1,5,0,0
5086,-111.111111111111,4,2,1,90,0,0
5609,-111.111111111111,4,2,1,5,0,0
5667,-111.111111111111,4,2,1,90,0,0
6539,-111.111111111111,4,2,1,5,0,0
6597,-111.111111111111,4,2,1,90,0,0
7470,-111.111111111111,4,2,1,5,0,0
7528,-111.111111111111,4,2,1,90,0,0
8691,-125,4,2,1,80,0,0
21888,-125,4,2,1,5,0,0
21946,-125,4,2,1,80,0,0
22644,-117.647058823529,4,2,1,80,0,0
23574,-111.111111111111,4,2,1,90,0,0
35842,-111.111111111111,4,2,1,5,0,0
35900,-111.111111111111,4,2,1,90,0,0
38458,-142.857142857143,4,2,1,70,0,0
45900,-100,4,2,1,90,0,0
46074,-111.111111111111,4,2,1,5,0,0
46132,-111.111111111111,4,2,1,90,0,0
47935,-111.111111111111,4,2,1,5,0,0
47993,-111.111111111111,4,2,1,90,0,0
49795,-111.111111111111,4,2,1,5,0,0
49853,-111.111111111111,4,2,1,90,0,0
53342,-133.333333333333,4,2,1,85,0,0
54912,-133.333333333333,4,2,1,5,0,0
54970,-133.333333333333,4,2,1,85,0,0
60784,-117.647058823529,4,2,1,95,0,0
62819,-117.647058823529,4,2,1,5,0,0
62877,-117.647058823529,4,2,1,95,0,0
64679,-117.647058823529,4,2,1,5,0,0
64737,-117.647058823529,4,2,1,95,0,0
66132,-250,4,2,1,80,0,0
67295,-250,4,2,1,70,0,0
68225,-250,4,2,1,60,0,0
69156,-250,4,2,1,30,0,0
69621,-250,4,2,1,5,0,0

[Colours]
Combo1 : 146,217,128
Combo2 : 100,141,210
Combo3 : 174,126,106

[HitObjects]
51,310,784,6,0,B|30:336|30:336|37:365,2,58.4999982147217,10|10|10,0:0|0:0|0:0,0:0:0:0:
120,266,1132,2,0,B|164:260|164:260|192:285|192:285|247:274,1,116.999996429443,6|0,3:2|3:0,0:0:0:0:
285,221,1481,2,0,P|309:254|301:287,1,58.4999982147217,10|0,0:0|0:0,0:0:0:0:
278,346,1714,1,2,3:2:0:0:
443,374,1946,5,10,0:0:0:0:
443,374,2063,2,0,B|402:344|402:344|426:264,1,116.999996429443,2|0,3:2|3:0,0:0:0:0:
487,232,2412,2,0,P|497:199|482:171,1,58.4999982147217,10|0,0:0|0:0,0:0:0:0:
434,116,2644,1,2,3:2:0:0:
316,9,2877,5,10,0:0:0:0:
316,9,2993,2,0,B|258:16|258:16|261:18|261:18|186:25,1,116.999996429443,2|0,3:2|3:0,0:0:0:0:
125,8,3342,2,0,P|117:42|130:65,1,58.4999982147217,10|0,0:0|0:0,0:0:0:0:
192,110,3574,2,0,P|187:148|182:179,1,58.4999982147217,2|0,3:2|0:0,0:0:0:0:
232,240,3807,1,8,0:0:0:0:
232,240,3923,6,0,B|262:217|294:236|286:245|310:264|349:247,1,116.999996429443,0|0,3:0|3:0,0:0:0:0:
415,213,4272,2,0,P|431:242|424:278,1,58.4999982147217,10|0,0:0|0:0,0:0:0:0:
403,344,4505,2,0,L|464:358,2,58.4999982147217,2|2|10,3:2|3:2|0:0,0:0:0:0:
323,361,4853,6,0,B|286:336|286:336|194:364,1,116.999996429443,2|0,3:2|3:0,0:0:0:0:
138,382,5202,2,0,P|110:354|113:325,1,58.4999982147217,10|0,0:0|0:0,0:0:0:0:
130,257,5435,1,2,3:2:0:0:
31,126,5667,5,10,0:0:0:0:
31,126,5784,2,0,B|72:116|72:116|107:136|107:136|155:124,1,116.999996429443,2|0,3:2|3:0,0:0:0:0:
221,120,6132,2,0,L|211:184,1,58.4999982147217,10|0,0:0|0:0,0:0:0:0:
254,248,6365,1,2,3:2:0:0:
369,131,6598,5,10,0:0:0:0:
369,131,6714,2,0,P|425:135|441:191,1,116.999996429443,2|0,3:2|3:0,0:0:0:0:
473,262,7063,2,0,P|455:291|455:325,1,58.4999982147217,10|0,0:0|0:0,0:0:0:0:
402,378,7295,2,0,P|370:368|342:362,1,58.4999982147217,2|0,3:2|0:0,0:0:0:0:
313,286,7528,2,0,P|284:292|256:301,1,58.4999982147217,10|0,0:0|0:0,0:0:0:0:
174,301,7760,6,0,P|184:344|189:368,2,58.4999982147217,0|0|0,3:0|3:0|3:0,0:0:0:0:
96,273,8109,1,8,0:0:0:0:
96,273,8225,2,0,B|56:245|56:245|77:166,1,116.999996429443,10|0,0:0|3:0,0:0:0:0:
30,108,8574,1,6,3:2:0:0:
98,69,8691,6,0,L|215:83,1,104,6|10,3:2|0:0,0:0:0:0:
330,149,9156,2,0,L|390:140,1,52,2|2,3:2|3:2,0:0:0:0:
462,137,9388,1,8,0:0:0:0:
462,137,9505,6,0,P|448:192|435:258,1,104,2|0,3:2|3:0,0:0:0:0:
463,311,9853,2,0,P|432:321|404:312,1,52,10|2,0:0|0:0,0:0:0:0:
351,269,10086,2,0,P|320:259|292:268,1,52,2|0,3:2|3:0,0:0:0:0:
246,318,10319,1,10,0:0:0:0:
105,356,10551,6,0,P|81:315|128:263,1,104,2|8,3:2|0:0,0:0:0:0:
141,205,10900,2,0,P|190:217|250:223,1,104,2|0,0:0|0:0,0:0:0:0:
289,166,11249,2,0,B|334:144|371:184|346:202|380:238|429:223,1,156,10|0,0:0|3:0,0:0:0:0:
459,165,11714,1,8,0:0:0:0:
485,296,11946,1,2,3:2:0:0:
485,296,12063,2,0,P|474:333|465:367,1,52,2|8,3:2|0:0,0:0:0:0:
410,384,12295,1,2,0:0:0:0:
410,384,12412,6,0,P|375:342|327:344,1,104,2|10,3:2|0:0,0:0:0:0:
188,382,12877,2,0,P|146:376|124:371,1,52,2|2,3:2|0:0,0:0:0:0:
75,327,13109,1,8,0:0:0:0:
75,327,13225,6,0,P|85:273|99:213,1,104,2|0,3:2|3:0,0:0:0:0:
144,163,13574,2,0,L|86:148,1,52,10|0,0:0|0:0,0:0:0:0:
64,82,13807,2,0,L|115:69,1,52,2|2,3:2|3:2,0:0:0:0:
160,12,14039,1,10,0:0:0:0:
292,72,14272,6,0,B|257:107|257:107|274:171,1,104,2|8,3:2|0:0,0:0:0:0:
324,209,14621,2,0,B|362:200|362:200|388:215|388:215|427:205,1,104,2|0,0:0|0:0,0:0:0:0:
457,142,14970,2,0,L|436:305,1,156,10|0,0:0|3:0,0:0:0:0:
393,355,15435,1,8,0:0:0:0:
253,384,15667,1,2,3:2:0:0:
253,384,15784,2,0,L|245:327,1,52,2|8,3:2|0:0,0:0:0:0:
228,256,16016,1,2,0:0:0:0:
228,256,16132,6,0,B|171:245|171:245|173:248|173:248|124:239,1,104,2|10,3:2|0:2,0:0:0:0:
98,97,16598,2,0,P|100:71|114:49,1,52,2|2,3:2|0:2,0:0:0:0:
183,21,16830,1,8,0:0:0:0:
183,21,16946,6,0,P|209:62|188:116,1,104,2|0,3:2|3:0,0:0:0:0:
209,182,17295,2,0,L|266:170,1,52,10|0,0:2|0:0,0:0:0:0:
314,122,17528,2,0,L|365:132,1,52,2|0,3:2|3:0,0:0:0:0:
414,185,17760,1,10,0:2:0:0:
493,271,17993,6,0,P|480:320|466:386,1,104,2|8,3:2|0:0,0:0:0:0:
395,378,18342,2,0,P|341:379|306:326,1,104,2|0,0:2|0:0,0:0:0:0:
276,278,18691,2,0,B|229:251|198:290|198:290|181:336|127:324,1,156,10|0,0:2|3:0,0:0:0:0:
88,281,19156,1,8,0:0:0:0:
18,159,19388,1,2,3:2:0:0:
18,159,19505,2,0,L|83:148,1,52,2|8,3:2|0:0,0:0:0:0:
126,203,19737,1,2,0:2:0:0:
126,203,19853,6,0,P|184:189|214:221,1,104,2|10,3:2|0:2,0:0:0:0:
199,362,20319,2,0,L|252:352,1,52,2|2,3:2|0:2,0:0:0:0:
316,319,20551,1,8,0:0:0:0:
316,319,20667,2,0,L|428:335,1,104,2|0,3:2|3:0,0:0:0:0:
472,383,21016,2,0,P|493:347|485:326,1,52,10|0,0:2|0:0,0:0:0:0:
455,276,21249,2,0,P|434:240|442:219,1,52,2|0,3:2|3:0,0:0:0:0:
462,155,21481,1,10,0:2:0:0:
364,46,21714,6,0,B|322:21|322:21|254:48,1,104,2|10,3:2|0:2,0:0:0:0:
252,112,22063,2,0,P|200:104|148:98,1,104,2|10,0:2|0:2,0:0:0:0:
121,30,22412,2,0,L|71:44,1,52,0|0,3:0|3:0,0:0:0:0:
29,109,22644,6,0,P|0:73|1:53,2,55.2500010538101,10|0|0,0:2|3:0|3:0,0:0:0:0:
91,163,22993,1,8,0:0:0:0:
91,163,23109,2,0,P|96:199|99:231,1,55.2500010538101,2|2,3:2|3:2,0:0:0:0:
175,247,23342,2,0,P|170:283|167:315,1,55.2500010538101,14|2,0:2|0:2,0:0:0:0:
225,359,23574,6,0,B|262:382|291:362|283:350|311:329|345:353,1,116.999996429443,6|10,3:2|0:2,0:0:0:0:
453,234,24039,1,2,3:2:0:0:
453,234,24156,2,0,L|511:229,1,58.4999982147217,2|8,0:2|0:0,0:0:0:0:
408,294,24388,2,0,P|363:248|379:202,1,116.999996429443,2|0,3:2|3:0,0:0:0:0:
437,147,24737,2,0,L|427:81,1,58.4999982147217,10|0,0:2|0:0,0:0:0:0:
345,90,24970,2,0,L|355:24,1,58.4999982147217,2|0,3:2|3:0,0:0:0:0:
431,5,25202,1,10,0:2:0:0:
297,157,25435,6,0,B|251:145|251:145|222:162|222:162|178:149,1,116.999996429443,2|8,3:2|0:0,0:0:0:0:
135,88,25784,2,0,B|84:120|84:120|99:193,1,116.999996429443,2|0,0:2|0:0,0:0:0:0:
57,248,26132,2,0,B|108:234|104:265|129:277|169:259|169:259|130:276|125:310,1,175.499994644165,10|0,0:2|3:0,0:0:0:0:
156,375,26598,1,8,0:0:0:0:
319,345,26830,1,2,3:2:0:0:
319,345,26946,2,0,L|383:355,1,58.4999982147217,2|8,3:2|0:0,0:0:0:0:
461,345,27179,1,2,0:2:0:0:
461,345,27295,6,0,P|501:305|487:248,1,116.999996429443,2|10,3:2|0:2,0:0:0:0:
344,183,27760,1,2,3:2:0:0:
344,183,27877,2,0,P|328:138|341:118,1,58.4999982147217,2|8,0:2|0:0,0:0:0:0:
405,98,28109,6,0,L|284:74,1,116.999996429443,2|0,3:2|3:0,0:0:0:0:
223,26,28458,2,0,P|206:52|208:86,1,58.4999982147217,10|0,0:2|0:0,0:0:0:0:
125,96,28691,2,0,P|142:122|140:156,1,58.4999982147217,2|0,3:2|3:0,0:0:0:0:
154,229,28923,1,10,0:2:0:0:
33,340,29156,6,0,B|70:317|99:337|91:349|119:370|153:346,1,116.999996429443,2|8,3:2|0:0,0:0:0:0:
211,308,29505,2,0,B|246:344|246:344|329:319,1,116.999996429443,2|0,0:2|0:0,0:0:0:0:
377,278,29853,2,0,B|409:312|409:312|476:251|406:188,1,175.499994644165,10|0,0:2|3:0,0:0:0:0:
354,147,30319,1,8,0:0:0:0:
484,49,30551,1,2,3:2:0:0:
484,49,30667,2,0,L|414:35,1,58.4999982147217,2|8,3:2|0:0,0:0:0:0:
348,12,30900,1,2,0:2:0:0:
348,12,31016,6,0,B|305:12|305:12|276:31|276:31|226:25,1,116.999996429443,2|10,3:2|0:2,0:0:0:0:
73,16,31481,1,2,3:2:0:0:
73,16,31598,2,0,L|85:80,1,58.4999982147217,2|8,0:2|0:0,0:0:0:0:
131,139,31830,6,0,P|81:107|35:155,1,116.999996429443,2|0,3:2|3:0,0:0:0:0:
13,214,32179,2,0,P|24:248|37:278,1,58.4999982147217,10|0,0:2|0:0,0:0:0:0:
114,276,32412,2,0,P|103:310|90:340,1,58.4999982147217,2|2,3:2|3:2,0:0:0:0:
25,375,32644,1,10,0:2:0:0:
184,337,32877,6,0,B|234:315|234:315|301:339,1,116.999996429443,2|8,3:2|0:0,0:0:0:0:
366,372,33225,2,0,P|324:337|361:279,1,116.999996429443,2|0,0:2|0:0,0:0:0:0:
421,258,33574,2,0,B|463:218|430:173|430:173|381:147|404:84,1,175.499994644165,10|0,0:2|3:0,0:0:0:0:
463,56,34039,1,8,0:0:0:0:
306,7,34272,2,0,B|238:12|238:12|240:15|240:15|175:21,1,116.999996429443,2|8,3:2|0:0,0:0:0:0:
112,15,34621,1,0,0:0:0:0:
112,15,34737,6,0,B|87:63|87:63|120:119,1,116.999996429443,2|10,3:2|0:2,0:0:0:0:
239,236,35202,1,2,3:2:0:0:
239,236,35319,2,0,L|168:243,1,58.4999982147217,2|10,0:2|0:2,0:0:0:0:
103,213,35551,2,0,P|55:243|75:305,1,116.999996429443,2|0,3:2|0:0,0:0:0:0:
123,352,35900,2,0,P|156:369|186:354,1,58.4999982147217,10|2,0:0|0:2,0:0:0:0:
250,332,36132,2,0,P|283:315|313:330,1,58.4999982147217,2|2,3:2|3:2,0:0:0:0:
372,363,36365,1,10,0:2:0:0:
446,216,36598,6,0,L|510:233,2,58.4999982147217,2|8|10,3:2|0:0|0:2,0:0:0:0:
411,142,36946,2,0,P|382:135|352:148,1,58.4999982147217,2|0,3:2|3:0,0:0:0:0:
316,216,37179,2,0,L|259:203,1,58.4999982147217,2|8,3:2|0:0,0:0:0:0:
184,239,37412,6,0,P|221:206|208:144,1,116.999996429443,2|0,3:2|3:0,0:0:0:0:
151,86,37760,1,8,0:0:0:0:
151,86,37877,1,8,0:0:0:0:
83,131,37993,2,0,P|71:163|64:197,1,58.4999982147217,2|0,3:2|0:0,0:0:0:0:
1,237,38225,2,0,P|13:269|20:303,1,58.4999982147217,2|4,3:2|3:2,0:0:0:0:
74,339,38458,6,0,L|166:321,1,90.9999972229005,6|0,3:2|0:0,0:0:0:0:
291,251,38923,2,0,L|380:268,1,90.9999972229005,10|0,0:2|0:0,0:0:0:0:
491,362,39388,2,0,P|461:313|478:274,1,90.9999972229005,2|0,3:2|0:0,0:0:0:0:
504,142,39853,2,0,L|492:93,1,45.4999986114502,10|0,0:2|0:0,0:0:0:0:
420,93,40086,2,0,L|432:44,1,45.4999986114502,2|0,0:2|0:0,0:0:0:0:
488,3,40319,6,0,L|378:18,1,90.9999972229005,2|2,3:2|0:2,0:0:0:0:
340,59,40667,1,2,0:2:0:0:
340,59,40784,2,0,L|230:44,1,90.9999972229005,8|0,0:0|0:0,0:0:0:0:
109,8,41249,6,0,P|144:34|132:90,1,90.9999972229005,0|0,3:0|0:0,0:0:0:0:
86,125,41598,1,0,0:0:0:0:
86,125,41714,2,0,L|75:176,1,45.4999986114502,10|0,0:2|0:0,0:0:0:0:
133,214,41946,2,0,L|144:265,1,45.4999986114502,2|0,0:2|0:0,0:0:0:0:
198,306,42179,6,0,P|243:317|280:286,1,90.9999972229005,2|0,3:2|0:0,0:0:0:0:
353,168,42644,2,0,P|398:157|435:188,1,90.9999972229005,10|0,0:2|0:0,0:0:0:0:
480,348,43109,2,0,P|498:296|510:262,1,90.9999972229005,2|0,3:2|0:0,0:0:0:0:
370,305,43574,2,0,P|336:311|322:314,1,45.4999986114502,10|0,0:2|0:0,0:0:0:0:
298,381,43807,2,0,P|275:376|253:372,1,45.4999986114502,10|0,0:2|0:0,0:0:0:0:
211,313,44039,6,0,L|121:328,1,90.9999972229005,2|2,3:2|0:2,0:0:0:0:
61,367,44388,1,2,0:2:0:0:
61,367,44505,2,0,P|33:325|46:279,1,90.9999972229005,10|2,0:2|3:2,0:0:0:0:
159,203,44970,6,0,B|180:163|180:163|159:113,1,90.9999972229005,2|10,3:2|0:2,0:0:0:0:
46,32,45435,2,0,L|-6:49,2,45.4999986114502,10|8|2,0:2|0:0|0:2,0:0:0:0:
119,15,45784,1,8,0:0:0:0:
119,15,45900,6,0,B|167:8|188:36|175:42|199:74|247:60,1,130,6|10,3:2|0:2,0:0:0:0:
376,12,46365,2,0,P|369:48|365:72,1,58.4999982147217,2|0,3:2|0:0,0:0:0:0:
312,125,46598,2,0,P|318:159|324:194,1,58.4999982147217,10|2,0:2|3:2,0:0:0:0:
379,233,46830,1,0,0:0:0:0:
274,344,47063,6,0,P|243:294|173:303,1,116.999996429443,10|0,0:2|3:0,0:0:0:0:
132,342,47412,1,0,3:0:0:0:
132,342,47528,2,0,P|98:343|74:330,1,58.4999982147217,10|0,0:2|0:0,0:0:0:0:
58,258,47760,6,0,B|21:228|21:228|44:158,1,116.999996429443,2|10,3:2|0:2,0:0:0:0:
4,14,48225,2,0,L|69:27,1,58.4999982147217,2|0,3:2|0:0,0:0:0:0:
122,70,48458,2,0,L|187:61,1,58.4999982147217,10|2,0:2|3:2,0:0:0:0:
244,21,48691,1,0,0:0:0:0:
393,46,48923,6,0,B|361:81|361:81|390:161,1,116.999996429443,10|2,0:2|3:2,0:0:0:0:
417,224,49272,1,0,3:0:0:0:
417,224,49388,2,0,L|348:234,1,58.4999982147217,10|0,0:2|0:0,0:0:0:0:
317,296,49621,6,0,B|284:278|259:302|259:302|242:338|196:324,1,116.999996429443,0|8,3:0|0:0,0:0:0:0:
69,371,50086,2,0,P|74:336|77:308,1,58.4999982147217,2|0,3:2|0:0,0:0:0:0:
136,265,50319,2,0,P|130:223|127:203,1,58.4999982147217,10|0,0:2|3:0,0:0:0:0:
56,144,50551,6,0,P|41:108|56:83,1,58.4999982147217,2|0,0:2|3:0,0:0:0:0:
107,44,50784,2,0,B|148:46|148:46|172:76|172:76|225:82,1,116.999996429443,10|0,0:2|3:0,0:0:0:0:
277,44,51132,1,0,3:0:0:0:
277,44,51249,2,0,P|292:75|281:107,1,58.4999982147217,10|0,0:2|0:0,0:0:0:0:
243,160,51481,5,2,3:2:0:0:
243,160,51598,1,0,3:0:0:0:
285,223,51714,2,0,P|320:239|348:231,1,58.4999982147217,12|0,0:2|0:0,0:0:0:0:
379,171,51946,2,0,P|407:156|434:162,1,58.4999982147217,14|0,0:2|0:0,0:0:0:0:
483,217,52179,2,0,P|476:261|469:289,1,58.4999982147217,2|2,3:2|3:2,0:0:0:0:
465,353,52412,5,10,0:2:0:0:
465,353,52528,2,0,L|400:338,1,58.4999982147217,8|10,0:0|0:2,0:0:0:0:
334,322,52760,1,8,0:2:0:0:
334,322,52877,1,2,0:0:0:0:
61,339,53342,6,0,P|100:301|77:252,1,97.50000371933,6|2,3:2|0:2,0:0:0:0:
26,227,53691,1,2,3:2:0:0:
26,227,53807,2,0,P|19:172|7:122,1,97.50000371933,10|2,0:2|0:2,0:0:0:0:
137,58,54272,6,0,P|102:31|51:47,2,97.50000371933,0|2|10,0:0|3:2|0:2,0:0:0:0:
186,124,54853,1,0,0:0:0:0:
186,124,54970,2,0,L|249:112,1,48.750001859665,2|0,0:2|0:0,0:0:0:0:
307,140,55202,6,0,L|297:258,1,97.50000371933,2|10,3:2|0:2,0:0:0:0:
258,305,55551,1,0,3:0:0:0:
258,305,55667,2,0,P|296:273|346:290,1,97.50000371933,10|2,0:2|0:2,0:0:0:0:
494,263,56132,6,0,P|516:312|493:362,2,97.50000371933,2|2|10,3:2|3:2|0:2,0:0:0:0:
434,220,56714,1,0,3:0:0:0:
434,220,56830,2,0,L|430:164,1,48.750001859665,2|0,0:2|0:0,0:0:0:0:
430,92,57063,6,0,B|374:97|374:97|372:100|372:100|326:105,1,97.50000371933,2|2,3:2|0:2,0:0:0:0:
279,160,57412,1,0,3:0:0:0:
279,160,57528,2,0,P|245:129|254:72,1,97.50000371933,10|2,0:2|0:2,0:0:0:0:
104,18,57993,6,0,B|149:-2|149:-2|194:17,2,97.50000371933,0|2|10,0:0|3:2|0:2,0:0:0:0:
52,76,58574,1,0,0:0:0:0:
52,76,58691,2,0,P|57:112|61:134,1,48.750001859665,2|8,3:2|0:0,0:0:0:0:
36,198,58923,6,0,P|66:159|128:176,1,97.50000371933,2|0,3:2|0:0,0:0:0:0:
175,213,59272,1,2,3:2:0:0:
175,213,59388,2,0,P|169:249|166:275,1,48.750001859665,8|0,0:0|0:0,0:0:0:0:
234,302,59621,2,0,P|240:338|243:364,1,48.750001859665,10|0,0:0|0:0,0:0:0:0:
313,379,59853,6,0,L|370:385,2,48.750001859665,2|8|10,3:2|0:0|0:2,0:0:0:0:
332,305,60202,1,8,0:0:0:0:
332,305,60319,2,0,L|390:312,1,48.750001859665,10|8,0:2|0:0,0:0:0:0:
361,235,60551,2,0,L|419:242,1,48.750001859665,10|10,0:2|0:2,0:0:0:0:
477,189,60784,6,0,P|501:139|468:90,1,110.50000210762,6|10,3:2|0:2,0:0:0:0:
417,52,61132,1,2,0:2:0:0:
417,52,61249,2,0,B|371:28|371:28|297:56,1,110.50000210762,2|10,3:2|0:2,0:0:0:0:
274,114,61598,6,0,B|242:92|216:112|223:123|191:145|155:123,1,110.50000210762,2|0,3:2|3:0,0:0:0:0:
104,94,61946,2,0,L|92:161,1,55.2500010538101,10|0,0:2|0:0,0:0:0:0:
18,166,62179,2,0,L|30:233,1,55.2500010538101,2|0,3:2|3:0,0:0:0:0:
87,270,62412,1,10,0:2:0:0:
210,362,62644,6,0,P|241:368|271:353,1,55.2500010538101,2|0,3:2|0:0,0:0:0:0:
292,288,62877,2,0,P|316:284|346:296,1,55.2500010538101,10|0,0:2|0:0,0:0:0:0:
389,357,63109,2,0,L|379:231,1,110.50000210762,2|10,3:2|0:2,0:0:0:0:
342,178,63458,6,0,P|366:137|426:143,1,110.50000210762,2|0,3:2|3:0,0:0:0:0:
489,181,63807,2,0,P|506:146|501:111,1,55.2500010538101,10|0,0:2|0:0,0:0:0:0:
478,58,64039,2,0,L|418:49,1,55.2500010538101,2|0,3:2|3:0,0:0:0:0:
362,0,64272,1,10,0:2:0:0:
229,80,64505,6,0,B|191:98|191:98|111:71,1,110.50000210762,0|10,3:0|0:2,0:0:0:0:
64,29,64853,1,0,0:0:0:0:
64,29,64970,2,0,P|43:54|42:93,1,55.2500010538101,2|0,3:2|3:0,0:0:0:0:
4,144,65202,1,10,0:2:0:0:
4,144,65319,1,2,3:2:0:0:
253,192,66132,5,6,3:2:0:0:
256,192,66249,12,0,69621,0:0:0:0:
