osu file format v14

[General]
AudioFilename: audio.mp3
AudioLeadIn: 0
PreviewTime: 32665
Countdown: 0
SampleSet: Soft
StackLeniency: 0.7
Mode: 0
LetterboxInBreaks: 0
CountdownOffset: 1
WidescreenStoryboard: 0

[Editor]
Bookmarks: 1695,2347,61040,67300,68865,79043,83086,83869,88622,89535,92404,93709,112361,129448
DistanceSpacing: 1
BeatDivisor: 4
GridSize: 8
TimelineZoom: 1

[Metadata]
Title:#LARINPROTIV
TitleUnicode:#ЛАРИНПРОТИВ
Artist:LARIN
ArtistUnicode:Ларин
Creator:twilightcat666
Version:Hard
Source:
Tags:youtube larin russian ларин rap
BeatmapID:1411067
BeatmapSetID:649652

[Difficulty]
HPDrainRate:5
CircleSize:4
OverallDifficulty:6
ApproachRate:8
SliderMultiplier:2.6
SliderTickRate:1

[Events]
//Background and Video events
0,0,"larin.jpg",0,0
//Break Periods
//Storyboard Layer 0 (Background)
//Storyboard Layer 1 (Fail)
//Storyboard Layer 2 (Pass)
//Storyboard Layer 3 (Foreground)
//Storyboard Sound Samples

[TimingPoints]
57,521.739130434783,4,2,0,60,1,8
57,-200,4,2,0,60,0,8
8404,-100,4,2,0,60,0,0
33448,-100,4,2,0,60,0,1
49100,-200,4,2,0,60,0,0
58491,-100,4,2,0,60,0,0
66839,-100,4,2,0,60,0,1
74143,-100,5,2,0,60,0,0

[HitObjects]
192,88,57,6,0,P|240:96|312:104,1,65,4|0,0:0|0:0,0:0:0:0:
376,176,839,2,0,L|224:184,1,130
80,80,1883,1,8,0:0:0:0:
72,152,2143,2,0,P|128:184|168:176,1,65,4|0,0:0|0:0,0:0:0:0:
192,80,2926,6,0,P|272:88|312:120,1,130
200,232,3970,1,8,0:0:0:0:
280,272,4230,2,0,P|296:232|288:168,1,65,4|0,0:0|0:0,0:0:0:0:
160,152,5013,2,0,P|168:104|256:56,1,130
320,112,6057,5,8,0:0:0:0:
320,208,6317,2,0,P|256:200|216:168,1,65,4|0,0:0|0:0,0:0:0:0:
112,88,7100,2,0,P|168:160|152:200,1,130
232,128,7883,1,0,0:0:0:0:
288,184,8143,5,0,0:0:0:0:
288,184,8274,1,0,0:0:0:0:
296,256,8404,2,0,P|224:296|104:192,1,260,4|0,0:0|0:0,0:0:0:0:
136,128,9057,1,0,0:0:0:0:
208,136,9187,6,0,P|272:104|344:168,1,130,0|4,0:0|0:0,0:0:0:0:
264,224,9970,1,0,0:0:0:0:
168,248,10230,5,0,0:0:0:0:
144,216,10361,1,0,0:0:0:0:
128,192,10491,2,0,P|136:112|288:96,1,260,4|0,0:0|0:0,0:0:0:0:
264,224,11274,1,0,0:0:0:0:
184,272,11535,5,4,0:0:0:0:
168,216,11796,2,0,B|195:137|195:137|248:104,2,130
336,256,12578,1,0,0:0:0:0:
256,176,12839,5,0,0:0:0:0:
256,176,12970,1,0,0:0:0:0:
256,176,13100,1,4,0:0:0:0:
344,160,13361,2,0,L|416:152,2,65
248,72,13883,5,0,0:0:0:0:
248,72,14013,2,0,L|128:72,1,65,0|4,0:0|0:0,0:0:0:0:
72,128,14404,2,0,B|56:192|56:192|88:248,1,130
200,280,14926,2,0,P|256:232|232:176,1,130
144,144,15448,5,0,0:0:0:0:
272,120,15709,1,4,0:0:0:0:
336,232,15970,2,0,P|376:288|360:320,2,65
336,104,16491,1,0,0:0:0:0:
208,144,16752,1,4,0:0:0:0:
288,248,17013,6,0,L|344:296,2,65
232,128,17535,1,0,0:0:0:0:
128,208,17796,2,0,P|56:144|0:160,1,130,4|0,0:0|0:0,0:0:0:0:
128,64,18317,1,0,0:0:0:0:
208,88,18578,2,0,L|264:120,2,65,0|0|4,0:0|0:0|0:0,0:0:0:0:
200,248,19100,5,0,0:0:0:0:
288,280,19361,2,0,P|376:248|368:216,1,130
312,168,19883,1,4,0:0:0:0:
184,208,20143,2,0,B|96:208|96:208|96:120,1,130
176,120,20665,1,0,0:0:0:0:
256,120,20926,6,0,P|344:128|384:152,2,130,4|0|0,0:0|0:0|0:0,0:0:0:0:
256,208,21709,2,0,P|275:245|224:304,1,130,0|4,0:0|0:0,0:0:0:0:
120,232,22230,1,0,0:0:0:0:
120,200,22361,1,0,0:0:0:0:
192,104,22752,6,0,P|256:96|336:104,1,130,0|4,0:0|0:0,0:0:0:0:
320,232,23274,1,0,0:0:0:0:
200,184,23535,1,0,0:0:0:0:
72,216,23796,2,0,P|64:144|120:104,1,130,0|4,0:0|0:0,0:0:0:0:
192,112,24317,5,0,0:0:0:0:
248,152,24448,1,0,0:0:0:0:
304,112,24578,1,0,0:0:0:0:
368,248,24839,6,0,P|296:264|232:248,1,130,8|0,0:0|0:0,0:0:0:0:
136,208,25361,2,0,L|136:144,1,65
192,112,25622,1,4,0:0:0:0:
320,136,25883,6,0,P|368:200|344:240,1,130,8|0,0:0|0:0,0:0:0:0:
296,272,26274,1,0,0:0:0:0:
176,224,26535,1,0,0:0:0:0:
168,160,26665,1,4,0:0:0:0:
240,88,26926,5,0,0:0:0:0:
304,80,27057,2,0,P|344:160|328:256,1,130
345,199,27448,2,0,P|272:248|216:240,1,130,0|4,0:0|0:0,0:0:0:0:
160,200,27970,1,0,0:0:0:0:
160,200,28100,6,0,P|80:160|96:112,1,130
82,134,28491,2,0,P|152:72|240:72,1,130,0|4,0:0|0:0,0:0:0:0:
312,144,29013,2,0,L|312:208,1,65
312,209,29274,1,0,0:0:0:0:
176,240,29535,1,0,0:0:0:0:
176,240,29665,6,0,L|128:176,1,65,0|4,0:0|0:0,0:0:0:0:
168,48,30057,1,0,0:0:0:0:
256,72,30317,1,0,0:0:0:0:
320,80,30448,2,0,P|336:144|296:160,1,65
312,192,30709,1,0,0:0:0:0:
256,216,30839,1,4,0:0:0:0:
144,200,31100,2,0,L|48:112,3,130
200,96,32143,2,0,P|280:72|336:88,1,130,0|4,0:0|0:0,0:0:0:0:
312,200,32665,6,0,L|304:264,1,65
240,264,32926,1,0,0:0:0:0:
200,216,33057,1,0,0:0:0:0:
192,152,33187,1,0,0:0:0:0:
312,104,33448,5,2,0:0:0:0:
128,112,33970,6,0,B|120:200|120:200|152:232,1,130
304,240,34491,1,0,0:0:0:0:
304,80,34752,1,0,0:0:0:0:
160,136,35013,1,4,0:0:0:0:
288,248,35535,5,0,0:0:0:0:
296,96,35796,1,0,0:0:0:0:
144,136,36057,1,4,0:0:0:0:
168,288,36317,1,8,0:0:0:0:
240,272,36578,6,0,P|320:224|352:200,1,130
288,88,37100,1,4,0:0:0:0:
288,88,37361,1,8,0:0:0:0:
240,208,37622,1,0,0:0:0:0:
120,264,37883,6,0,P|88:200|112:152,1,130,0|4,0:0|0:0,0:0:0:0:
240,96,38665,5,0,0:0:0:0:
336,216,38926,1,0,0:0:0:0:
192,272,39187,1,4,0:0:0:0:
136,168,39448,2,0,B|104:104|104:104|160:64,1,130,8|0,0:0|0:0,0:0:0:0:
296,48,39970,5,0,0:0:0:0:
296,168,40230,2,0,P|248:216|216:272,2,130,4|0|4,0:0|0:0|0:0,0:0:0:0:
240,184,41796,5,2,0:0:0:0:
88,192,42317,2,0,B|88:104|88:104|144:112,1,130
184,280,42839,1,0,0:0:0:0:
336,256,43100,1,0,0:0:0:0:
296,88,43361,1,4,0:0:0:0:
104,176,43883,5,0,0:0:0:0:
272,240,44143,1,0,0:0:0:0:
240,64,44404,1,4,0:0:0:0:
136,240,44926,6,0,B|200:168|200:168|248:232,2,130,0|0|4,0:0|0:0|0:0,0:0:0:0:
96,104,45709,1,8,0:0:0:0:
240,88,45970,2,0,B|304:112|304:112|240:144,1,130
112,192,46491,2,0,B|48:224|48:224|112:256,1,130
240,256,47013,1,4,0:0:0:0:
152,96,47535,5,4,0:0:0:0:
344,232,48057,1,4,0:0:0:0:
64,192,48578,1,4,0:0:0:0:
272,136,49100,1,8,0:0:0:0:
96,88,50143,6,0,B|96:152|96:152|176:152,1,130
344,80,51187,2,0,B|408:80|408:80|408:152,1,130,0|4,0:0|0:0,0:0:0:0:
336,272,52230,2,0,B|408:272|408:272|408:208,2,130
160,280,53796,1,4,0:0:0:0:
216,96,54317,6,0,B|256:40|256:40|288:96,1,130
288,264,55361,2,0,B|256:320|256:320|216:264,1,130,0|4,0:0|0:0,0:0:0:0:
192,128,56404,5,0,0:0:0:0:
320,128,56926,1,0,0:0:0:0:
320,256,57448,1,0,0:0:0:0:
192,256,57970,1,0,0:0:0:0:
256,192,58491,1,4,0:0:0:0:
128,136,59013,6,0,B|143:88|143:88|224:64,2,130
208,160,59796,2,0,B|272:160|272:160|320:224,2,130
72,216,60578,1,4,0:0:0:0:
192,248,61100,6,0,P|264:248|328:224,2,130
192,135,61883,6,0,P|256:134|318:154,2,130
160,32,62665,1,4,0:0:0:0:
104,104,62926,5,0,0:0:0:0:
104,104,63057,2,0,L|104:184,1,65
184,168,63448,5,0,0:0:0:0:
184,168,63578,2,0,L|184:96,1,65
288,112,64752,5,0,0:0:0:0:
208,208,65013,2,0,P|272:224|336:208,1,130
344,136,65404,1,0,0:0:0:0:
272,136,65535,2,0,P|200:112|128:120,1,130,0|4,0:0|0:0,0:0:0:0:
192,192,66839,5,2,0:0:0:0:
112,192,67361,6,0,P|144:128|192:88,1,130
336,168,67883,2,0,P|320:232|272:280,1,130
224,192,68404,1,4,0:0:0:0:
96,56,68926,6,0,B|96:128|96:128|160:128,1,130
256,128,69448,1,4,0:0:0:0:
416,320,69970,6,0,B|416:248|416:248|352:248,1,130
256,240,70491,1,4,0:0:0:0:
144,136,71013,6,0,L|248:136,1,65
288,208,71274,2,0,L|168:208,1,65
136,208,71535,2,0,B|136:280|136:280|216:280,1,130
312,280,72057,1,0,0:0:0:0:
312,88,72578,1,4,0:0:0:0:
64,64,73100,6,0,B|128:64|128:64|128:136,1,130
128,208,73622,2,0,B|128:272|128:272|200:272,1,130
288,160,74143,1,4,0:0:0:0:
184,72,74404,6,0,L|104:72,1,65
256,72,74665,2,0,L|328:72,1,65
168,184,75187,6,0,P|216:232|280:256,1,130
288,208,75578,1,0,0:0:0:0:
264,144,75709,2,0,L|208:104,1,65
112,88,76230,2,0,B|48:88|48:88|48:160,2,130,0|0|4,0:0|0:0|0:0,0:0:0:0:
168,96,77013,6,0,L|240:96,1,65
288,96,77274,2,0,L|328:160,1,65
328,216,77535,2,0,L|408:216,2,65
160,272,78317,2,0,P|160:208|112:168,2,130,0|0|4,0:0|0:0|0:0,0:0:0:0:
280,296,79361,6,0,P|336:240|336:192,1,130
248,104,79883,1,0,0:0:0:0:
136,104,80143,2,0,L|88:152,1,65
72,216,80404,2,0,B|112:296|112:296|280:320,1,260
312,160,81448,5,0,0:0:0:0:
240,96,81709,2,0,L|184:64,2,65,0|0|4,0:0|0:0|0:0,0:0:0:0:
200,200,82230,1,0,0:0:0:0:
296,272,82491,2,0,P|352:208|336:160,2,130,0|0|4,0:0|0:0|0:0,0:0:0:0:
128,128,83535,5,4,0:0:0:0:
272,104,84057,2,0,P|344:104|360:128,1,65
368,144,84317,2,0,P|384:200|368:224,1,65
328,232,84578,2,0,P|264:248|200:224,1,130
160,120,85100,1,4,0:0:0:0:
280,112,85361,6,0,L|344:112,2,65
216,112,85752,1,0,0:0:0:0:
216,112,85882,2,0,L|216:176,1,65
216,177,86143,2,0,B|216:248|216:248|152:248,1,130
136,160,86665,2,0,B|136:80|136:80|224:80,2,130,0|0|4,0:0|0:0|0:0,0:0:0:0:
232,176,87448,6,0,L|304:176,1,65
360,176,87709,1,0,0:0:0:0:
360,176,87839,1,0,0:0:0:0:
360,176,87970,2,0,L|360:248,2,65,0|0|4,0:0|0:0|0:0,0:0:0:0:
360,72,88491,6,0,L|296:72,2,65
408,128,89013,2,0,L|480:128,2,65,0|0|4,0:0|0:0|0:0,0:0:0:0:
256,192,89535,12,0,91361,0:0:0:0:
256,192,91883,5,2,0:0:0:0:
304,88,92404,2,0,L|368:88,1,65
432,88,92665,2,0,L|432:152,1,65
384,200,92926,1,8,0:0:0:0:
280,120,93187,1,8,0:0:0:0:
168,184,93448,1,4,0:0:0:0:
192,280,93970,6,8,L|328:280,1,130
424,192,94491,1,4,0:0:0:0:
320,104,95013,6,0,L|184:104,2,130,8|8|4,0:0|0:0|0:0,0:0:0:0:
256,304,96057,6,8,L|256:240,1,65
320,240,96317,2,8,L|392:240,1,65
392,176,96578,2,0,B|392:80|392:80|320:80,2,130,2|2|8,0:0|0:0|0:0,0:0:0:0:
184,128,97622,1,4,0:0:0:0:
168,288,98143,6,8,L|232:288,2,65
104,288,98535,1,8,0:0:0:0:
104,216,98665,2,2,B|104:136|104:136|176:136,1,130
256,104,99187,1,8,0:0:0:0:
