osu file format v14

[General]
AudioFilename: audio.mp3
AudioLeadIn: 0
PreviewTime: 32665
Countdown: 0
SampleSet: Soft
StackLeniency: 0.7
Mode: 0
LetterboxInBreaks: 0
CountdownOffset: 1
WidescreenStoryboard: 1

[Editor]
Bookmarks: 24782,25825,26869,28434,28891,33911,35345,36578,42317,43883,44867,45970,49100,50084,64752,65796,68735,76822,81126,82952,85430,86604,87387,88561,125274
DistanceSpacing: 1.3
BeatDivisor: 4
GridSize: 8
TimelineZoom: 1

[Metadata]
Title:#LARINPROTIV
TitleUnicode:#ЛАРИНПРОТИВ
Artist:LARIN
ArtistUnicode:Ларин
Creator:twilightcat666
Version:Easy
Source:
Tags:youtube larin russian ларин rap
BeatmapID:1388207
BeatmapSetID:649652

[Difficulty]
HPDrainRate:2
CircleSize:3
OverallDifficulty:2
ApproachRate:4
SliderMultiplier:0.7
SliderTickRate:1

[Events]
//Background and Video events
0,0,"larin.jpg",0,0
//Break Periods
//Storyboard Layer 0 (Background)
//Storyboard Layer 1 (Fail)
//Storyboard Layer 2 (Pass)
//Storyboard Layer 3 (Foreground)
//Storyboard Sound Samples

[TimingPoints]
57,521.739130434783,4,2,0,60,1,8
7883,-100,4,2,0,60,0,0
33970,-100,4,2,0,60,0,1
49100,-200,4,2,0,60,0,0
58491,-100,4,2,0,60,0,0
66839,-100,4,2,0,60,0,1
74143,-100,5,2,0,60,0,0

[HitObjects]
96,168,7883,6,0,B|184:128|240:128,1,140
360,136,9448,2,0,L|344:208,1,70,4|0,0:0|0:0,0:0:0:0:
256,200,10491,1,0,0:0:0:0:
240,112,11013,1,0,0:0:0:0:
160,152,11535,2,0,P|112:144|88:168,1,70,4|0,0:0|0:0,0:0:0:0:
128,240,12578,5,0,0:0:0:0:
208,280,13100,1,0,0:0:0:0:
240,192,13622,1,4,0:0:0:0:
224,104,14143,2,0,L|304:104,1,70
400,104,15187,6,0,P|400:160|400:184,1,70,0|8,0:0|0:0,0:0:0:0:
344,248,16230,1,8,0:0:0:0:
256,264,16752,1,4,0:0:0:0:
184,192,17274,6,0,L|200:112,1,70
312,128,18317,2,0,L|328:200,1,70
264,272,19361,2,0,L|224:280,2,35
224,184,20404,6,0,L|304:184,2,70,0|4|0,0:0|0:0|0:0,0:0:0:0:
160,120,21969,1,0,0:0:0:0:
224,48,22491,5,0,0:0:0:0:
288,120,23013,1,4,0:0:0:0:
216,192,23535,2,0,L|288:216,1,70
288,80,24578,6,0,P|192:64|152:88,2,140
328,160,27187,1,4,0:0:0:0:
288,240,27708,1,0,0:0:0:0:
192,232,28230,2,0,P|168:200|168:160,1,70
160,80,29274,5,4,0:0:0:0:
248,112,29795,1,0,0:0:0:0:
216,264,30839,2,0,B|224:272|328:280|336:200,1,140
344,128,32404,1,4,0:0:0:0:
216,64,33448,5,2,0:0:0:0:
168,144,33969,2,0,B|184:208|228:252|264:272|328:256,1,210
320,136,36578,2,0,L|272:152,2,35
384,64,37622,5,4,0:0:0:0:
408,152,38143,1,0,0:0:0:0:
344,224,38665,2,0,L|352:264,2,35
328,136,39709,2,0,P|272:168|264:184,1,70,4|0,0:0|0:0,0:0:0:0:
208,240,40752,6,0,L|128:248,1,70
64,200,41795,1,2,0:0:0:0:
120,96,42317,2,0,B|168:120|168:120|216:96|216:96|272:120|272:120|320:96,1,210
328,256,44926,2,0,L|328:208,2,35
240,248,45970,6,0,L|176:208,4,70,0|0|4|4|4,0:0|0:0|0:0|0:0|0:0,0:0:0:0:
256,192,49100,12,4,50143,0:0:0:0:
288,248,51187,5,0,0:0:0:0:
200,256,51709,1,0,0:0:0:0:
184,176,52230,2,0,L|240:128,1,70,4|0,0:0|0:0,0:0:0:0:
328,104,53795,5,0,0:0:0:0:
376,184,54839,1,0,0:0:0:0:
264,192,55882,1,0,0:0:0:0:
200,112,56404,2,0,L|224:80,2,35,4|0|0,0:0|0:0|0:0,0:0:0:0:
80,224,58491,5,4,0:0:0:0:
192,232,59013,2,0,P|184:168|248:88,1,140
264,184,60578,1,4,0:0:0:0:
360,160,61100,2,0,L|440:168,2,70
280,96,62665,1,4,0:0:0:0:
192,88,63187,6,0,P|168:72|136:104,1,70
312,192,64752,2,0,P|289:247|296:256,2,70,0|0|4,0:0|0:0|0:0,0:0:0:0:
152,168,66839,5,2,0:0:0:0:
240,208,67361,2,0,L|320:224,2,70
216,112,68926,1,0,0:0:0:0:
336,80,69969,2,0,P|376:64|376:64,2,35
256,112,71013,5,4,0:0:0:0:
264,200,71535,1,0,0:0:0:0:
176,232,72056,2,0,L|144:192,2,35
272,240,73100,2,0,B|322:246|322:246|336:224,1,70,4|0,0:0|0:0,0:0:0:0:
280,136,74143,1,0,0:0:0:0:
144,80,75187,5,4,0:0:0:0:
144,176,75709,2,0,B|240:176|288:136,1,140
368,120,77274,1,4,0:0:0:0:
424,192,77796,1,0,0:0:0:0:
344,232,78317,6,0,L|344:280,2,35
296,152,79361,1,4,0:0:0:0:
224,96,79883,1,0,0:0:0:0:
160,160,80404,1,0,0:0:0:0:
184,248,80926,6,0,P|152:288|128:296,2,70,0|4|0,0:0|0:0|0:0,0:0:0:0:
136,160,82491,1,0,0:0:0:0:
224,112,83013,1,4,0:0:0:0:
240,200,84056,6,0,L|240:296,2,70
176,120,85622,6,0,B|248:64|312:128,1,140,0|4,0:0|0:0,0:0:0:0:
296,280,87709,2,0,L|224:280,2,70,0|0|8,0:0|0:0|0:0,0:0:0:0:
296,184,89274,1,4,0:0:0:0:
256,192,89796,12,0,90839,0:0:0:0:
232,136,91882,5,2,0:0:0:0:
224,232,92404,2,0,L|304:232,2,70
152,176,93970,2,0,L|152:128,2,35,0|0|4,0:0|0:0|0:0,0:0:0:0:
88,248,95013,2,0,L|88:296,2,35,0|0|4,0:0|0:0|0:0,0:0:0:0:
256,192,96056,12,4,99187,0:0:0:0:
160,160,100230,6,0,P|216:144|240:144,2,70
168,256,101796,1,4,0:0:0:0:
256,272,102317,2,0,P|272:240|256:200,1,70
272,120,103361,6,0,L|344:120,1,70,0|4,0:0|0:0,0:0:0:0:
344,208,104404,2,0,P|424:224|424:224,2,70
264,168,105970,1,4,0:0:0:0:
288,80,106491,6,0,P|320:88|360:120,1,70
192,64,108578,2,0,P|228:48|272:48,2,70,4|0|0,0:0|0:0|0:0,0:0:0:0:
256,128,110143,5,0,0:0:0:0:
184,192,110665,2,0,B|176:152|144:128|144:128,1,70,4|0,0:0|0:0,0:0:0:0:
72,168,111709,2,0,P|80:208|104:240,1,70
176,280,112752,2,0,P|224:248|232:224,1,70,4|0,0:0|0:0,0:0:0:0:
296,184,113796,5,0,0:0:0:0:
216,104,114317,1,0,0:0:0:0:
120,136,114839,2,0,P|136:168|168:192,1,70,4|0,0:0|0:0,0:0:0:0:
272,208,115883,5,0,0:0:0:0:
296,120,116404,1,0,0:0:0:0:
368,176,116926,2,0,L|448:192,2,70,4|0|0,0:0|0:0|0:0,0:0:0:0:
320,256,118491,5,0,0:0:0:0:
232,256,119013,2,0,P|176:248|168:232,1,70
216,136,120057,1,0,0:0:0:0:
304,168,120578,1,0,0:0:0:0:
280,256,121100,6,0,L|208:240,1,70,4|0,0:0|0:0,0:0:0:0:
128,208,122143,2,0,L|160:136,1,70
248,168,123187,1,4,0:0:0:0:
256,192,125274,12,4,129970,0:0:0:0:
