osu file format v14

[General]
AudioFilename: audio.mp3
AudioLeadIn: 0
PreviewTime: -1
Countdown: 1
SampleSet: Soft
StackLeniency: 0.4
Mode: 0
LetterboxInBreaks: 0
WidescreenStoryboard: 1

[Editor]
DistanceSpacing: 1
BeatDivisor: 4
GridSize: 8
TimelineZoom: 2.899999

[Metadata]
Title:Hyadain no Kakakata Kataomoi-C (TV Size)
TitleUnicode:ヒャダインのカカカタ☆カタオモイ-C (TV Size)
Artist:LANTIS
ArtistUnicode:ヒャダイン
Creator:F4UZ4N
Version:Hard-C
Source:日常
Tags:nichijou f4uz4n tv_size anime yes cool
BeatmapID:1921364
BeatmapSetID:920001

[Difficulty]
HPDrainRate:4
CircleSize:4
OverallDifficulty:7
ApproachRate:7.7
SliderMultiplier:1.4
SliderTickRate:1

[Events]
//Background and Video events
0,0,"37822_nichijou.jpg",0,0
//Break Periods
//Storyboard Layer 0 (Background)
//Storyboard Layer 1 (Fail)
//Storyboard Layer 2 (Pass)
//Storyboard Layer 3 (Foreground)
//Storyboard Sound Samples

[TimingPoints]
927,333.333333333333,4,2,0,61,1,0
1260,-80,4,2,0,61,0,0
5093,-71.4285714285714,4,2,0,61,0,0
6593,-80,4,2,0,61,0,0
11760,-95.2380952380952,4,2,0,61,0,0
14926,-133.333333333333,4,2,0,61,0,0
17093,-95.2380952380952,4,2,0,61,0,0
20260,-86.9565217391304,4,2,0,61,0,0
22593,-71.4285714285714,4,2,0,61,0,0
30592,-100,4,2,0,61,0,0
33260,666.666666666667,4,2,0,61,1,0
42593,-33.3333333333333,4,2,0,61,0,0
42926,-100,4,2,0,61,0,0
49926,-125,4,2,0,61,0,0
50593,-166.666666666667,4,2,0,61,0,0
51260,-100,4,2,0,61,0,0
51926,333.333333333333,4,2,0,61,1,0
52592,-83.3333333333333,4,2,0,61,0,0
53259,-43.4782608695652,4,2,0,61,0,0
53926,-76.9230769230769,4,2,0,61,0,0
54426,-76.9230769230769,4,2,0,75,0,1
57092,-111.111111111111,4,2,0,61,0,1
58425,-90.9090909090909,4,2,0,61,0,1
59425,-76.9230769230769,4,2,0,61,0,1
64759,-66.6666666666667,4,2,0,61,0,1
65759,-76.9230769230769,4,2,0,61,0,1
67759,-90.9090909090909,4,2,0,61,0,1
68092,-66.6666666666667,4,2,0,61,0,1
68425,-76.9230769230769,4,2,0,61,0,1
68759,-58.8235294117647,4,2,0,61,0,1
69092,-66.6666666666667,4,2,0,61,0,1
69425,-52.6315789473684,4,2,0,61,0,1
69759,-66.6666666666667,4,2,0,61,0,1
72759,-76.9230769230769,4,2,0,61,0,1
74425,-66.6666666666667,4,2,0,61,0,1
75925,-76.9230769230769,4,2,0,61,0,0
79759,-66.6666666666667,4,2,0,61,0,0

[Colours]
Combo1 : 255,207,64
Combo2 : 70,223,240
Combo3 : 199,126,73
Combo4 : 255,128,255

[HitObjects]
22,210,593,5,0,0:0:0:0:
30,221,677,2,0,L|111:232,1,70
113,232,926,1,0,0:0:0:0:
167,295,1093,1,0,0:0:0:0:
185,191,1260,6,0,B|276:181|264:247|365:232,1,175
408,180,1760,2,0,P|436:147|478:139,1,87.5
408,100,2093,2,0,P|380:67|338:59,1,87.5
274,105,2426,2,0,L|92:90,1,175
20,154,2926,1,0,0:0:0:0:
56,224,3093,2,0,P|62:284|58:319,1,87.5
137,380,3426,5,0,0:0:0:0:
214,368,3593,1,0,0:0:0:0:
292,356,3760,2,0,B|323:312|323:312|309:184,1,175
252,137,4260,1,0,0:0:0:0:
326,113,4426,1,0,0:0:0:0:
405,162,4593,1,0,0:0:0:0:
479,138,4759,1,0,0:0:0:0:
413,181,4926,1,0,0:0:0:0:
442,64,5093,6,0,L|238:78,1,195.999994018555
187,129,5593,1,0,0:0:0:0:
120,86,5760,1,0,0:0:0:0:
120,86,5843,1,0,0:0:0:0:
120,86,5926,2,0,P|109:144|136:191,1,97.9999970092774
133,189,6176,1,0,0:0:0:0:
142,199,6260,2,0,P|153:257|126:304,1,97.9999970092774
202,367,6593,6,0,B|232:341|232:341|332:352,1,131.25
332,359,6926,2,0,L|452:346,1,87.5
476,225,7260,5,0,0:0:0:0:
398,264,7426,1,0,0:0:0:0:
335,202,7593,1,0,0:0:0:0:
254,237,7760,2,0,P|194:242|73:279,1,175
17,231,8260,1,0,0:0:0:0:
53,161,8426,2,0,P|97:145|159:178,1,87.5
204,116,8760,2,0,L|219:26,1,87.5
292,4,9093,1,0,0:0:0:0:
374,70,9260,6,0,L|382:114,3,43.75
375,127,9593,2,0,L|367:171,3,43.75
356,180,9926,2,0,L|333:218,3,43.75
320,223,10260,2,0,L|251:279,1,87.5,0|0,3:0|3:0,3:0:0:0:
163,350,10760,5,0,0:0:0:0:
0,214,11093,1,0,0:0:0:0:
13,309,11426,5,0,0:0:0:0:
89,249,11593,5,0,3:0:0:0:
71,148,11760,6,0,B|146:135|138:192|216:183,1,146.999995513916
269,226,12260,2,0,L|259:300,1,73.4999977569581
343,244,12593,2,0,L|335:168,2,73.4999977569581
405,283,13093,2,0,B|444:254|444:254|460:137,1,146.999995513916
490,90,13593,1,0,0:0:0:0:
490,90,13760,2,0,P|427:68|317:58,1,146.999995513916
276,76,14260,1,0,0:0:0:0:
179,45,14426,6,0,P|190:159|193:291,1,220.499993270874
104,344,15093,1,0,0:0:0:0:
104,344,15260,1,0,0:0:0:0:
184,365,15426,2,0,L|244:352,1,52.5000020027161
326,371,15760,1,0,0:0:0:0:
512,287,16093,2,0,L|452:274,1,52.5000020027161
370,293,16427,1,0,0:0:0:0:
224,223,16760,2,0,L|164:236,1,52.5000020027161
163,245,17093,6,0,P|144:204|167:95,1,146.999995513916
211,55,17593,1,0,0:0:0:0:
211,55,17760,2,0,L|313:65,1,73.4999977569581
339,132,18093,2,0,L|237:142,1,73.4999977569581
228,202,18426,6,0,B|204:241|204:241|236:367,1,146.999995513916
292,375,18926,1,0,0:0:0:0:
357,342,19093,2,0,B|381:243|381:243|357:204,1,146.999995513916
339,132,19593,1,0,0:0:0:0:
434,147,19760,6,0,L|451:-13,1,146.999995513916
372,25,20260,2,0,P|318:45|280:36,1,80.5000015354157
219,17,20593,1,0,0:0:0:0:
156,68,20760,1,0,0:0:0:0:
79,42,20926,1,0,0:0:0:0:
24,101,21093,6,0,L|45:301,1,161.000003070831
100,315,21593,1,0,0:0:0:0:
174,283,21760,1,0,0:0:0:0:
174,283,21843,1,0,0:0:0:0:
174,283,21926,2,0,L|222:270,3,40.2500007677078
253,280,22260,1,0,0:0:0:0:
349,322,22426,1,0,0:0:0:0:
349,322,22593,6,0,B|389:279|389:279|377:134,2,195.999994018555
