osu file format v14

[General]
AudioFilename: audio.mp3
AudioLeadIn: 0
PreviewTime: 211723
Countdown: 0
SampleSet: Soft
StackLeniency: 0.7
Mode: 0
LetterboxInBreaks: 0
WidescreenStoryboard: 0

[Editor]
Bookmarks: 218286
DistanceSpacing: 1.2
BeatDivisor: 4
GridSize: 4
TimelineZoom: 1.95

[Metadata]
Title:BABY STEP
TitleUnicode:BABY STEP
Artist:LAMP IN TERREN
ArtistUnicode:LAMP IN TERREN
Creator:Nevo
Version:Farewell
Source:
Tags:japanese rock xchorse the naked blues ランプ・イン・テレン
BeatmapID:1936620
BeatmapSetID:927220

[Difficulty]
HPDrainRate:6
CircleSize:4.2
OverallDifficulty:8.2
ApproachRate:8.4
SliderMultiplier:1.7
SliderTickRate:1

[Events]
//Background and Video events
0,0,"art-naked-cat-paren-voda.jpg",0,0
//Break Periods
//Storyboard Layer 0 (Background)
//Storyboard Layer 1 (Fail)
//Storyboard Layer 2 (Pass)
//Storyboard Layer 3 (Foreground)
//Storyboard Layer 4 (Overlay)
//Storyboard Sound Samples

[TimingPoints]
5672,735.113942661112,4,2,1,80,1,0
5672,-133.333333333333,4,2,1,50,0,0
7504,-133.333333333333,4,2,1,60,0,0
7872,-133.333333333333,4,2,1,70,0,0
8240,-133.333333333333,4,2,1,80,0,0
8612,738.461538461539,4,2,1,80,1,0
8612,-133.333333333333,4,2,1,50,0,0
10449,-133.333333333333,4,2,1,60,0,0
10817,-133.333333333333,4,2,1,70,0,0
11185,-133.333333333333,4,2,1,80,0,0
11566,737.100737100737,4,2,1,80,1,0
11566,-133.333333333333,4,2,1,50,0,0
13394,-133.333333333333,4,2,1,60,0,0
13762,-133.333333333333,4,2,1,70,0,0
14130,-133.333333333333,4,2,1,80,0,0
14514,742.574257425743,4,2,1,80,1,0
14514,-133.333333333333,4,2,1,50,0,0
15238,-133.333333333333,4,2,1,50,0,0
15639,-133.333333333333,4,2,1,50,0,0
16007,-133.333333333333,4,2,1,50,0,0
16375,-133.333333333333,4,2,1,60,0,0
16743,-133.333333333333,4,2,1,70,0,0
17111,-133.333333333333,4,2,1,80,0,0
17484,738.461538461539,4,2,1,80,1,0
17484,-133.333333333333,4,2,1,50,0,0
19338,-133.333333333333,4,2,1,60,0,0
19706,-133.333333333333,4,2,1,70,0,0
20438,743.494423791822,4,2,1,80,1,0
20438,-133.333333333333,4,2,1,80,0,0
20454,-133.333333333333,4,2,1,50,0,0
21571,-133.333333333333,4,2,1,50,0,0
21939,-133.333333333333,4,2,1,50,0,0
22307,-133.333333333333,4,2,1,60,0,0
22675,-133.333333333333,4,2,1,70,0,0
23043,-133.333333333333,4,2,1,80,0,0
23411,733.944954128441,4,2,1,80,1,0
23411,-133.333333333333,4,2,1,50,0,0
25251,-133.333333333333,4,2,1,60,0,0
25619,-133.333333333333,4,2,1,70,0,0
25987,-133.333333333333,4,2,1,80,0,0
26347,751.314800901578,4,2,1,80,1,0
26347,-133.333333333333,4,2,1,50,0,0
27019,-133.333333333333,4,2,1,50,0,0
27209,-133.333333333333,4,2,1,50,0,0
29352,739.827373612824,4,2,1,80,1,0
29352,-133.333333333333,4,2,1,50,0,0
31220,-133.333333333333,4,2,1,50,0,0
31560,-133.333333333333,4,2,1,50,0,0
32311,743.034055727554,4,2,1,80,1,0
32311,-133.333333333333,4,2,1,50,0,0
34187,-133.333333333333,4,2,1,50,0,0
34531,-133.333333333333,4,2,1,50,0,0
35284,737.82587309395,4,2,1,80,1,0
35284,-133.333333333333,4,2,1,50,0,0
38235,745.341614906833,4,2,1,80,1,0
38235,-133.333333333333,4,2,1,50,0,0
41217,739.827373612824,4,2,1,80,1,0
41220,-133.333333333333,4,2,1,50,0,0
41230,-133.333333333333,4,2,1,50,0,0
43460,-133.333333333333,4,2,1,50,0,0
44176,741.198270537369,4,2,1,80,1,0
44176,-133.333333333333,4,2,1,50,0,0
47141,739.644970414201,4,2,1,80,1,0
47141,-133.333333333333,4,2,1,50,0,0
50100,743.494423791822,4,2,1,80,1,0
50100,-133.333333333333,4,2,1,50,0,0
53074,734.394124847001,4,2,1,80,1,0
53074,-133.333333333333,4,2,1,50,0,0
56011,744.601638123604,4,2,1,80,1,0
56011,-133.333333333333,4,2,1,50,0,0
58990,739.371534195933,4,2,1,80,1,0
58990,-117.647058823529,4,2,1,60,0,0
61948,746.268656716418,4,2,1,80,1,0
61948,-117.647058823529,4,2,1,60,0,0
63454,-117.647058823529,4,2,1,70,0,0
64932,733.496332518337,4,2,1,80,1,0
64932,-100,4,2,1,80,0,0
66398,725.513905683192,4,2,1,80,1,0
66398,-117.647058823529,4,2,1,70,0,0
67850,750.46904315197,4,2,1,80,1,0
67850,-68.9655172413792,4,2,1,70,0,1
68646,-68.9655172413792,4,2,1,70,0,1
70852,738.461538461539,4,2,1,80,1,0
70852,-68.9655172413792,4,2,1,70,0,1
71562,-68.9655172413792,4,2,1,70,0,1
72701,-68.9655172413792,4,2,1,70,0,1
73066,-68.9655172413792,4,2,1,70,0,1
73806,742.115027829314,4,2,1,80,1,0
73806,-68.9655172413792,4,2,1,70,0,1
76775,738.916256157635,4,2,1,80,1,0
76775,-68.9655172413792,4,2,1,70,0,1
77501,-68.9655172413792,4,2,1,70,0,1
78251,-68.9655172413792,4,2,1,70,0,1
79731,740.283775447255,4,2,1,80,1,0
79731,-68.9655172413792,4,2,1,70,0,1
80835,-68.9655172413792,4,2,1,70,0,1
81214,-68.9655172413792,4,2,1,70,0,1
82692,741.47305981216,4,2,1,80,1,0
82692,-68.9655172413792,4,2,1,70,0,1
85658,737.553779963122,4,2,1,80,1,0
85658,-68.9655172413792,4,2,1,70,0,1
88608,742.574257425743,4,2,1,80,1,0
88608,-68.9655172413792,4,2,1,70,0,1
91180,-68.9655172413792,4,2,1,70,0,1
91578,743.955362678239,4,2,1,80,1,0
91578,-68.9655172413792,4,2,1,70,0,1
93049,-68.9655172413792,4,2,1,70,0,1
93471,-68.9655172413792,4,2,1,70,0,1
93800,-68.9655172413792,4,2,1,70,0,1
94553,738.916256157635,4,2,1,80,1,0
94553,-68.9655172413792,4,2,1,70,0,1
96040,-68.9655172413792,4,2,1,70,0,1
96754,-68.9655172413792,4,2,1,70,0,1
97509,738.643358365136,4,2,1,80,1,0
97509,-68.9655172413793,4,2,1,70,0,1
98240,-68.9655172413793,4,2,1,70,0,1
99725,-68.9655172413793,4,2,1,70,0,1
100464,740.740740740741,4,2,1,80,1,0
100464,-68.9655172413793,4,2,1,60,0,1
101575,-68.9655172413792,4,2,1,50,0,0
101945,740.557886941496,4,2,1,80,1,0
101945,-133.333333333333,4,2,1,50,0,0
103443,-133.333333333333,4,2,1,50,0,0
104907,740.740740740741,4,2,1,80,1,0
104907,-133.333333333333,4,2,1,50,0,0
105623,-133.333333333333,4,2,1,50,0,0
106363,-133.333333333333,4,2,1,50,0,0
106734,-133.333333333333,4,2,1,50,0,0
107123,-133.333333333333,4,2,1,50,0,0
107870,743.494423791822,4,2,1,80,1,0
107870,-133.333333333333,4,2,1,50,0,0
108601,-133.333333333333,4,2,1,50,0,0
109351,-133.333333333333,4,2,1,50,0,0
110844,741.656365883807,4,2,1,80,1,0
110844,-133.333333333333,4,2,1,50,0,0
111601,-133.333333333333,4,2,1,50,0,0
112332,-133.333333333333,4,2,1,50,0,0
113810,736.015701668302,4,2,1,80,1,0
113810,-133.333333333333,4,2,1,50,0,0
114527,-133.333333333333,4,2,1,50,0,0
115277,-133.333333333333,4,2,1,50,0,0
116402,-133.333333333333,4,2,1,50,0,0
116754,741.198270537369,4,2,1,80,1,0
116754,-133.333333333333,4,2,1,50,0,0
119718,740.740740740741,4,2,1,80,1,0
119718,-133.333333333333,4,2,1,50,0,0
121194,-133.333333333333,4,2,1,50,0,0
122291,-133.333333333333,4,2,1,50,0,0
122680,741.656365883807,4,2,1,80,1,0
122680,-133.333333333333,4,2,1,50,0,0
123413,-133.333333333333,4,2,1,50,0,0
123806,-133.333333333333,4,2,1,50,0,0
124176,-133.333333333333,4,2,1,50,0,0
125647,739.280433711188,4,2,1,80,1,0
125647,-100,4,2,1,50,0,0
128604,747.19800747198,4,2,1,80,1,0
128604,-100,4,2,1,50,0,0
131592,738.461538461539,4,2,1,80,1,0
131592,-100,4,2,1,50,0,0
134547,731.707317073171,4,2,1,80,1,0
134547,-100,4,2,1,50,0,0
136010,733.944954128441,4,2,1,80,1,0
136010,-100,4,2,1,50,0,0
137478,744.87895716946,4,2,1,80,1,0
137478,-100,4,2,1,60,0,1
138222,-68.9655172413792,4,2,1,70,0,1
138977,-68.9655172413792,4,2,1,70,0,1
140457,743.494423791822,4,2,1,80,1,0
140457,-68.9655172413792,4,2,1,70,0,1
141940,-68.9655172413792,4,2,1,70,0,1
143430,740.740740740741,4,2,1,80,1,0
143430,-68.9655172413792,4,2,1,70,0,1
144171,-68.9655172413792,4,2,1,70,0,1
144542,-68.9655172413792,4,2,1,70,0,1
144912,-68.9655172413792,4,2,1,70,0,1
146392,-68.9655172413792,4,2,1,70,0,1
146393,738.007380073801,4,2,1,80,1,0
146393,-68.9655172413792,4,2,1,70,0,1
147869,-68.9655172413792,4,2,1,70,0,1
149345,742.115027829314,4,2,1,80,1,0
149345,-68.9655172413792,4,2,1,70,0,1
149738,-68.9655172413792,4,2,1,70,0,1
150095,-68.9655172413792,4,2,1,70,0,1
150835,-68.9655172413792,4,2,1,70,0,1
152313,740.283775447255,4,2,1,80,1,0
152313,-68.9655172413792,4,2,1,70,0,1
155274,744.232200446539,4,2,1,80,1,0
155274,-68.9655172413792,4,2,1,70,0,1
156016,-68.9655172413792,4,2,1,70,0,1
158251,738.461538461539,4,2,1,80,1,0
158251,-68.9655172413792,4,2,1,70,0,1
161205,738.643358365136,4,2,1,80,1,0
161205,-68.9655172413792,4,2,1,70,0,1
161610,-68.9655172413792,4,2,1,70,0,1
161947,-68.9655172413792,4,2,1,70,0,1
162687,-68.9655172413792,4,2,1,70,0,1
164160,739.827373612824,4,2,1,80,1,0
164160,-68.9655172413792,4,2,1,70,0,1
167119,749.531542785759,4,2,1,80,1,0
167119,-68.9655172413792,4,2,1,70,0,1
168618,739.371534195933,4,2,1,80,1,0
168618,-68.9655172413792,4,2,1,60,0,1
170466,-100,4,2,1,50,0,0
171575,736.196319018405,4,2,1,80,1,0
171575,-100,4,2,1,50,0,0
174520,745.80484773151,4,2,1,80,1,0
174520,-100,4,2,1,50,0,0
177503,737.735153080044,4,2,1,80,1,0
177503,-100,4,2,1,50,0,0
180454,746.083063914449,4,2,1,80,1,0
180454,-100,4,2,1,50,0,0
183438,737.553779963122,4,2,1,80,1,0
183438,-100,4,2,1,50,0,0
186387,751.87969924812,4,2,1,80,1,0
186387,-100,4,2,1,50,0,0
188685,-153.846153846153,4,2,1,50,0,0
189394,737.82587309395,4,2,1,80,1,0
189394,-153.846153846153,4,2,1,50,0,0
190173,-153.846153846153,4,2,1,50,0,0
190920,-153.846153846153,4,2,1,50,0,0
191667,-153.846153846153,4,2,1,50,0,0
192345,739.827373612824,4,2,1,80,1,0
192345,-153.846153846153,4,2,1,50,0,0
195305,737.281887441632,4,2,1,80,1,0
195305,-153.846153846153,4,2,1,50,0,0
197148,-153.846153846153,4,2,1,5,0,0
198254,743.86312918423,4,2,1,80,1,0
198254,-181.818181818181,4,2,1,35,0,0
199741,705.882352941176,4,2,1,35,1,0
199741,-181.818181818181,4,2,1,35,0,0
200446,857.142857142857,4,2,1,35,1,0
200446,-181.818181818181,4,2,1,35,0,0
201088,714.285714285714,4,2,1,35,1,0
201088,-181.818181818181,4,2,1,35,0,0
201229,741.839762611276,4,2,1,80,1,0
201229,-181.818181818181,4,2,1,35,0,0
201785,-181.818181818181,4,2,1,10,0,0
201988,-181.818181818181,4,2,1,35,0,0
202156,-181.818181818181,4,2,1,5,0,0
202695,750,4,2,1,5,1,0
202695,-181.818181818181,4,2,1,35,0,0
204196,741.198270537369,4,2,1,80,1,0
204196,-181.818181818181,4,2,1,35,0,0
207161,737.281887441632,4,2,1,80,1,0
207161,-181.818181818181,4,2,1,35,0,0
207914,-181.818181818182,4,2,1,35,0,0
210110,722.02166064982,4,2,1,80,1,0
210110,-181.818181818182,4,2,1,35,0,0
211554,749.063670411985,4,2,1,80,1,0
211554,-133.333333333333,4,2,1,70,0,1
212303,-133.333333333333,4,2,1,70,0,0
213052,-133.333333333333,4,2,1,70,0,1
213613,-133.333333333333,4,2,1,70,0,0
213801,-133.333333333333,4,2,1,70,0,1
214362,-133.333333333333,4,2,1,70,0,0
214551,738.007380073801,4,2,1,80,1,0
214551,-58.8235294117647,4,2,1,70,0,1
217503,740.740740740741,4,2,1,80,1,0
217503,-58.8235294117647,4,2,1,70,0,1
220465,736.648250460405,4,2,1,80,1,0
220465,-58.8235294117647,4,2,1,70,0,1
221560,-58.8235294117647,4,2,1,70,0,1
221935,-58.8235294117647,4,2,1,70,0,1
223411,757.575757575758,4,2,1,80,1,0
223411,-58.8235294117647,4,2,1,70,0,1
224927,725.338491295938,4,2,1,70,1,1
224927,-58.8235294117647,4,2,1,70,0,1
226375,744.416873449132,4,2,1,80,1,0
226375,-58.8235294117647,4,2,1,70,0,1
227140,-58.8235294117647,4,2,1,70,0,1
227899,-58.8235294117647,4,2,1,70,0,1
228626,-58.8235294117647,4,2,1,70,0,1
229352,739.371534195933,4,2,1,80,1,0
229352,-58.8235294117647,4,2,1,70,0,1
230093,-58.8235294117647,4,2,1,70,0,1
230843,-58.8235294117647,4,2,1,70,0,1
232310,740.283775447255,4,2,1,80,1,0
232310,-58.8235294117647,4,2,1,70,0,1
233843,-58.8235294117647,4,2,1,70,0,1
235271,745.80484773151,4,2,1,80,1,0
235271,-58.8235294117647,4,2,1,70,0,1
238254,737.553779963122,4,2,1,80,1,0
238254,-58.8235294117647,4,2,1,70,0,1
241197,-58.8235294117647,4,2,1,70,0,1
241204,739.827373612824,4,2,1,80,1,0
241204,-58.8235294117647,4,2,1,70,0,1
241956,-58.8235294117647,4,2,1,70,0,1
242683,-58.8235294117647,4,2,1,70,0,1
244164,745.341614906833,4,2,1,80,1,0
244164,-58.8235294117647,4,2,1,70,0,1
247146,738.461538461539,4,2,1,80,1,0
247146,-58.8235294117647,4,2,1,70,0,1
249359,-58.8235294117647,4,2,1,70,0,1
250100,739.371534195933,4,2,1,80,1,0
250100,-58.8235294117647,4,2,1,70,0,1
252318,-58.8235294117647,4,2,1,70,0,1
253057,743.955362678239,4,2,1,80,1,0
253057,-58.8235294117647,4,2,1,70,0,1
254545,800,4,2,1,80,1,0
254545,-100,4,2,1,70,0,1
256145,689.655172413793,4,2,1,70,1,1
258213,-100,4,2,1,80,0,0
258266,-100,4,2,1,70,0,0
259010,735.294117647059,4,2,1,80,1,0
259010,-100,4,2,1,70,0,0
260850,-100,4,2,1,60,0,0
261209,-100,4,2,1,70,0,0
261574,-100,4,2,1,80,0,0
261940,-100,4,2,1,50,0,0
261951,738.007380073801,4,2,1,80,1,0
261951,-100,4,2,1,80,0,0
264903,741.198270537369,4,2,1,80,1,0
264903,-100,4,2,1,80,0,0
266770,-100,4,2,1,60,0,0
267145,-100,4,2,1,70,0,0
267520,-100,4,2,1,80,0,0
267868,739.371534195933,4,2,1,80,1,0
267868,-100,4,2,1,80,0,0
269724,-100,4,2,1,60,0,0
270090,-100,4,2,1,70,0,0
270455,-100,4,2,1,80,0,0
270826,740.283775447255,4,2,1,80,1,0
270826,-100,4,2,1,80,0,0
272672,-100,4,2,1,60,0,0
273043,-100,4,2,1,70,0,0
273413,-100,4,2,1,80,0,0
273787,739.827373612824,4,2,1,80,1,0
273787,-100,4,2,1,50,0,0
275635,-100,4,2,1,60,0,0
276006,-100,4,2,1,70,0,0
276376,-100,4,2,1,80,0,0
276746,743.310208126858,4,2,1,80,1,0
276746,-100,4,2,1,50,0,0
278598,-100,4,2,1,60,0,0
278969,-100,4,2,1,70,0,0
279339,-100,4,2,1,80,0,0
279720,751.408891671885,4,2,1,80,1,0
279720,-100,4,2,1,50,0,0
282725,755.667506297229,4,2,1,80,1,0
282725,-100,4,2,1,50,0,0
285518,-100,4,2,1,70,0,0
285611,-100,4,2,1,10,0,0

[Colours]
Combo1 : 47,123,251
Combo2 : 254,188,99
Combo3 : 169,123,253
Combo4 : 206,228,139

[HitObjects]
50,350,5672,6,0,P|85:337|113:333,1,63.7500024318696,6|0,1:1|1:0,0:0:0:0:
236,286,6407,2,0,P|204:280|174:269,1,63.7500024318696,0|0,1:0|1:0,0:0:0:0:
113,143,7142,1,0,1:0:0:0:
230,165,7509,2,0,P|230:186|226:221,1,31.8750012159348,2|0,1:0|0:0,0:0:0:0:
278,100,7877,2,0,P|292:114|314:142,1,31.8750012159348,2|0,1:0|0:0,0:0:0:0:
265,20,8244,2,0,P|286:19|320:23,1,31.8750012159348,2|0,1:0|0:0,0:0:0:0:
447,67,8612,6,0,P|446:109|433:159,1,63.7500024318696,4|0,1:0|1:0,0:0:0:0:
370,249,9350,2,0,P|365:217|365:185,1,63.7500024318696,0|0,1:0|1:0,0:0:0:0:
488,294,10088,1,0,1:0:0:0:
379,354,10458,2,0,L|327:351,1,31.8750012159348,2|0,1:0|0:0,0:0:0:0:
270,298,10827,2,0,L|218:301,1,31.8750012159348,2|0,1:0|0:0,0:0:0:0:
161,354,11196,2,0,L|109:351,1,31.8750012159348,2|0,1:0|0:0,0:0:0:0:
53,297,11566,5,6,1:0:0:0:
214,224,11934,1,0,1:0:0:0:
351,242,12303,1,0,1:0:0:0:
512,315,12671,1,0,1:0:0:0:
267,326,13040,1,0,1:0:0:0:
293,173,13408,2,0,P|314:159|346:146,1,31.8750012159348,2|0,1:0|0:0,0:0:0:0:
437,125,13777,2,0,P|416:111|384:98,1,31.8750012159348,2|0,1:0|0:0,0:0:0:0:
293,77,14145,2,0,P|314:63|346:50,1,31.8750012159348,2|0,1:0|0:0,0:0:0:0:
392,205,14514,6,0,L|383:277,1,63.7500024318696,6|0,1:0|1:0,0:0:0:0:
267,326,15256,2,0,L|258:254,1,63.7500024318696,0|0,1:0|1:0,0:0:0:0:
160,154,15999,1,0,1:0:0:0:
106,284,16370,2,0,L|97:240,1,31.8750012159348,2|0,1:0|0:0,0:0:0:0:
195,228,16741,2,0,L|186:272,1,31.8750012159348,2|0,1:0|0:0,0:0:0:0:
284,284,17113,2,0,L|275:240,1,31.8750012159348,2|0,1:0|0:0,0:0:0:0:
355,150,17484,6,0,P|357:186|349:221,1,63.7500024318696,6|0,1:0|1:0,0:0:0:0:
228,117,18222,2,0,P|258:97|292:86,1,63.7500024318696,0|0,1:0|1:0,0:0:0:0:
440,98,18960,1,0,1:0:0:0:
507,222,19330,2,0,L|466:216,1,31.8750012159348,2|0,1:0|0:0,0:0:0:0:
378,274,19699,2,0,L|419:268,1,31.8750012159348,2|0,1:0|0:0,0:0:0:0:
497,343,20068,2,0,L|456:337,1,31.8750012159348,2|0,1:0|0:0,0:0:0:0:
293,240,20438,6,0,P|255:227|208:233,1,63.7500024318696,6|0,1:0|1:0,0:0:0:0:
103,183,21181,2,0,P|134:181|164:170,1,63.7500024318696,0|0,1:0|1:0,0:0:0:0:
233,102,21924,1,0,1:0:0:0:
107,66,22296,2,0,L|116:111,1,31.8750012159348,2|0,1:0|0:0,0:0:0:0:
242,194,22668,2,0,L|233:239,1,31.8750012159348,2|0,1:0|0:0,0:0:0:0:
107,322,23040,2,0,L|116:367,1,31.8750012159348,2|0,1:0|0:0,0:0:0:0:
378,382,23411,5,6,1:0:0:0:
300,307,23777,1,0,1:0:0:0:
326,202,24144,1,0,1:0:0:0:
429,171,24511,1,0,1:0:0:0:
508,245,24878,1,0,1:0:0:0:
484,351,25245,2,0,L|446:342,1,31.8750012159348,2|0,1:0|0:0,0:0:0:0:
331,299,25612,2,0,L|293:308,1,31.8750012159348,2|0,1:0|0:0,0:0:0:0:
178,351,25979,2,0,L|140:342,1,31.8750012159348,2|0,1:0|0:0,0:0:0:0:
40,263,26347,6,0,P|53:183|101:280,1,255.000009727478,6|0,2:0|1:0,2:2:0:0:
68,340,28037,1,0,1:0:0:0:
50,346,28225,1,0,1:0:0:0:
6,96,28600,1,8,0:0:0:0:
265,171,28976,1,8,0:0:0:0:
197,217,29164,1,8,0:0:0:0:
228,92,29352,6,0,L|308:85,1,63.7500024318696,4|0,0:0|0:0,0:0:0:0:
461,166,30091,2,0,P|407:134|322:163,1,127.500004863739,10|2,0:2|0:2,0:0:0:0:
389,252,31201,2,0,L|391:203,1,31.8750012159348,2|0,1:2|0:0,0:0:0:0:
403,91,31571,2,0,P|371:92|341:102,1,63.7500024318696,8|2,0:0|0:2,0:0:0:0:
203,52,32311,6,0,L|286:56,1,63.7500024318696,2|2,1:2|0:2,0:0:0:0:
252,251,33054,2,0,P|221:188|251:111,1,127.500004863739,10|0,0:2|0:0,0:0:0:0:
129,92,34168,2,0,P|139:118|138:144,1,31.8750012159348,2|0,1:2|0:0,0:0:0:0:
92,220,34540,2,0,L|107:304,1,63.7500024318696,8|0,0:0|0:0,0:0:0:0:
215,372,35284,6,0,B|265:366|265:366|298:380|298:380|348:375,1,127.500004863739,2|10,1:2|0:2,0:0:0:0:
339,218,36759,1,2,0:2:0:0:
266,241,36944,1,2,0:2:0:0:
351,295,37128,2,0,L|351:216,1,63.7500024318696,2|8,1:2|0:0,0:0:0:0:
217,78,38235,6,0,P|193:112|182:161,1,63.7500024318696,2|2,1:2|0:2,0:0:0:0:
290,201,38980,2,0,P|282:159|256:117,1,63.7500024318696,10|2,0:2|0:2,0:0:0:0:
109,107,39725,1,0,0:0:0:0:
171,203,40098,2,0,L|223:194,1,31.8750012159348,2|0,1:2|0:0,0:0:0:0:
154,281,40471,1,10,0:2:0:0:
95,222,40657,1,2,0:2:0:0:
6,302,40843,6,0,L|93:297,1,63.7500024318696,2|2,0:2|1:2,0:0:0:0:
234,261,41401,1,2,0:2:0:0:
312,299,41586,1,2,0:2:0:0:
178,323,41771,1,2,0:2:0:0:
310,384,41956,2,0,L|403:376,1,63.7500024318696,10|0,0:2|0:0,0:0:0:0:
495,338,42511,1,2,0:2:0:0:
413,308,42696,1,2,0:2:0:0:
482,258,42881,1,2,0:2:0:0:
404,158,43066,2,0,P|404:195|407:239,1,63.7500024318696,2|8,1:2|0:0,0:0:0:0:
323,128,43806,2,0,L|329:78,1,31.8750012159348,2|0,0:2|0:0,0:0:0:0:
385,4,44176,6,0,P|346:16|306:12,1,63.7500024318696,2|2,1:2|0:2,0:0:0:0:
188,73,44917,2,0,P|217:62|249:61,1,63.7500024318696,10|2,0:2|0:2,0:0:0:0:
411,88,45658,1,0,0:0:0:0:
235,147,46028,1,2,1:2:0:0:
400,249,46399,2,0,L|407:199,1,31.8750012159348,10|0,0:2|0:0,0:0:0:0:
318,292,46770,2,0,L|323:369,1,63.7500024318696,2|2,0:2|1:2,0:0:0:0:
200,339,47510,2,0,L|249:333,1,31.8750012159348,2|2,0:2|0:2,0:0:0:0:
126,222,47880,2,0,B|142:254|134:291|134:291|112:323|121:361,1,127.500004863739,10|2,0:2|0:2,0:0:0:0:
328,375,48990,1,2,1:2:0:0:
340,163,49359,2,0,P|284:142|258:146,1,63.7500024318696,10|2,0:2|0:2,0:0:0:0:
83,209,50100,6,0,P|145:207|219:154,1,127.500004863739,2|8,1:2|0:0,0:0:0:0:
240,63,51216,1,2,0:2:0:0:
172,97,51401,1,8,0:0:0:0:
277,132,51586,1,2,0:2:0:0:
345,232,51958,6,0,L|303:228,1,31.8750012159348,2|0,1:2|0:0,0:0:0:0:
178,275,52330,1,10,0:2:0:0:
260,300,52516,1,8,0:0:0:0:
113,359,52702,2,0,L|155:355,1,31.8750012159348,2|0,0:0|0:0,0:0:0:0:
66,172,53074,6,0,P|45:217|59:306,1,127.500004863739,2|2,1:2|0:2,0:0:0:0:
305,187,54542,2,0,P|314:124|291:66,1,127.500004863739,2|2,0:2|0:2,0:0:0:0:
204,29,55644,1,0,1:0:0:0:
85,140,56011,6,0,L|223:132,2,127.500004863739,2|2|2,1:2|0:2|0:2,0:0:0:0:
276,62,58244,2,0,P|298:96|306:123,1,63.7500024318696,2|0,0:2|0:0,0:0:0:0:
156,287,58990,6,0,L|147:192,1,72.2500013780594,2|2,1:2|0:2,0:0:0:0:
273,309,59729,2,0,L|282:214,1,72.2500013780594,2|2,1:2|0:2,0:0:0:0:
82,344,60468,2,0,P|120:329|216:371,1,144.500002756119,2|2,1:2|1:2,0:0:0:0:
383,143,61948,5,6,1:2:0:0:
305,171,62321,1,0,1:0:0:0:
161,99,62694,2,0,L|247:105,1,72.2500013780594,8|0,0:0|0:0,0:0:0:0:
324,257,63440,5,2,1:2:0:0:
235,225,63813,1,0,1:0:0:0:
71,306,64186,2,0,L|168:299,1,72.2500013780594,8|0,0:0|0:0,0:0:0:0:
412,133,64933,5,2,1:2:0:0:
305,171,65298,1,0,1:0:0:0:
108,72,65665,2,0,L|211:80,1,85,10|0,0:2|0:0,0:0:0:0:
403,291,66398,5,8,0:0:0:0:
235,225,66579,1,8,0:0:0:0:
90,320,66760,1,0,1:0:0:0:
194,117,67123,5,8,0:0:0:0:
339,212,67304,1,8,0:0:0:0:
507,146,67486,1,0,1:0:0:0:
306,302,67667,1,0,1:0:0:0:
279,71,67850,6,0,L|295:149,1,61.6250018806458,6|0,1:2|0:0,0:0:0:0:
417,273,68225,2,0,L|433:195,1,61.6250018806458,2|0,0:2|0:0,0:0:0:0:
190,324,68600,2,0,P|257:296|329:312,1,123.250003761292,10|2,0:2|0:2,0:0:0:0:
170,140,69350,2,0,P|124:180|104:238,1,123.250003761292,2|2,1:2|1:2,0:0:0:0:
259,384,69913,1,2,0:2:0:0:
226,262,70101,1,10,0:2:0:0:
366,157,70289,1,2,0:2:0:0:
354,278,70476,2,0,L|346:348,1,61.6250018806458,2|0,0:2|0:0,0:0:0:0:
171,125,70852,6,0,P|228:137|320:80,1,123.250003761292,2|0,1:2|0:0,0:0:0:0:
471,287,71590,2,0,P|413:266|354:277,1,123.250003761292,10|0,0:2|0:0,0:0:0:0:
104,258,72144,1,0,0:0:0:0:
246,300,72328,1,2,1:2:0:0:
381,147,72513,1,2,0:2:0:0:
249,178,72698,1,2,1:2:0:0:
429,270,73067,5,10,0:2:0:0:
462,174,73252,1,2,0:2:0:0:
270,22,73436,1,2,0:2:0:0:
294,109,73621,1,2,0:2:0:0:
97,282,73806,6,0,P|153:248|248:260,1,123.250003761292,6|2,1:2|0:2,0:0:0:0:
90,58,74548,2,0,L|100:180,1,123.250003761292,10|2,0:2|0:2,0:0:0:0:
172,330,75104,1,2,0:2:0:0:
277,174,75290,2,0,B|333:141|403:158|388:195|454:217|524:191,1,246.500007522583,2|10,1:2|0:2,0:0:0:0:
476,49,76217,2,0,L|461:118,1,61.6250018806458,2|2,0:2|0:2,0:0:0:0:
346,251,76588,1,2,0:2:0:0:
181,117,76775,6,0,P|117:89|48:94,1,123.250003761292,2|0,1:2|0:0,0:0:0:0:
38,241,77329,1,2,0:2:0:0:
277,174,77513,2,0,P|281:66|206:14,1,184.875005641937,10|0,0:2|0:0,0:0:0:0:
14,49,78252,1,0,1:0:0:0:
150,155,78622,2,0,L|237:142,1,61.6250018806458,2|0,1:2|0:0,0:0:0:0:
352,218,78991,2,0,L|265:205,1,61.6250018806458,10|0,0:2|0:0,0:0:0:0:
82,356,79361,1,10,0:2:0:0:
201,340,79545,1,8,0:0:0:0:
392,133,79731,6,0,P|443:186|418:275,1,123.250003761292,4|2,1:2|0:2,0:0:0:0:
344,329,80286,1,0,0:0:0:0:
181,252,80471,2,0,L|69:244,1,61.6250018806458,10|0,0:2|0:0,0:0:0:0:
222,98,80841,2,0,L|283:93,1,61.6250018806458,2|0,0:2|0:0,0:0:0:0:
67,5,81211,2,0,B|45:41|45:41|60:143,1,123.250003761292,2|0,1:2|1:0,0:0:0:0:
263,282,81766,1,2,0:2:0:0:
236,190,81951,1,10,0:2:0:0:
441,64,82136,1,2,0:2:0:0:
427,159,82321,2,0,L|441:239,1,61.6250018806458,2|0,0:2|0:0,0:0:0:0:
512,338,82692,6,0,P|452:311|383:326,1,123.250003761292,2|2,1:2|0:2,0:0:0:0:
148,301,83433,2,0,P|208:308|263:281,1,123.250003761292,10|2,0:2|0:2,0:0:0:0:
46,54,84174,2,0,P|34:84|30:131,1,61.6250018806458,2|0,1:2|0:0,0:0:0:0:
132,213,84545,2,0,P|112:187|73:160,1,61.6250018806458,2|0,0:2|0:0,0:0:0:0:
73,296,84916,1,10,0:2:0:0:
162,330,85101,1,2,0:2:0:0:
31,384,85287,2,0,L|106:374,1,61.6250018806458,2|0,0:2|0:0,0:0:0:0:
296,209,85658,6,0,L|437:224,1,123.250003761292,6|2,1:2|0:2,0:0:0:0:
187,129,86395,2,0,P|153:175|178:266,1,123.250003761292,10|2,0:2|0:2,0:0:0:0:
242,26,87133,2,0,L|119:39,1,123.250003761292,2|2,1:2|0:2,0:0:0:0:
0,134,87686,1,2,0:2:0:0:
232,192,87870,1,10,0:2:0:0:
29,285,88055,1,2,0:2:0:0:
339,349,88423,1,2,0:2:0:0:
395,273,88608,6,0,P|305:259|245:337,1,184.875005641937,2|2,1:2|0:2,0:0:0:0:
388,253,89350,2,0,P|298:239|238:317,1,184.875005641937,10|0,0:2|0:0,0:0:0:0:
384,233,90093,2,0,L|372:158,1,61.6250018806458,0|0,1:0|1:0,0:0:0:0:
232,48,90464,2,0,L|220:123,1,61.6250018806458,2|0,1:2|0:0,0:0:0:0:
159,211,90835,1,10,0:2:0:0:
287,172,91021,1,10,0:2:0:0:
117,119,91207,1,2,1:2:0:0:
251,323,91578,6,0,L|241:244,1,61.6250018806458,6|0,1:2|0:0,0:0:0:0:
170,374,91949,2,0,L|160:295,1,61.6250018806458,2|0,1:2|0:0,0:0:0:0:
320,204,92321,2,0,L|327:265,1,61.6250018806458,12|0,0:3|0:0,0:0:0:0:
206,164,92693,1,2,0:2:0:0:
281,127,92879,1,2,0:2:0:0:
81,261,93065,6,0,L|91:182,1,61.6250018806458,2|0,1:2|0:0,0:0:0:0:
162,304,93437,2,0,L|172:225,1,61.6250018806458,2|0,1:2|0:0,0:0:0:0:
12,142,93809,2,0,L|4:203,1,61.6250018806458,12|0,0:3|0:0,0:0:0:0:
126,102,94181,1,2,0:2:0:0:
51,65,94367,1,2,0:2:0:0:
250,199,94553,6,0,L|240:120,1,61.6250018806458,2|0,1:2|0:0,0:0:0:0:
169,242,94922,2,0,L|159:163,1,61.6250018806458,2|2,0:2|0:2,0:0:0:0:
319,80,95291,2,0,L|326:141,1,61.6250018806458,12|0,0:3|0:0,0:0:0:0:
203,36,95661,1,2,0:2:0:0:
280,3,95846,1,2,0:2:0:0:
380,85,96030,6,0,L|303:78,1,61.6250018806458,2|0,1:2|0:0,0:0:0:0:
161,180,96400,2,0,L|238:173,1,61.6250018806458,2|0,1:2|0:0,0:0:0:0:
423,302,96769,1,12,0:3:0:0:
305,285,96954,1,2,0:0:0:0:
65,162,97323,1,2,0:2:0:0:
111,76,97509,6,0,P|157:129|141:222,1,123.250003761292,6|0,1:2|1:0,0:0:0:0:
45,356,98247,2,0,P|52:295|94:252,1,123.250003761292,12|2,0:3|0:2,0:0:0:0:
240,250,98801,1,8,0:0:0:0:
365,289,98986,1,2,1:2:0:0:
160,179,99170,1,2,0:2:0:0:
13,214,99355,1,2,1:2:0:0:
251,348,99724,5,10,0:2:0:0:
382,307,99909,1,10,0:2:0:0:
497,134,100094,1,2,1:2:0:0:
346,176,100278,1,0,1:0:0:0:
450,384,100464,6,0,P|486:314|412:206,1,184.875005641937,4|0,1:2|0:0,0:0:0:0:
256,154,101204,1,8,0:0:0:0:
404,74,101389,1,8,0:0:0:0:
382,307,101575,1,0,1:0:0:0:
390,323,101945,6,0,P|311:303|251:331,1,127.500004863739,4|10,1:2|0:2,0:0:0:0:
34,141,103426,5,2,0:2:0:0:
116,109,103611,1,2,0:2:0:0:
224,178,103796,1,2,1:2:0:0:
121,23,104166,1,8,0:0:0:0:
69,221,104536,1,2,0:2:0:0:
53,303,104722,1,2,0:2:0:0:
194,384,104907,2,0,P|230:384|272:366,1,63.7500024318696,2|2,1:2|0:2,0:0:0:0:
412,258,105647,2,0,P|442:248|474:249,1,63.7500024318696,10|2,0:2|0:2,0:0:0:0:
371,362,106388,5,2,0:2:0:0:
351,327,106573,1,8,0:0:0:0:
342,230,106758,1,2,1:2:0:0:
493,270,107129,1,10,0:2:0:0:
464,126,107499,1,2,0:2:0:0:
453,98,107684,1,0,0:0:0:0:
395,21,107869,1,2,1:2:0:0:
262,84,108241,1,2,0:2:0:0:
304,93,108427,1,2,0:2:0:0:
205,199,108613,2,0,L|137:203,1,63.7500024318696,8|2,0:0|0:2,0:0:0:0:
63,102,109356,5,2,0:2:0:0:
25,114,109542,1,2,0:2:0:0:
132,17,109728,2,0,L|200:21,1,63.7500024318696,0|10,1:0|0:2,0:0:0:0:
338,122,110472,1,2,0:2:0:0:
374,116,110658,1,2,0:2:0:0:
444,240,110844,2,0,P|435:209|431:175,1,63.7500024318696,2|2,1:2|0:2,0:0:0:0:
512,281,111585,2,0,P|503:312|499:346,1,63.7500024318696,10|2,0:2|0:2,0:0:0:0:
358,277,112327,6,0,L|347:230,1,31.8750012159348,2|0,0:2|0:0,0:0:0:0:
284,322,112698,2,0,L|261:279,1,31.8750012159348,2|0,1:2|0:0,0:0:0:0:
224,384,113068,2,0,L|190:348,1,31.8750012159348,10|0,0:2|0:0,0:0:0:0:
93,332,113439,2,0,L|146:323,1,31.8750012159348,2|0,0:2|0:0,0:0:0:0:
210,232,113810,1,2,1:2:0:0:
62,128,114178,1,2,0:2:0:0:
44,162,114362,1,2,0:2:0:0:
124,253,114546,2,0,P|127:212|119:182,1,63.7500024318696,10|2,0:2|0:2,0:0:0:0:
269,44,115282,5,2,0:2:0:0:
287,78,115466,1,2,0:2:0:0:
220,226,115650,2,0,P|217:185|225:155,1,63.7500024318696,2|10,1:2|0:2,0:0:0:0:
38,13,116386,5,2,0:2:0:0:
86,75,116570,1,2,0:2:0:0:
32,150,116754,2,0,L|37:197,1,31.8750012159348,2|0,1:2|0:0,0:0:0:0:
115,275,117124,1,2,0:2:0:0:
118,194,117309,1,2,0:2:0:0:
31,261,117495,1,10,0:2:0:0:
117,296,117680,1,2,0:2:0:0:
197,250,117865,2,0,L|245:244,1,31.8750012159348,2|0,0:2|0:0,0:0:0:0:
315,192,118236,6,0,L|283:188,1,31.8750012159348,2|0,0:2|0:0,0:0:0:0:
372,131,118606,2,0,L|342:118,1,31.8750012159348,2|0,1:2|0:0,0:0:0:0:
442,86,118977,2,0,L|416:66,1,31.8750012159348,10|2,0:2|0:2,0:0:0:0:
311,36,119348,2,0,L|355:33,1,31.8750012159348,2|0,0:2|0:0,0:0:0:0:
342,118,119718,1,2,1:2:0:0:
219,40,120088,1,2,0:2:0:0:
149,153,120458,2,0,L|161:195,1,31.8750012159348,10|0,0:2|0:0,0:0:0:0:
234,248,120829,1,2,0:2:0:0:
249,216,121014,1,2,0:2:0:0:
330,370,121199,6,0,P|375:374|404:367,1,63.7500024318696,2|2,0:2|1:2,0:0:0:0:
240,354,121940,2,0,P|208:349|177:353,1,63.7500024318696,10|2,0:2|0:2,0:0:0:0:
39,281,122680,2,0,L|57:329,1,31.8750012159348,2|0,1:2|0:0,0:0:0:0:
114,225,123050,2,0,L|118:276,1,31.8750012159348,2|0,0:2|0:0,0:0:0:0:
200,190,123421,2,0,L|191:240,1,31.8750012159348,10|0,0:2|0:0,0:0:0:0:
292,178,123792,2,0,L|270:224,1,31.8750012159348,2|0,0:2|0:0,0:0:0:0:
171,321,124163,5,2,0:2:0:0:
114,225,124348,1,8,0:0:0:0:
199,79,124534,2,0,L|248:76,1,31.8750012159348,2|0,1:2|0:0,0:0:0:0:
427,167,124904,1,10,0:2:0:0:
331,281,125090,1,8,0:0:0:0:
349,75,125275,1,2,1:2:0:0:
466,244,125647,6,0,P|476:285|444:371,1,127.5,2|0,1:2|0:0,0:0:0:0:
450,229,126386,1,10,0:2:0:0:
205,174,126940,1,2,0:2:0:0:
257,112,127125,6,0,P|231:169|240:231,1,127.5,2|0,1:2|0:0,0:0:0:0:
275,97,127864,2,0,B|216:77|216:77|141:87,1,127.5,10|0,0:2|0:0,0:0:0:0:
80,201,128604,2,0,P|75:123|32:46,1,127.5,2|0,1:2|0:0,0:0:0:0:
100,275,129351,2,0,P|105:197|148:120,1,127.5,2|0,1:2|0:0,0:0:0:0:
58,343,130098,1,2,1:2:0:0:
55,78,130471,1,0,1:0:0:0:
214,282,130845,2,0,B|273:302|273:302|348:292,1,127.5,10|0,0:2|0:0,0:0:0:0:
449,192,131592,6,0,P|428:232|441:349,1,127.5,6|2,1:2|0:2,0:0:0:0:
386,239,132330,2,0,P|388:175|362:118,1,127.5,10|0,0:2|0:0,0:0:0:0:
326,45,133068,6,0,B|370:38|370:38|440:69,1,85,2|0,1:2|1:0,0:0:0:0:
480,116,133807,2,0,P|422:96|348:131,1,127.5,10|0,0:2|0:0,0:0:0:0:
436,285,134547,2,0,B|459:235|447:189|447:189|430:217,1,127.5,2|0,1:2|0:0,0:0:0:0:
364,317,135278,2,0,P|398:355|456:361,1,85,8|10,0:0|0:2,0:0:0:0:
436,285,135827,1,8,0:0:0:0:
293,356,136010,5,2,1:2:0:0:
171,298,136193,1,0,0:0:0:0:
353,232,136376,1,10,0:2:0:0:
68,272,136743,5,10,0:2:0:0:
190,214,136927,1,10,0:2:0:0:
8,148,137110,1,2,1:2:0:0:
98,187,137294,1,0,1:0:0:0:
243,129,137478,6,0,P|285:117|307:118,1,42.5,4|0,1:2|0:0,0:0:0:0:
395,81,137850,2,0,P|353:69|331:70,1,42.5,2|0,0:2|0:0,0:0:0:0:
146,21,138222,6,0,L|161:110,1,61.6250018806458,10|0,0:2|0:0,0:0:0:0:
243,217,138595,1,2,0:2:0:0:
192,301,138781,1,0,0:0:0:0:
9,146,138967,6,0,B|56:123|123:135|93:166|152:180|205:160,1,184.875005641937,2|0,1:2|0:0,0:0:0:0:
333,49,139712,1,10,0:2:0:0:
427,72,139898,1,2,0:2:0:0:
227,92,140085,2,0,P|181:84|135:89,1,61.6250018806458,2|0,0:2|0:0,0:0:0:0:
245,223,140457,6,0,P|317:224|385:193,1,123.250003761292,4|0,1:2|0:0,0:0:0:0:
476,136,141200,2,0,P|458:171|451:194,1,61.6250018806458,10|0,0:2|0:0,0:0:0:0:
453,321,141572,2,0,P|431:287|415:270,1,61.6250018806458,2|0,0:2|0:0,0:0:0:0:
292,137,141943,5,2,1:2:0:0:
108,177,142129,1,0,0:0:0:0:
65,267,142315,1,2,1:2:0:0:
356,231,142687,5,10,0:2:0:0:
253,217,142873,1,2,0:2:0:0:
170,16,143059,2,0,P|192:49|200:69,1,61.6250018806458,2|0,0:2|0:0,0:0:0:0:
121,195,143430,2,0,P|106:129|131:53,1,123.250003761292,2|2,1:2|0:2,0:0:0:0:
201,136,143985,1,2,0:2:0:0:
86,284,144170,2,0,L|158:277,1,61.6250018806458,10|0,0:2|0:0,0:0:0:0:
259,336,144541,1,2,0:2:0:0:
493,205,144726,6,0,P|452:209|392:77,1,184.875005641937,2|0,0:2|0:0,0:0:0:0:
427,0,145467,1,2,0:2:0:0:
300,107,145652,1,10,0:2:0:0:
470,66,145837,2,0,L|463:132,1,61.6250018806458,2|2,0:2|0:2,0:0:0:0:
355,277,146207,1,2,0:2:0:0:
167,214,146393,6,0,P|225:194|312:218,1,123.250003761292,2|0,1:2|0:0,0:0:0:0:
149,243,146946,1,2,0:2:0:0:
47,139,147131,2,0,P|35:74|56:13,1,123.250003761292,10|0,0:2|0:0,0:0:0:0:
405,222,147869,6,0,P|409:259|390:321,1,61.6250018806458,2|0,1:2|0:0,0:0:0:0:
346,354,148238,1,2,1:2:0:0:
280,109,148607,1,10,0:2:0:0:
357,21,148791,1,2,0:2:0:0:
490,216,148976,1,10,0:2:0:0:
370,146,149160,1,8,0:0:0:0:
189,298,149345,6,0,L|271:289,1,61.6250018806458,6|0,1:2|0:0,0:0:0:0:
134,94,149716,2,0,L|52:85,1,61.6250018806458,2|0,0:2|0:0,0:0:0:0:
209,24,150087,2,0,P|232:91|195:180,1,123.250003761292,10|2,0:2|0:2,0:0:0:0:
62,208,150829,6,0,B|127:181|174:203|159:225|211:251|284:211,1,184.875005641937,2|2,1:2|0:2,0:0:0:0:
359,151,151571,1,10,0:2:0:0:
446,175,151756,1,2,0:2:0:0:
372,301,151942,2,0,P|314:279|288:283,1,61.6250018806458,2|0,0:2|0:0,0:0:0:0:
166,263,152313,1,2,1:2:0:0:
231,327,152498,1,2,0:2:0:0:
308,186,152683,2,0,P|281:202|251:207,1,61.6250018806458,2|0,0:2|0:0,0:0:0:0:
393,191,153053,2,0,P|385:220|368:246,1,61.6250018806458,10|0,0:2|0:0,0:0:0:0:
456,134,153423,2,0,P|472:160|477:190,1,61.6250018806458,2|0,0:2|0:0,0:0:0:0:
265,104,153793,5,2,1:2:0:0:
357,81,153978,1,8,0:0:0:0:
133,21,154163,1,2,1:2:0:0:
192,187,154533,5,10,0:2:0:0:
284,210,154718,1,2,0:2:0:0:
69,264,154903,1,2,0:2:0:0:
328,108,155274,6,0,P|384:177|392:234,1,123.250003761292,2|2,1:2|0:2,0:0:0:0:
511,6,156018,2,0,P|455:75|447:132,1,123.250003761292,10|2,0:2|0:2,0:0:0:0:
487,196,156576,1,2,0:2:0:0:
341,284,156762,6,0,P|268:272|208:288,1,123.250003761292,2|0,1:2|1:0,0:0:0:0:
86,331,157320,1,2,0:2:0:0:
156,159,157506,2,0,P|162:206|155:233,1,61.6250018806458,10|0,0:2|0:0,0:0:0:0:
25,152,157878,2,0,P|62:123|89:115,1,61.6250018806458,2|0,0:2|0:0,0:0:0:0:
278,88,158251,2,0,L|154:77,1,123.250003761292,2|2,1:2|0:2,0:0:0:0:
201,173,158804,1,0,0:0:0:0:
358,62,158989,2,0,L|482:51,1,123.250003761292,10|0,0:2|0:0,0:0:0:0:
99,2,159727,5,2,1:2:0:0:
62,76,159912,1,8,0:0:0:0:
148,173,160097,2,0,L|139:107,1,61.6250018806458,2|0,1:2|0:0,0:0:0:0:
366,0,160466,2,0,L|357:66,1,61.6250018806458,10|0,0:2|0:0,0:0:0:0:
287,273,160835,2,0,L|278:207,1,61.6250018806458,2|0,0:2|0:0,0:0:0:0:
512,333,161205,6,0,P|476:342|430:329,1,61.6250018806458,4|0,0:0|0:0,0:0:0:0:
250,132,161574,2,2,P|280:129|309:137,1,61.6250018806458,2|2,1:2|0:2,0:2:0:0:
48,320,161943,1,12,0:3:0:0:
155,155,162312,1,2,0:2:0:0:
199,231,162497,1,2,0:2:0:0:
68,146,162682,6,0,L|73:60,1,61.6250018806458,2|0,1:2|0:0,0:0:0:0:
255,291,163051,2,0,L|260:377,1,61.6250018806458,2|0,1:2|0:0,0:0:0:0:
442,146,163420,1,12,0:3:0:0:
232,18,163790,1,2,0:2:0:0:
183,91,163974,1,2,0:2:0:0:
415,50,164160,6,0,P|363:42|340:47,1,61.6250018806458,2|0,1:2|0:0,0:0:0:0:
230,257,164529,2,0,P|260:258|290:250,1,61.6250018806458,2|0,1:2|0:0,0:0:0:0:
86,52,164899,1,12,0:3:0:0:
140,265,165269,1,2,0:2:0:0:
191,194,165454,1,2,0:2:0:0:
46,174,165639,6,0,L|65:267,1,61.6250018806458,2|0,1:2|0:0,0:0:0:0:
283,140,166009,2,0,L|264:233,1,61.6250018806458,2|2,1:2|0:2,0:0:0:0:
491,126,166379,1,12,0:3:0:0:
510,205,166564,1,2,0:2:0:0:
231,327,166934,1,2,0:2:0:0:
180,263,167119,6,0,P|234:246|283:260,1,61.6250018806458,2|0,1:2|0:0,0:0:0:0:
362,330,167493,2,0,P|337:313|319:289,1,61.6250018806458,2|0,1:2|0:0,0:0:0:0:
331,139,167868,2,0,P|318:194|282:229,1,61.6250018806458,12|0,0:3|0:0,0:0:0:0:
96,218,168243,1,2,0:2:0:0:
233,79,168618,5,6,1:2:0:0:
208,175,168987,1,2,0:2:0:0:
450,324,169357,1,2,0:2:0:0:
431,242,169542,1,2,0:2:0:0:
260,288,169727,2,0,P|293:358|306:253,1,246.500007522583,2|8,0:2|0:0,0:0:0:0:
136,158,171020,1,0,1:0:0:0:
47,185,171205,1,0,1:0:0:0:
276,46,171575,5,6,1:2:0:0:
417,132,171943,1,2,0:2:0:0:
349,205,172127,1,2,0:2:0:0:
505,241,172311,1,10,0:2:0:0:
300,128,172679,1,2,0:2:0:0:
270,139,172863,1,2,0:2:0:0:
127,61,173231,1,2,0:2:0:0:
165,67,173415,1,2,0:2:0:0:
30,233,173783,1,10,0:2:0:0:
229,215,174151,1,2,0:2:0:0:
268,225,174335,1,2,0:2:0:0:
247,332,174520,6,0,P|236:270|243:226,1,85,2|2,1:2|0:2,0:0:0:0:
137,98,175265,2,0,P|137:140|127:181,1,85,10|2,0:2|0:2,0:0:0:0:
61,263,175825,2,0,L|123:256,1,42.5,2|2,1:2|1:2,0:0:0:0:
212,174,176198,1,2,1:2:0:0:
249,180,176384,1,2,1:2:0:0:
411,93,176757,2,0,L|335:106,1,42.5,10|0,0:2|0:0,0:0:0:0:
264,37,177130,2,0,L|305:44,1,42.5,2|0,1:2|0:0,0:0:0:0:
472,161,177503,5,2,1:2:0:0:
425,277,177871,2,0,P|417:249|415:222,1,42.5,2|2,1:2|0:2,0:0:0:0:
344,162,178240,2,0,P|337:206|317:233,1,42.5,10|0,0:2|0:0,0:0:0:0:
263,272,178609,1,2,1:2:0:0:
218,256,178794,1,2,1:2:0:0:
156,198,178978,2,0,L|68:212,1,85,2|2,1:2|1:2,0:0:0:0:
127,329,179716,2,0,L|168:335,1,42.5,10|0,0:2|0:0,0:0:0:0:
244,362,180085,1,2,1:2:0:0:
317,317,180269,6,0,L|407:304,1,85.5,2|2,0:2|0:2,0:0:0:0:
328,125,180827,1,2,1:2:0:0:
284,133,181013,2,0,L|193:146,1,85,2|2,0:2|0:2,0:0:0:0:
384,220,181573,5,2,1:2:0:0:
393,177,181759,1,2,1:2:0:0:
205,232,181946,1,2,1:2:0:0:
213,273,182132,1,2,1:2:0:0:
282,147,182319,1,2,1:2:0:0:
45,294,182692,5,10,0:2:0:0:
380,354,183065,1,2,1:2:0:0:
340,277,183251,1,10,0:2:0:0:
220,357,183438,6,0,L|212:271,1,85,4|2,1:2|1:2,0:0:0:0:
143,120,184175,2,0,L|122:179,1,42.5,10|0,0:2|0:0,0:0:0:0:
205,56,184544,1,2,1:2:0:0:
222,91,184728,1,2,1:2:0:0:
105,284,184913,1,2,1:2:0:0:
468,254,185281,1,2,1:2:0:0:
236,111,186387,6,0,P|175:89|101:99,1,127.5,2|2,0:2|0:2,0:0:0:0:
283,43,187138,2,0,P|222:65|148:55,1,127.5,2|2,0:2|0:2,0:0:0:0:
330,111,187890,2,0,P|269:89|195:99,1,127.5,2|2,0:2|0:2,0:0:0:0:
398,58,188642,1,2,0:2:0:0:
384,15,188830,1,2,0:2:0:0:
211,164,189206,1,2,0:2:0:0:
219,197,189394,6,0,P|228:235|229:273,1,55.2499974708558,2|2,0:2|0:2,0:0:0:0:
438,369,190131,2,0,P|440:326|448:295,1,55.2499974708558,2|2,0:2|0:2,0:0:0:0:
473,187,190869,2,0,P|423:195|401:210,1,55.2499974708558,2|2,0:2|0:2,0:0:0:0:
287,102,191607,6,0,P|327:106|359:123,1,55.2499974708558,2|2,0:2|0:2,0:0:0:0:
306,308,192345,2,0,P|308:225|300:194,1,110.499994941712,2|0,0:2|0:0,0:0:0:0:
445,27,193824,2,0,P|443:110|451:141,1,110.499994941712,2|0,0:2|0:0,0:0:0:0:
29,104,195305,6,0,B|97:63|178:90|144:130|222:151|300:102,1,276.249987354279,2|0,0:2|0:0,0:0:0:0:
151,271,198254,6,0,P|106:259|51:268,1,93.5000028533936,2|2,0:2|0:2,0:0:0:0:
279,370,199741,2,0,P|321:381|363:370,1,70.1250021400452,2|0,0:2|0:0,0:0:0:0:
407,323,200446,2,0,L|400:280,1,23.3750007133484,2|2,0:2|0:2,0:0:0:0:
340,239,200874,1,2,0:2:0:0:
412,158,201088,2,0,P|417:116|361:142,1,115.5,2|0,0:2|0:2,0:0:0:0:
98,34,202695,6,0,P|114:72|115:133,1,93.5000028533936,2|2,0:2|0:2,0:0:0:0:
26,315,204196,2,0,P|59:303|110:308,1,70.1250021400452,2|2,0:2|0:2,0:0:0:0:
216,361,205122,1,2,0:2:0:0:
291,248,205493,2,0,P|355:243|388:255,1,93.5000028533936,2|2,0:2|0:2,0:0:0:0:
469,305,206419,2,0,L|462:275,1,23.3750007133484,2|2,0:2|0:2,0:0:0:0:
328,88,207161,2,0,P|283:80|261:79,1,46.7500014266968,2|0,0:2|0:0,0:0:0:0:
200,107,207713,5,2,0:2:0:0:
143,169,207898,2,0,P|180:156|238:162,1,93.5000028533936,2|2,0:2|0:0,0:0:0:0:
453,220,210110,5,0,1:0:0:0:
330,310,210290,1,0,1:0:0:0:
290,57,210651,1,0,1:0:0:0:
172,162,210832,5,8,0:0:0:0:
98,200,210952,1,8,0:0:0:0:
23,168,211072,1,8,0:0:0:0:
0,88,211193,1,8,0:0:0:0:
48,21,211313,1,8,0:0:0:0:
129,17,211433,1,8,0:0:0:0:
95,103,211554,6,0,L|87:260,1,127.5,6|0,1:3|0:0,0:0:0:0:
373,36,213052,2,0,P|426:40|484:61,1,95.6250036478044,6|0,1:3|0:0,0:0:0:0:
295,188,213801,2,0,P|242:192|184:213,1,95.6250036478044,6|2,1:3|0:2,0:0:0:0:
424,294,214551,6,0,L|429:192,1,72.2500013780594,4|0,1:2|0:0,0:0:0:0:
261,287,214920,2,0,L|266:389,1,72.2500013780594,2|0,0:2|0:0,0:0:0:0:
432,124,215289,1,10,0:2:0:0:
321,147,215473,1,0,0:0:0:0:
119,29,215658,1,2,0:2:0:0:
224,55,215842,1,0,0:0:0:0:
42,189,216027,1,2,1:2:0:0:
45,91,216211,1,0,0:0:0:0:
128,257,216396,2,0,L|217:248,1,72.2500013780594,2|2,1:2|0:2,0:0:0:0:
321,147,216765,2,0,L|232:138,1,72.2500013780594,10|0,0:2|0:0,0:0:0:0:
394,334,217318,1,2,0:2:0:0:
473,273,217503,6,0,P|397:237|325:263,1,144.500002756119,2|2,1:2|0:2,0:0:0:0:
117,161,218243,2,0,P|186:173|248:139,1,144.500002756119,10|2,0:2|0:2,0:0:0:0:
325,46,218799,1,2,0:2:0:0:
493,156,218984,6,0,P|424:137|347:141,1,144.500002756119,2|0,1:2|1:0,0:0:0:0:
245,212,219540,1,2,0:2:0:0:
333,278,219725,1,10,0:2:0:0:
508,183,219910,1,2,0:2:0:0:
252,111,220280,1,2,0:2:0:0:
105,233,220465,6,0,P|184:207|255:214,1,144.500002756119,2|2,1:2|0:2,0:0:0:0:
361,117,221017,1,2,0:2:0:0:
166,22,221201,2,0,P|148:93|158:140,1,72.2500013780594,10|0,0:2|0:0,0:0:0:0:
197,271,221569,1,8,0:0:0:0:
285,75,221754,1,8,0:0:0:0:
400,297,221938,2,0,P|395:261|381:227,1,72.2500013780594,2|2,1:2|0:2,0:0:0:0:
141,160,222306,1,2,1:2:0:0:
392,95,222490,1,0,1:0:0:0:
222,323,222674,2,0,P|167:311|124:321,1,72.2500013780594,10|0,0:2|0:0,0:0:0:0:
381,227,223043,2,0,P|436:215|479:225,1,72.2500013780594,2|0,0:2|0:0,0:0:0:0:
249,51,223411,6,0,L|263:196,1,144.500002756119,6|2,1:2|0:2,0:0:0:0:
356,344,223979,1,2,0:2:0:0:
381,227,224168,1,10,0:2:0:0:
159,127,224357,1,0,0:0:0:0:
194,212,224547,2,0,P|219:200|279:197,1,72.2500013780594,2|0,0:2|0:0,0:0:0:0:
169,312,224927,6,0,L|5:308,1,144.500002756119,2|0,1:2|1:0,0:0:0:0:
103,225,225471,1,2,0:2:0:0:
185,330,225652,1,10,0:2:0:0:
282,250,225833,1,2,0:2:0:0:
350,349,226015,2,0,P|379:351|429:340,1,72.2500013780594,2|2,0:2|0:2,0:0:0:0:
242,79,226375,6,0,P|225:103|210:151,1,72.2500013780594,2|0,1:2|0:0,0:0:0:0:
304,222,226747,2,0,L|308:144,1,72.2500013780594,2|0,0:2|0:0,0:0:0:0:
122,25,227119,2,0,L|126:103,1,72.2500013780594,10|0,0:2|0:0,0:0:0:0:
7,274,227491,1,2,0:2:0:0:
215,176,227677,1,2,0:2:0:0:
32,109,227863,2,0,P|21:149|29:200,1,72.2500013780594,2|0,1:2|0:0,0:0:0:0:
231,357,228236,2,0,P|271:346|311:314,1,72.2500013780594,2|0,1:2|0:0,0:0:0:0:
347,61,228608,2,0,P|317:31|269:12,1,72.2500013780594,10|0,0:2|0:0,0:0:0:0:
215,176,228980,1,2,0:2:0:0:
433,165,229166,1,2,0:2:0:0:
199,281,229352,6,0,L|79:271,1,72.2500013780594,2|2,1:2|0:2,0:0:0:0:
23,166,229721,1,2,0:2:0:0:
226,91,229906,1,2,0:2:0:0:
37,1,230091,2,0,P|26:49|21:93,1,72.2500013780594,10|0,0:2|0:0,0:0:0:0:
126,274,230461,2,0,P|115:226|110:182,1,72.2500013780594,2|2,0:2|0:2,0:0:0:0:
294,40,230830,6,0,L|395:48,1,72.2500013780594,2|0,1:2|0:0,0:0:0:0:
471,266,231200,2,0,L|370:274,1,72.2500013780594,2|2,1:2|0:2,0:0:0:0:
208,172,231570,1,10,0:2:0:0:
424,107,231754,2,0,P|424:153|417:195,1,72.2500013780594,2|0,0:2|0:0,0:0:0:0:
327,329,232124,1,2,0:2:0:0:
132,244,232310,6,0,P|39:219|-31:250,1,144.500002756119,2|2,1:2|0:2,0:0:0:0:
166,340,232865,1,2,0:2:0:0:
294,205,233050,2,0,P|387:180|457:211,1,144.500002756119,10|2,0:2|0:2,0:2:0:0:
100,29,233790,6,0,P|115:96|126:153,1,72.2500013780594,2|8,1:2|0:0,0:0:0:0:
6,253,234160,2,0,P|45:245|91:243,1,72.2500013780594,2|0,1:2|0:0,0:0:0:0:
326,329,234530,2,0,P|286:322|241:319,1,72.2500013780594,10|0,0:2|0:0,0:0:0:0:
383,122,234900,1,10,0:2:0:0:
488,258,235086,1,10,0:2:0:0:
193,193,235271,6,0,P|185:152|189:111,1,72.2500013780594,2|0,1:2|0:0,0:0:0:0:
326,329,235643,1,2,1:2:0:0:
425,31,236016,2,0,P|393:19|353:22,1,72.2500013780594,12|0,0:3|0:0,0:0:0:0:
271,153,236389,1,2,0:2:0:0:
383,122,236576,1,2,0:2:0:0:
136,57,236762,6,0,P|177:49|218:53,1,72.2500013780594,2|0,1:2|0:0,0:0:0:0:
0,190,237135,1,2,1:2:0:0:
298,289,237508,2,0,P|310:257|306:217,1,72.2500013780594,12|0,0:3|0:0,0:0:0:0:
202,129,237881,1,2,0:2:0:0:
168,208,238067,1,2,0:2:0:0:
274,379,238254,6,0,L|370:369,1,72.2500013780594,2|0,1:2|0:0,0:0:0:0:
124,298,238622,2,0,L|28:288,1,72.2500013780594,2|0,1:2|0:0,0:0:0:0:
264,181,238991,2,0,L|243:278,1,72.2500013780594,12|0,0:3|0:0,0:0:0:0:
451,351,239360,1,2,0:2:0:0:
429,243,239544,1,2,0:2:0:0:
296,91,239729,6,0,P|251:84|209:97,1,72.2500013780594,2|0,1:2|0:0,0:0:0:0:
71,194,240097,1,2,1:2:0:0:
160,287,240282,1,0,0:0:0:0:
301,287,240466,1,12,0:3:0:0:
123,384,240651,1,2,0:2:0:0:
177,129,241019,1,2,0:2:0:0:
36,66,241204,6,0,L|123:55,1,72.2500013780594,6|0,1:2|0:0,0:0:0:0:
327,198,241573,2,0,L|255:188,1,72.2500013780594,2|0,1:2|0:0,0:0:0:0:
43,316,241943,2,0,L|130:305,1,72.2500013780594,12|0,0:3|0:0,0:0:0:0:
288,349,242313,1,2,0:2:0:0:
427,292,242498,1,2,0:2:0:0:
327,198,242683,6,0,P|326:234|330:279,1,72.2500013780594,2|2,1:2|0:2,0:0:0:0:
503,225,243053,2,0,P|504:189|500:144,1,72.2500013780594,2|0,1:2|0:0,0:0:0:0:
346,48,243423,2,0,P|279:28|206:54,1,144.500002756119,12|2,0:3|0:2,0:0:0:0:
0,118,244164,6,0,P|67:98|140:124,1,144.500002756119,2|2,1:2|1:2,0:0:0:0:
288,228,244723,1,2,0:2:0:0:
202,312,244909,2,0,L|186:231,1,72.2500013780594,12|2,0:3|0:2,0:0:0:0:
305,130,245282,1,2,0:2:0:0:
391,162,245468,1,2,0:2:0:0:
392,357,245654,2,0,L|376:276,1,72.2500013780594,2|2,1:2|0:2,0:0:0:0:
495,142,246027,2,0,L|480:212,1,72.2500013780594,2|0,1:2|0:0,0:0:0:0:
225,90,246400,1,12,0:3:0:0:
355,62,246586,1,2,0:2:0:0:
146,3,246772,1,10,0:2:0:0:
0,160,246959,1,8,0:0:0:0:
117,355,247146,6,0,P|137:288|133:201,1,144.500002756119,6|0,1:2|1:0,0:0:0:0:
217,13,247884,1,12,0:3:0:0:
365,162,248253,2,0,P|345:229|341:273,1,72.2500013780594,2|0,0:2|0:0,0:0:0:0:
462,382,248622,2,0,P|463:310|443:240,1,144.500002756119,2|0,1:2|1:0,0:0:0:0:
108,179,249361,2,0,P|179:180|249:160,1,144.500002756119,12|0,0:3|0:0,0:0:0:0:
360,36,249915,1,2,0:2:0:0:
327,366,250100,6,0,P|322:281|332:199,1,144.500002756119,2|0,1:2|1:0,0:0:0:0:
166,10,250839,2,0,P|171:95|165:135,1,72.2500013780594,12|2,0:3|0:2,0:0:0:0:
57,214,251209,1,2,0:2:0:0:
251,155,251393,1,2,0:2:0:0:
401,282,251578,1,2,1:2:0:0:
284,50,251763,1,2,0:2:0:0:
203,322,251948,1,2,1:2:0:0:
0,98,252318,2,0,P|97:83|141:98,1,144.500002756119,12|0,0:3|0:0,0:0:0:0:
228,207,252872,1,2,0:2:0:0:
400,156,253057,6,0,L|315:146,1,72.2500013780594,2|0,1:2|0:0,0:0:0:0:
84,284,253428,2,0,L|169:274,1,72.2500013780594,2|0,1:2|0:0,0:0:0:0:
451,377,253800,1,12,0:3:0:0:
255,103,254172,1,2,1:2:0:0:
61,377,254545,6,0,P|50:321|74:252,1,127.5,2|0,1:2|0:0,0:0:0:0:
174,199,255345,2,0,L|246:207,2,42.5,2|2|2,0:2|0:2|0:2,0:0:0:0:
256,192,255945,12,8,258213,0:0:0:0:
104,118,259010,6,0,P|171:113|209:123,1,85,6|0,1:2|1:0,0:0:0:0:
411,117,259745,2,0,P|344:112|306:122,1,85,0|0,1:0|1:0,0:0:0:0:
256,192,260480,1,0,1:0:0:0:
159,283,260848,2,0,L|148:228,1,42.5,2|0,1:0|0:0,0:0:0:0:
256,322,261215,2,0,L|256:265,1,42.5,2|0,1:0|0:0,0:0:0:0:
353,283,261583,2,0,L|364:228,1,42.5,2|0,1:0|0:0,0:0:0:0:
256,107,261951,6,0,L|256:225,1,85,6|0,1:0|1:0,0:0:0:0:
164,54,262689,1,0,1:0:0:0:
348,54,263058,1,0,1:0:0:0:
98,161,263427,1,0,1:0:0:0:
414,161,263796,2,0,P|450:156|470:155,1,42.5,2|0,1:0|0:0,0:0:0:0:
354,231,264165,2,0,P|331:202|320:185,1,42.5,2|0,1:0|0:0,0:0:0:0:
445,248,264534,2,0,P|431:281|422:299,1,42.5,2|0,1:0|0:0,0:0:0:0:
210,336,264903,5,6,1:0:0:0:
9,309,265273,1,0,1:0:0:0:
40,129,265644,1,0,1:0:0:0:
234,156,266014,1,0,1:0:0:0:
125,242,266385,1,0,1:0:0:0:
138,52,266755,6,0,L|146:106,1,42.5,2|0,1:0|0:0,0:0:0:0:
256,9,267126,2,0,L|256:65,1,42.5,2|0,1:0|0:0,0:0:0:0:
374,52,267497,2,0,L|366:106,1,42.5,2|0,1:0|0:0,0:0:0:0:
256,241,267867,6,0,L|256:127,1,85,6|0,1:0|1:0,0:0:0:0:
297,321,268607,2,0,P|248:331|196:314,1,85,0|0,1:0|1:0,0:0:0:0:
64,188,269346,1,0,1:0:0:0:
99,344,269716,2,0,L|105:281,1,42.5,2|0,1:0|0:0,0:0:0:0:
199,125,270086,2,0,L|205:188,1,42.5,2|0,1:0|0:0,0:0:0:0:
297,321,270455,2,0,L|303:258,1,42.5,2|0,1:0|0:0,0:0:0:0:
463,146,270826,6,0,P|425:167|378:175,1,85,6|0,1:0|1:0,0:0:0:0:
251,47,271566,2,0,P|292:55|329:75,1,85,0|0,1:0|1:0,0:0:0:0:
143,120,272306,1,0,1:0:0:0:
0,35,272676,2,0,P|21:35|51:36,1,42.5,2|0,1:0|0:0,0:0:0:0:
48,168,273046,2,0,P|37:149|23:123,1,42.5,2|0,1:0|0:0,0:0:0:0:
140,60,273416,2,0,P|129:78|113:103,1,42.5,2|0,1:0|0:0,0:0:0:0:
26,260,273787,5,6,1:0:0:0:
194,159,274156,1,0,1:0:0:0:
338,165,274526,1,0,1:0:0:0:
506,266,274896,1,0,1:0:0:0:
267,78,275266,1,0,1:0:0:0:
113,335,275636,2,0,L|104:275,1,42.5,2|0,1:0|0:0,0:0:0:0:
256,360,276006,2,0,L|256:298,1,42.5,2|0,1:0|0:0,0:0:0:0:
399,335,276376,2,0,L|408:275,1,42.5,2|0,1:0|0:0,0:0:0:0:
255,109,276746,6,0,L|255:233,1,85,6|0,1:0|1:0,0:0:0:0:
174,69,277489,1,0,1:0:0:0:
332,74,277860,1,0,1:0:0:0:
255,280,278232,1,0,1:0:0:0:
90,94,278604,2,0,L|99:157,1,42.5,2|0,1:0|0:0,0:0:0:0:
256,17,278975,2,0,L|256:79,1,42.5,2|0,1:0|0:0,0:0:0:0:
422,94,279347,2,0,L|413:157,1,42.5,2|0,1:0|0:0,0:0:0:0:
256,368,279719,5,6,1:0:0:0:
33,116,280471,2,0,P|97:100|123:106,1,85,2|0,0:0|0:0,0:0:0:0:
191,147,281034,1,2,0:0:0:0:
257,88,281222,2,0,P|296:72|338:75,1,85,2|0,0:0|0:0,0:0:0:0:
465,216,281974,6,0,L|460:315,1,85,2|0,0:0|0:0,0:0:0:0:
398,366,282537,1,0,0:0:0:0:
318,336,282725,2,0,L|219:341,1,85,2|0,0:0|0:0,0:0:0:0:
112,230,283480,2,0,P|161:265|174:295,1,85,2|0,0:0|0:0,0:0:0:0:
82,322,284047,1,0,0:0:0:0:
24,193,284236,6,0,L|17:84,1,85,2|0,0:0|0:0,0:0:0:0:
253,44,284992,2,0,L|246:153,1,85,2|0,0:0|0:0,0:0:0:0:
445,195,285558,2,0,L|440:158,1,21.25,2|0,0:0|0:0,0:0:0:0:
