osu file format v14

[General]
AudioFilename: Spell (TV Size).mp3
AudioLeadIn: 0
PreviewTime: 59405
Countdown: 0
SampleSet: Soft
StackLeniency: 0.7
Mode: 0
LetterboxInBreaks: 0
WidescreenStoryboard: 1

[Editor]
DistanceSpacing: 0.8
BeatDivisor: 4
GridSize: 8
TimelineZoom: 1

[Metadata]
Title:Spell
TitleUnicode:Spell
Artist:LAMA
ArtistUnicode:LAMA
Creator:Yahuri
Version:Normal
Source:NO.6
Tags:fursum ラマ shion nezumi anime atsuko asano あさの あつこ bones op opening tv size sony
BeatmapID:884052
BeatmapSetID:406860

[Difficulty]
HPDrainRate:3
CircleSize:3
OverallDifficulty:4
ApproachRate:5
SliderMultiplier:1.2
SliderTickRate:1

[Events]
//Background and Video events
0,0,"background.jpg",0,0
//Break Periods
//Storyboard Layer 0 (Background)
//Storyboard Layer 1 (Fail)
//Storyboard Layer 2 (Pass)
//Storyboard Layer 3 (Foreground)
//Storyboard Sound Samples

[TimingPoints]
732,408.163265306122,4,2,1,50,1,0
19915,-100,4,2,2,50,0,0
20323,-100,4,2,1,40,0,0
46038,-100,4,2,2,50,0,0
46446,-100,4,2,1,50,0,0
59099,-100,4,2,2,60,0,0
59507,-100,4,2,1,60,0,1
72466,-100,4,2,1,60,0,0
72568,-100,4,2,1,60,0,1
85629,-100,4,2,1,40,0,0
86446,-100,4,2,1,30,0,0
87262,-100,4,2,1,20,0,0
88078,-100,4,2,1,10,0,0
88691,-100,4,2,1,5,0,0

[Colours]
Combo1 : 208,208,208
Combo2 : 118,199,248
Combo3 : 84,103,158
Combo4 : 170,94,89

[HitObjects]
28,255,7262,6,0,P|80:224|152:242,1,120,6|8,0:0|0:0,0:0:0:0:
189,313,8078,2,0,P|249:334|319:301,1,120,2|8,0:0|0:0,0:0:0:0:
351,231,8895,1,2,0:0:0:0:
401,143,9303,2,0,B|416:86|416:86|401:22,2,120,8|2|8,0:0|0:0|0:0,0:0:0:0:
305,144,10527,6,0,B|177:132|220:233|91:229,1,240,2|2,0:0|0:0,0:0:0:0:
3,191,11752,1,8,0:0:0:0:
15,286,12160,2,0,P|68:322|147:308,1,120,2|8,0:0|0:0,0:0:0:0:
209,279,12976,1,2,0:0:0:0:
305,279,13385,1,8,0:0:0:0:
332,371,13793,6,0,L|485:371,1,120,2|8,0:0|0:0,0:0:0:0:
425,279,14609,2,0,L|295:279,1,120,2|8,0:0|0:0,0:0:0:0:
278,187,15425,1,2,0:0:0:0:
306,95,15834,2,0,P|377:93|432:151,2,120,8|2|8,0:0|0:0|0:0,0:0:0:0:
213,117,17058,6,0,B|185:170|185:170|202:289|202:289|175:357,1,240,2|2,0:0|0:0,0:0:0:0:
82,345,18283,1,8,0:0:0:0:
43,257,18691,1,2,0:0:0:0:
82,169,19099,6,0,L|47:29,2,120,8|2|8,0:0|0:0|0:0,0:0:0:0:
129,175,20119,1,8,0:0:0:0:
176,178,20323,6,0,P|232:160|276:121,1,120,2|0,0:0|0:0,0:0:0:0:
317,32,21140,2,0,L|457:67,1,120,2|0,0:0|0:0,0:0:0:0:
472,148,21956,2,0,B|489:205|489:205|465:285,1,120,2|0,0:0|0:0,0:0:0:0:
383,299,22772,2,0,P|329:273|270:274,1,120,2|0,0:0|0:0,0:0:0:0:
181,311,23589,1,2,0:0:0:0:
92,274,23997,6,0,P|42:180|145:85,1,240,0|0,0:0|0:0,0:0:0:0:
209,122,25221,1,2,0:0:0:0:
299,89,25629,1,0,0:0:0:0:
389,122,26038,2,0,L|422:247,1,120,2|0,0:0|0:0,0:0:0:0:
441,331,26854,6,0,B|380:328|380:328|309:373,1,120,2|0,0:0|0:0,0:0:0:0:
234,361,27670,2,0,L|112:336,1,120,2|0,0:0|0:0,0:0:0:0:
27,301,28487,2,0,P|0:249|8:189,1,120,2|0,0:0|0:0,0:0:0:0:
48,103,29303,2,0,L|165:78,1,120,2|0,0:0|0:0,0:0:0:0:
237,14,30119,1,2,0:0:0:0:
308,79,30527,6,0,B|345:109|388:117|388:117|400:175|400:175|446:191|479:218,1,240,0|0,0:0|0:0,0:0:0:0:
511,309,31752,1,2,0:0:0:0:
426,353,32160,1,0,0:0:0:0:
341,308,32568,2,0,P|282:295|219:312,1,120,2|0,0:0|0:0,0:0:0:0:
133,281,33385,6,0,L|83:157,1,120,2|0,0:0|0:0,0:0:0:0:
122,80,34201,2,0,P|181:77|233:49,1,120,2|0,0:0|0:0,0:0:0:0:
329,49,35017,2,0,L|453:99,1,120,2|0,0:0|0:0,0:0:0:0:
494,173,35834,2,0,P|507:231|492:288,1,120,2|0,0:0|0:0,0:0:0:0:
416,346,36650,1,2,0:0:0:0:
339,289,37058,6,0,B|216:251|237:358|112:328,1,240
40,264,38283,1,2,0:0:0:0:
113,202,38691,1,0,0:0:0:0:
41,138,39099,2,0,P|28:79|45:16,1,120,2|0,0:0|0:0,0:0:0:0:
137,22,39915,6,0,L|267:22,1,120,2|0,0:0|0:0,0:0:0:0:
284,114,40731,2,0,L|139:114,1,120,2|0,0:0|0:0,0:0:0:0:
139,207,41548,2,0,P|166:262|223:290,1,120,2|0,0:0|0:0,0:0:0:0:
312,288,42364,2,0,P|363:259|389:206,1,120,2|0,0:0|0:0,0:0:0:0:
366,112,43180,1,2,0:0:0:0:
277,75,43589,6,0,B|209:64|175:123|175:123|108:112|73:170,1,240
35,256,44813,1,2,0:0:0:0:
75,343,45221,2,0,L|199:343,1,120,0|2,0:0|0:0,0:0:0:0:
282,303,46038,2,8,L|354:303,1,60,8|8,0:0|0:0,0:0:0:0:
379,272,46446,6,0,P|430:234|443:158,1,120,2|0,0:0|0:0,0:0:0:0:
445,87,47262,2,0,B|321:87,1,120,2|0,0:0|0:0,0:0:0:0:
236,52,48078,2,0,B|112:52,1,120,2|0,0:0|0:0,0:0:0:0:
142,143,48895,2,0,P|157:200|138:256,1,120,2|0,0:0|0:0,0:0:0:0:
62,198,49711,1,2,0:0:0:0:
52,293,50119,6,0,B|74:335|113:345|113:345|275:345,1,240,0|0,0:0|0:0,0:0:0:0:
362,375,51344,1,2,0:0:0:0:
418,297,51752,1,0,0:0:0:0:
362,219,52160,1,2,0:0:0:0:
270,249,52568,1,0,0:0:0:0:
270,344,52976,6,0,P|211:343|164:306,1,120,2|0,0:0|0:0,0:0:0:0:
78,350,53793,2,0,P|49:298|57:240,1,120,2|0,0:0|0:0,0:0:0:0:
57,144,54609,2,0,P|49:85|78:34,1,120,2|0,0:0|0:0,0:0:0:0:
164,77,55426,2,0,P|210:40|269:39,1,120,2|0,0:0|0:0,0:0:0:0:
316,123,56242,5,2,0:0:0:0:
269,207,56650,1,0,0:0:0:0:
315,291,57058,2,0,P|361:327|420:328,1,120,2|0,0:0|0:0,0:0:0:0:
394,235,57874,6,0,B|412:116|412:116|528:147|528:147|484:259,1,360,6|8,0:0|0:0,0:0:0:0:
420,327,59507,6,0,P|361:327|315:291,1,120,6|8,0:0|0:0,0:0:0:0:
288,250,60119,1,2,0:0:0:0:
261,209,60323,2,0,P|214:173|146:176,1,120,2|8,0:0|0:0,0:0:0:0:
183,265,61140,2,0,B|186:326|186:326|140:396,1,120,2|8,0:0|0:0,0:0:0:0:
106,376,61752,1,2,0:0:0:0:
57,375,61956,2,0,B|25:326|25:326|29:265,1,120,2|8,0:0|0:0,0:0:0:0:
53,172,62772,6,0,L|69:109,1,60,2|2,0:0|0:0,0:0:0:0:
104,82,63180,2,0,B|147:85|147:85|178:101|178:101|231:104,1,120,8|2,0:0|0:0,0:0:0:0:
307,63,63997,1,8,0:0:0:0:
393,104,64405,2,0,B|436:100|436:100|467:84|467:84|520:81,2,120,2|8|2,0:0|0:0|0:0,0:0:0:0:
314,158,65629,1,8,0:0:0:0:
360,242,66038,6,0,P|301:252|248:226,1,120,2|8,0:0|0:0,0:0:0:0:
203,209,66650,1,2,0:0:0:0:
159,227,66854,2,0,P|105:252|47:242,1,120,2|8,0:0|0:0,0:0:0:0:
8,154,67670,2,0,L|23:24,1,120,2|8,0:0|0:0,0:0:0:0:
66,15,68283,1,2,0:0:0:0:
110,34,68487,2,0,L|123:153,1,120,2|8,0:0|0:0,0:0:0:0:
198,212,69303,6,0,L|260:195,1,60,2|2,0:0|0:0,0:0:0:0:
290,162,69711,2,0,B|306:103|306:103|362:83|362:83|401:129|401:129|386:187,1,240,8|8,0:0|0:0,0:0:0:0:
396,281,70936,2,0,B|437:278|437:278|468:262|468:262|512:258,2,120,2|8|2,0:0|0:0|0:0,0:0:0:0:
332,352,72160,1,8,0:0:0:0:
302,260,72568,6,0,B|253:225|253:225|225:231|193:225,1,120,6|8,0:0|0:0,0:0:0:0:
153,198,73180,1,2,0:0:0:0:
113,171,73385,2,0,B|81:164|53:171|53:171|4:136,1,120,2|8,0:0|0:0,0:0:0:0:
37,46,74201,2,0,B|98:42|98:42|168:88,1,120,2|8,0:0|0:0,0:0:0:0:
192,92,74813,1,2,0:0:0:0:
237,74,75017,2,0,B|286:42|286:42|347:45,1,120,2|8,0:0|0:0,0:0:0:0:
437,80,75834,6,0,L|453:142,1,60,2|2,0:0|0:0,0:0:0:0:
453,186,76242,2,0,B|449:229|449:229|433:260|433:260|430:313,1,120,8|2,0:0|0:0,0:0:0:0:
342,339,77058,1,8,0:0:0:0:
253,302,77466,2,0,B|209:298|209:298|178:282|178:282|125:279,2,120,2|8|2,0:0|0:0|0:0,0:0:0:0:
329,243,78691,1,8,0:0:0:0:
293,154,79099,6,0,B|265:146|233:151|233:151|207:131|181:123,1,120,2|8,0:0|0:0,0:0:0:0:
132,124,79711,1,2,0:0:0:0:
98,158,79915,2,0,B|90:185|95:217|95:217|75:243|67:269,1,120,2|8,0:0|0:0,0:0:0:0:
126,345,80731,6,0,P|185:350|236:320,1,120,2|8,0:0|0:0,0:0:0:0:
281,302,81343,1,2,0:0:0:0:
326,320,81547,2,0,P|376:349|435:344,1,120,2|8,0:0|0:0,0:0:0:0:
495,268,82364,6,0,L|478:205,1,60,2|2,0:0|0:0,0:0:0:0:
480,162,82772,2,0,B|495:104|495:104|456:58|456:58|400:78|400:78|384:137,1,240,8|8,0:0|0:0,0:0:0:0:
313,201,83997,2,0,B|285:214|285:214|226:214|226:214|197:200,2,120,2|8|2,0:0|0:0|0:0,0:0:0:0:
256,124,85221,1,8,0:0:0:0:
256,28,85629,5,0,0:0:0:0:
256,192,85834,12,0,88691,0:0:0:0:
