osu file format v14

[General]
AudioFilename: Spell (TV Size).mp3
AudioLeadIn: 0
PreviewTime: 59405
Countdown: 0
SampleSet: Soft
StackLeniency: 0.3
Mode: 0
LetterboxInBreaks: 0
WidescreenStoryboard: 1

[Editor]
DistanceSpacing: 1.5
BeatDivisor: 4
GridSize: 8
TimelineZoom: 1

[Metadata]
Title:Spell
TitleUnicode:Spell
Artist:LAMA
ArtistUnicode:LAMA
Creator:Yahuri
Version:Fursum's Hard
Source:NO.6
Tags:fursum ラマ shion nezumi anime atsuko asano あさの あつこ bones op opening tv size sony
BeatmapID:1393610
BeatmapSetID:406860

[Difficulty]
HPDrainRate:5
CircleSize:4
OverallDifficulty:6
ApproachRate:7
SliderMultiplier:1.6
SliderTickRate:1

[Events]
//Background and Video events
0,0,"background.jpg",0,0
//Break Periods
//Storyboard Layer 0 (Background)
//Storyboard Layer 1 (Fail)
//Storyboard Layer 2 (Pass)
//Storyboard Layer 3 (Foreground)
//Storyboard Sound Samples

[TimingPoints]
732,408.163265306122,4,2,1,50,1,0
7160,-100,4,2,1,5,0,0
7262,-100,4,2,1,50,0,0
19915,-100,4,2,2,50,0,0
20323,-100,4,2,1,40,0,0
46038,-100,4,2,2,50,0,0
46446,-100,4,2,1,50,0,0
58691,-90.9090909090909,4,2,1,50,0,0
59099,-100,4,2,2,60,0,0
59405,-100,4,2,2,5,0,0
59507,-90.9090909090909,4,2,1,60,0,1
72466,-90.9090909090909,4,2,1,60,0,0
72568,-90.9090909090909,4,2,1,60,0,1
85629,-100,4,2,1,40,0,0
86446,-100,4,2,1,30,0,0
87262,-100,4,2,1,20,0,0
88078,-100,4,2,1,10,0,0
88691,-100,4,2,1,5,0,0

[Colours]
Combo1 : 208,208,208
Combo2 : 118,199,248
Combo3 : 84,103,158
Combo4 : 170,94,89

[HitObjects]
126,130,732,6,0,P|169:106|284:134,1,160,0|0,0:0|0:0,0:0:0:0:
301,216,1344,1,0,0:0:0:0:
273,125,1548,2,0,L|253:37,1,80,0|0,0:0|0:0,0:0:0:0:
353,109,1956,2,0,L|333:21,1,80,0|0,0:0|0:0,0:0:0:0:
426,55,2364,6,0,P|465:94|483:137,1,80,0|0,0:0|0:0,0:0:0:0:
411,186,2772,2,0,P|425:239|419:285,1,80,0|0,0:0|0:0,0:0:0:0:
416,359,3180,2,0,P|363:330|314:326,1,80,0|0,0:0|0:0,0:0:0:0:
256,365,3589,2,0,P|263:314|252:267,1,80,0|0,0:0|0:0,0:0:0:0:
209,203,3997,6,0,P|275:191|309:208,1,80,0|0,0:0|0:0,0:0:0:0:
351,124,4405,2,0,P|294:95|255:92,1,80,0|0,0:0|0:0,0:0:0:0:
185,116,4813,2,0,L|201:28,1,80,0|0,0:0|0:0,0:0:0:0:
96,79,5221,2,0,L|110:157,1,80,0|0,0:0|0:0,0:0:0:0:
56,256,5629,6,0,B|110:241|110:241|215:250,1,160,0|0,0:0|0:0,0:0:0:0:
309,259,6242,1,0,0:0:0:0:
236,324,6446,2,0,P|217:290|214:250,1,80,0|0,0:0|0:0,0:0:0:0:
271,172,6854,6,0,B|322:159|322:159|397:198,1,120,0|0,0:0|0:0,0:0:0:0:
382,190,7262,6,0,L|376:72,1,80,6|2,0:0|0:0,0:0:0:0:
285,60,7670,1,8,0:0:0:0:
188,93,7874,1,2,0:0:0:0:
91,53,8078,2,0,L|86:132,1,80,2|0,0:0|0:0,0:0:0:0:
193,173,8487,2,0,L|188:93,1,80,8|0,0:0|0:0,0:0:0:0:
285,60,8895,1,2,0:0:0:0:
377,110,9099,1,2,0:0:0:0:
287,162,9303,6,0,B|282:193|282:193|286:274,1,80,8|2,0:0|0:0,0:0:0:0:
351,320,9711,2,0,B|320:315|320:315|239:319,1,80,2|0,0:0|0:0,0:0:0:0:
191,383,10119,2,0,B|196:352|196:352|192:271,1,80,8|0,0:0|0:0,0:0:0:0:
130,233,10527,6,0,B|182:256|182:256|300:239,1,160,2|8,0:0|0:0,0:0:0:0:
366,190,11140,1,2,0:0:0:0:
282,142,11344,2,0,L|191:154,2,80,2|0|8,0:0|0:0|0:0,0:0:0:0:
363,92,11956,1,0,0:0:0:0:
279,44,12160,6,0,L|188:56,1,80,2|2,0:0|0:0,0:0:0:0:
202,152,12568,2,0,L|111:164,1,80,8|2,0:0|0:0,0:0:0:0:
122,258,12976,2,0,L|213:270,1,80,2|0,0:0|0:0,0:0:0:0:
199,366,13384,2,0,L|290:378,1,80,8|0,0:0|0:0,0:0:0:0:
374,384,13793,6,0,B|351:343|351:343|336:220,1,160,2|8,0:0|0:0,0:0:0:0:
368,140,14405,1,2,0:0:0:0:
273,158,14609,2,0,P|210:150|180:139,1,80,2|0,0:0|0:0,0:0:0:0:
228,55,15017,2,0,P|267:57|306:68,1,80,8|0,0:0|0:0,0:0:0:0:
368,140,15425,1,2,0:0:0:0:
337,230,15629,1,2,0:0:0:0:
273,158,15834,6,0,B|242:153|242:153|161:157,1,80,8|2,0:0|0:0,0:0:0:0:
115,222,16242,2,0,B|120:191|120:191|116:110,1,80,2|0,0:0|0:0,0:0:0:0:
52,62,16650,2,0,B|83:67|83:67|164:63,1,80,8|0,0:0|0:0,0:0:0:0:
203,2,17058,6,0,B|179:54|179:54|196:172,1,160,2|8,0:0|0:0,0:0:0:0:
212,249,17670,1,2,0:0:0:0:
286,309,17874,2,0,L|372:324,2,80,2|0|8,0:0|0:0|0:0,0:0:0:0:
197,347,18487,1,0,0:0:0:0:
123,284,18691,2,0,L|44:270,1,80,2|2,0:0|0:0,0:0:0:0:
43,174,19099,6,0,P|74:149|112:138,1,80,8|2,0:0|0:0,0:0:0:0:
78,49,19507,2,0,P|117:44|156:53,1,80,2|0,0:0|0:0,0:0:0:0:
209,134,19915,1,8,0:0:0:0:
302,117,20119,1,8,0:0:0:0:
381,63,20323,6,0,L|423:162,2,80,2|2|0,0:0|0:0|0:0,0:0:0:0:
294,19,20936,1,2,0:0:0:0:
302,117,21140,2,0,L|315:298,1,160,2|0,0:0|0:0,0:0:0:0:
319,372,21752,1,0,0:0:0:0:
234,325,21956,6,0,P|173:345|77:328,1,160,2|0,0:0|0:0,0:0:0:0:
34,245,22568,1,2,0:0:0:0:
129,240,22772,2,0,P|176:242|215:220,2,80,2|0|0,0:0|0:0|0:0,0:0:0:0:
75,160,23385,1,0,0:0:0:0:
107,69,23589,6,0,L|193:41,2,80,2|2|0,0:0|0:0|0:0,0:0:0:0:
12,88,24201,1,2,0:0:0:0:
75,160,24405,2,0,L|258:157,1,160,2|0,0:0|0:0,0:0:0:0:
330,158,25017,1,0,0:0:0:0:
412,108,25221,6,0,P|379:76|338:62,1,80,2|2,0:0|0:0,0:0:0:0:
330,158,25629,2,0,P|363:190|404:204,1,80,0|2,0:0|0:0,0:0:0:0:
471,260,26038,2,0,P|488:220|486:172,2,80,2|0|0,0:0|0:0|0:0,0:0:0:0:
383,298,26650,1,0,0:0:0:0:
302,246,26854,6,0,L|215:222,2,80,2|2|0,0:0|0:0|0:0,0:0:0:0:
383,298,27466,1,2,0:0:0:0:
295,336,27670,2,0,L|125:336,1,160,2|0,0:0|0:0,0:0:0:0:
38,336,28283,1,0,0:0:0:0:
88,254,28487,6,0,P|76:192|104:94,1,160,2|0,0:0|0:0,0:0:0:0:
169,32,29099,1,2,0:0:0:0:
192,126,29303,2,0,P|171:186|183:220,2,80,2|0|0,0:0|0:0|0:0,0:0:0:0:
260,59,29915,1,0,0:0:0:0:
285,151,30119,6,0,P|318:172|364:179,1,80,2|2,0:0|0:0,0:0:0:0:
426,109,30527,2,0,P|393:88|347:81,1,80,0|2,0:0|0:0,0:0:0:0:
260,59,30936,2,0,P|202:103|199:187,1,160,2|0,0:0|0:0,0:0:0:0:
273,244,31548,1,0,0:0:0:0:
184,280,31752,6,0,L|91:281,2,80,2|2|0,0:0|0:0|0:0,0:0:0:0:
259,339,32364,1,2,0:0:0:0:
273,244,32568,2,0,L|352:243,2,80,2|0|0,0:0|0:0|0:0,0:0:0:0:
198,185,33180,1,0,0:0:0:0:
231,94,33385,6,0,L|268:-3,2,80,2|2|0,0:0|0:0|0:0,0:0:0:0:
136,111,33997,1,2,0:0:0:0:
198,185,34201,2,0,L|359:186,1,160,2|0,0:0|0:0,0:0:0:0:
445,227,34813,1,0,0:0:0:0:
443,131,35017,6,0,P|379:86|303:100,1,160,2|0,0:0|0:0,0:0:0:0:
214,136,35629,1,2,0:0:0:0:
217,39,35834,2,0,P|260:4|302:-4,2,80,2|0|0,0:0|0:0|0:0,0:0:0:0:
133,86,36446,1,0,0:0:0:0:
214,136,36650,6,0,L|286:188,1,80,2|2,0:0|0:0,0:0:0:0:
214,257,37058,2,0,L|149:210,1,80,0|2,0:0|0:0,0:0:0:0:
87,284,37466,2,0,L|216:377,1,160,2|0,0:0|0:0,0:0:0:0:
312,378,38078,1,0,0:0:0:0:
359,293,38283,6,0,P|370:251|355:213,1,80,2|2,0:0|0:0,0:0:0:0:
262,221,38691,2,0,P|250:258|262:296,1,80,0|2,0:0|0:0,0:0:0:0:
312,378,39099,2,0,L|393:376,2,80,2|0|0,0:0|0:0|0:0,0:0:0:0:
216,380,39711,1,0,0:0:0:0:
135,327,39915,6,0,L|35:327,2,80,2|2|0,0:0|0:0|0:0,0:0:0:0:
221,284,40527,1,2,0:0:0:0:
142,228,40731,2,0,L|103:63,1,160,2|0,0:0|0:0,0:0:0:0:
39,3,41344,1,0,0:0:0:0:
105,72,41548,6,0,P|156:101|265:79,1,160,2|0,0:0|0:0,0:0:0:0:
325,24,42160,1,2,0:0:0:0:
398,85,42364,2,0,P|445:99|495:87,2,80,2|0|0,0:0|0:0|0:0,0:0:0:0:
325,24,42976,1,0,0:0:0:0:
325,119,43180,6,0,L|326:208,1,80,2|2,0:0|0:0,0:0:0:0:
415,235,43589,2,0,L|374:303,1,80,0|2,0:0|0:0,0:0:0:0:
278,302,43997,2,0,L|237:233,2,80,2|0|0,0:0|0:0|0:0,0:0:0:0:
326,384,44609,1,0,0:0:0:0:
230,381,44813,6,0,P|183:368|131:371,1,80,2|2,0:0|0:0,0:0:0:0:
77,307,45221,2,0,P|122:289|174:288,1,80,0|2,0:0|0:0,0:0:0:0:
237,233,45629,2,0,P|192:212|141:205,1,80,2|0,0:0|0:0,0:0:0:0:
42,199,46038,5,8,0:0:0:0:
102,94,46242,1,8,0:0:0:0:
221,112,46446,6,0,P|296:132|382:83,1,160,2|0,0:0|0:0,0:0:0:0:
424,21,47058,1,2,0:0:0:0:
461,109,47262,2,0,L|468:277,1,160,2|0,0:0|0:0,0:0:0:0:
446,362,47874,1,0,0:0:0:0:
377,294,48078,6,0,P|307:256|228:256,1,160,2|0,0:0|0:0,0:0:0:0:
145,304,48691,1,2,0:0:0:0:
149,208,48895,2,0,L|149:119,1,80,2|0,0:0|0:0,0:0:0:0:
147,32,49303,2,0,P|187:40|228:72,1,80,0|0,0:0|0:0,0:0:0:0:
315,67,49711,6,0,P|304:139|231:208,1,160,2|0,0:0|0:0,0:0:0:0:
149,208,50323,1,2,0:0:0:0:
203,287,50527,2,0,B|228:299|228:299|303:295,1,80,2|0,0:0|0:0,0:0:0:0:
363,247,50936,1,0,0:0:0:0:
444,297,51140,1,0,0:0:0:0:
446,201,51344,6,0,L|448:109,1,80,2|2,0:0|0:0,0:0:0:0:
353,103,51752,2,0,P|306:120|254:114,2,80,0|2|2,0:0|0:0|0:0,0:0:0:0:
419,33,52364,1,0,0:0:0:0:
326,7,52568,2,0,B|302:1|302:1|226:0,1,80,0|0,0:0|0:0,0:0:0:0:
189,77,52976,6,0,P|206:152|181:233,1,160,2|0,0:0|0:0,0:0:0:0:
103,277,53589,1,2,0:0:0:0:
182,331,53793,2,0,P|222:335|270:324,2,80,2|0|0,0:0|0:0|0:0,0:0:0:0:
96,374,54405,1,0,0:0:0:0:
16,320,54609,6,0,L|8:151,1,160,2|0,0:0|0:0,0:0:0:0:
59,78,55221,1,2,0:0:0:0:
104,162,55425,2,0,P|147:176|185:171,1,80,2|0,0:0|0:0,0:0:0:0:
230,89,55834,2,0,P|192:77|153:81,1,80
104,162,56242,6,0,L|94:245,1,80,2|2,0:0|0:0,0:0:0:0:
189,256,56650,2,0,L|198:335,1,80,0|2,0:0|0:0,0:0:0:0:
289,366,57058,2,0,P|311:324|261:214,1,160,2|0,0:0|0:0,0:0:0:0:
202,162,57670,1,0,0:0:0:0:
291,128,57874,6,0,B|368:95|375:163|449:134,2,160,6|0|0,0:0|0:0|0:0,0:0:0:0:
212,303,59099,2,0,B|252:319|252:319|333:306,1,120,8|0,0:0|0:0,0:0:0:0:
328,307,59507,6,0,P|324:254|340:209,1,88.000002685547,6|2,0:0|0:0,0:0:0:0:
291,128,59915,2,0,P|343:124|388:140,1,88.000002685547,8|2,0:0|0:0,0:0:0:0:
471,86,60323,2,0,P|474:138|458:183,2,88.000002685547,2|0|8,0:0|0:0|0:0,0:0:0:0:
378,33,60936,1,0,0:0:0:0:
279,71,61140,6,0,P|200:84|159:75,1,88.000002685547,2|2,0:0|0:0,0:0:0:0:
127,166,61548,2,0,P|206:179|247:170,1,88.000002685547,8|2,0:0|0:0,0:0:0:0:
279,260,61956,2,0,P|200:273|159:264,2,88.000002685547,2|0|8,0:0|0:0|0:0,0:0:0:0:
314,160,62568,1,0,0:0:0:0:
273,62,62772,6,0,B|201:45|201:45|96:63,1,176.000005371094,2|8,0:0|0:0,0:0:0:0:
118,166,63385,2,0,L|220:148,2,88.000002685547,2|2|0,0:0|0:0|0:0,0:0:0:0:
47,244,63997,2,0,L|138:274,1,88.000002685547,8|0,0:0|0:0,0:0:0:0:
234,255,64405,5,2,0:0:0:0:
331,295,64609,1,2,0:0:0:0:
319,190,64813,2,0,P|324:125|361:81,1,88.000002685547,8|2,0:0|0:0,0:0:0:0:
436,78,65221,1,2,0:0:0:0:
362,2,65425,1,0,0:0:0:0:
334,106,65629,1,8,0:0:0:0:
260,30,65833,1,0,0:0:0:0:
234,132,66038,6,0,P|176:158|135:159,1,88.000002685547,2|2,0:0|0:0,0:0:0:0:
53,198,66446,2,0,P|73:236|81:279,1,88.000002685547,8|2,0:0|0:0,0:0:0:0:
186,275,66854,2,0,P|228:264|272:268,2,88.000002685547,2|0|8,0:0|0:0|0:0,0:0:0:0:
135,367,67466,1,0,0:0:0:0:
240,371,67670,6,0,P|295:376|347:355,1,88.000002685547,2|2,0:0|0:0,0:0:0:0:
431,373,68078,2,0,P|462:327|470:272,1,88.000002685547,8|2,0:0|0:0,0:0:0:0:
506,196,68487,2,0,P|478:144|442:119,2,88.000002685547,2|0|8,0:0|0:0|0:0,0:0:0:0:
403,219,69099,1,0,0:0:0:0:
299,199,69303,6,0,B|286:140|286:140|301:22,1,176.000005371094,2|8,0:0|0:0,0:0:0:0:
200,60,69915,2,0,L|187:151,2,88.000002685547,2|2|0,0:0|0:0|0:0,0:0:0:0:
111,1,70527,2,0,P|51:3|3:23,1,88.000002685547,8|0,0:0|0:0,0:0:0:0:
7,116,70936,5,2,0:0:0:0:
47,213,71140,1,2,0:0:0:0:
104,124,71344,2,0,P|155:114|200:116,1,88.000002685547,8|2,0:0|0:0,0:0:0:0:
217,216,71752,1,2,0:0:0:0:
291,140,71956,1,0,0:0:0:0:
319,244,72160,1,8,0:0:0:0:
393,168,72364,1,0,0:0:0:0:
365,66,72568,6,0,B|332:54|332:54|260:54,1,88.000002685547,6|2,0:0|0:0,0:0:0:0:
205,128,72976,2,0,B|238:140|238:140|310:140,1,88.000002685547,8|2,0:0|0:0,0:0:0:0:
359,220,73385,2,0,B|326:232|326:232|254:232,2,88.000002685547,2|0|8,0:0|0:0|0:0,0:0:0:0:
431,143,73997,1,0,0:0:0:0:
457,245,74201,6,0,P|456:294|431:348,1,88.000002685547,2|2,0:0|0:0,0:0:0:0:
337,317,74609,2,0,P|294:340|234:345,1,88.000002685547,8|2,0:0|0:0,0:0:0:0:
176,278,75017,1,2,0:0:0:0:
70,279,75221,1,0,0:0:0:0:
124,185,75425,1,8,0:0:0:0:
18,186,75629,1,0,0:0:0:0:
70,93,75834,6,0,B|103:79|103:79|186:78,1,88.000002685547,2|2,0:0|0:0,0:0:0:0:
221,160,76242,2,0,B|254:174|254:174|337:175,1,88.000002685547,8|2,0:0|0:0,0:0:0:0:
342,75,76650,2,0,B|309:61|309:61|226:60,1,88.000002685547,2|0,0:0|0:0,0:0:0:0:
155,78,77058,6,0,P|134:109|165:251,1,176.000005371094,8|2,0:0|0:0,0:0:0:0:
200,332,77670,2,0,L|102:321,2,88.000002685547,2|8|2,0:0|0:0|0:0,0:0:0:0:
251,238,78283,1,2,0:0:0:0:
277,135,78487,1,0,0:0:0:0:
354,211,78691,1,8,0:0:0:0:
379,108,78895,1,0,0:0:0:0:
453,182,79099,6,0,B|457:213|457:213|457:295,1,88.000002685547,2|2,0:0|0:0,0:0:0:0:
363,318,79507,2,0,B|332:322|332:322|250:322,1,88.000002685547,8|2,0:0|0:0,0:0:0:0:
186,264,79915,2,0,B|182:233|182:233|182:151,2,88.000002685547,2|0|8,0:0|0:0|0:0,0:0:0:0:
183,369,80527,1,0,0:0:0:0:
96,308,80731,6,0,P|82:237|88:201,1,88.000002685547,2|2,0:0|0:0,0:0:0:0:
18,138,81140,2,0,P|83:123|119:131,1,88.000002685547,8|2,0:0|0:0,0:0:0:0:
183,195,81548,1,2,0:0:0:0:
209,298,81752,1,0,0:0:0:0:
286,222,81956,1,8,0:0:0:0:
311,325,82160,1,0,0:0:0:0:
384,248,82364,6,0,P|387:196|376:147,1,88.000002685547,2|2,0:0|0:0,0:0:0:0:
439,74,82772,2,0,P|363:65|327:71,1,88.000002685547,8|2,0:0|0:0,0:0:0:0:
262,9,83180,2,0,P|252:70|254:106,1,88.000002685547,2|0,0:0|0:0,0:0:0:0:
156,136,83589,6,0,P|150:198|218:285,1,176.000005371094,8|2,0:0|0:0,0:0:0:0:
318,309,84201,2,0,L|270:389,2,88.000002685547,2|8|2,0:0|0:0|0:0,0:0:0:0:
352,211,84813,1,2,0:0:0:0:
326,108,85017,1,0,0:0:0:0:
249,184,85221,1,8,0:0:0:0:
224,81,85425,1,0,0:0:0:0:
146,157,85629,5,0,0:0:0:0:
256,192,85834,12,0,88691,0:0:0:0:
