osu file format v14

[General]
AudioFilename: Spell (TV Size).mp3
AudioLeadIn: 0
PreviewTime: 59405
Countdown: 0
SampleSet: Soft
StackLeniency: 0.5
Mode: 0
LetterboxInBreaks: 0
WidescreenStoryboard: 1

[Editor]
DistanceSpacing: 1
BeatDivisor: 4
GridSize: 8
TimelineZoom: 1.4

[Metadata]
Title:Spell
TitleUnicode:Spell
Artist:LAMA
ArtistUnicode:LAMA
Creator:Yahuri
Version:Hex
Source:NO.6
Tags:fursum ラマ shion nezumi anime atsuko asano あさの あつこ bones op opening tv size sony
BeatmapID:1393611
BeatmapSetID:406860

[Difficulty]
HPDrainRate:6
CircleSize:4.2
OverallDifficulty:7
ApproachRate:8
SliderMultiplier:1.7
SliderTickRate:1

[Events]
//Background and Video events
0,0,"background.jpg",0,0
//Break Periods
//Storyboard Layer 0 (Background)
//Storyboard Layer 1 (Fail)
//Storyboard Layer 2 (Pass)
//Storyboard Layer 3 (Foreground)
//Storyboard Sound Samples

[TimingPoints]
732,408.163265306122,4,2,1,50,1,0
19915,-100,4,2,2,50,0,0
20323,-100,4,2,1,40,0,0
46038,-100,4,2,2,50,0,0
46446,-100,4,2,1,50,0,0
59099,-100,4,2,2,60,0,0
59507,-83.3333333333333,4,2,1,60,0,1
72466,-83.3333333333333,4,2,1,60,0,0
72568,-83.3333333333333,4,2,1,60,0,1
85629,-100,4,2,1,40,0,0
86446,-100,4,2,1,30,0,0
87262,-100,4,2,1,20,0,0
88078,-100,4,2,1,10,0,0
88691,-100,4,2,1,5,0,0

[Colours]
Combo1 : 208,208,208
Combo2 : 118,199,248
Combo3 : 84,103,158
Combo4 : 170,94,89

[HitObjects]
256,192,732,12,2,6854,0:0:0:0:
291,306,7262,5,6,0:0:0:0:
283,222,7466,1,2,0:0:0:0:
426,207,7670,1,8,0:0:0:0:
357,256,7874,1,2,0:0:0:0:
352,173,8078,2,0,L|343:83,1,85,2|0,0:0|0:0,0:0:0:0:
201,103,8487,2,0,L|208:187,1,85,8|0,0:0|0:0,0:0:0:0:
291,306,8895,5,2,0:0:0:0:
222,355,9099,1,2,0:0:0:0:
142,237,9303,2,0,L|58:245,1,85,8|2,0:0|0:0,0:0:0:0:
209,188,9711,2,0,L|293:195,1,85,2|0,0:0|0:0,0:0:0:0:
134,156,10119,2,0,L|49:163,1,85,8|0,0:0|0:0,0:0:0:0:
200,106,10527,5,2,0:0:0:0:
125,74,10731,1,2,0:0:0:0:
143,238,10936,1,8,0:0:0:0:
209,188,11140,1,2,0:0:0:0:
283,221,11344,2,0,L|290:305,1,85,2|0,0:0|0:0,0:0:0:0:
151,323,11752,2,0,L|143:238,1,85,8|0,0:0|0:0,0:0:0:0:
200,106,12160,5,2,0:0:0:0:
209,188,12364,1,2,0:0:0:0:
266,58,12568,1,8,0:0:0:0:
275,140,12772,1,2,0:0:0:0:
344,91,12976,2,0,L|428:83,1,85,2|0,0:0|0:0,0:0:0:0:
446,223,13384,2,0,L|361:230,1,85,8|0,0:0|0:0,0:0:0:0:
213,299,13793,5,2,0:0:0:0:
221,215,13997,1,2,0:0:0:0:
78,200,14201,1,8,0:0:0:0:
147,249,14405,1,2,0:0:0:0:
152,166,14609,2,0,L|161:76,1,85,2|0,0:0|0:0,0:0:0:0:
302,96,15018,2,0,L|295:180,1,85,8|0,0:0|0:0,0:0:0:0:
213,299,15426,5,2,0:0:0:0:
282,348,15630,1,2,0:0:0:0:
362,230,15834,2,0,L|446:238,1,85,8|2,0:0|0:0,0:0:0:0:
295,181,16242,2,0,L|211:188,1,85,2|0,0:0|0:0,0:0:0:0:
370,149,16650,2,0,L|455:156,1,85,8|0,0:0|0:0,0:0:0:0:
304,99,17058,5,2,0:0:0:0:
379,67,17262,1,2,0:0:0:0:
361,231,17467,1,8,0:0:0:0:
295,181,17671,1,2,0:0:0:0:
221,214,17875,2,0,L|214:298,1,85,2|0,0:0|0:0,0:0:0:0:
353,316,18283,2,0,L|361:231,1,85,8|0,0:0|0:0,0:0:0:0:
304,99,18691,5,2,0:0:0:0:
295,181,18895,1,2,0:0:0:0:
238,51,19099,1,8,0:0:0:0:
229,133,19303,1,2,0:0:0:0:
76,76,19507,2,0,L|160:84,1,85,2|0,0:0|0:0,0:0:0:0:
286,263,19915,5,8,0:0:0:0:
68,281,20119,1,8,0:0:0:0:
229,133,20323,6,0,P|243:99|238:51,2,85,2|2|0,0:0|0:0|0:0,0:0:0:0:
152,166,20936,1,2,0:0:0:0:
161,84,21140,2,0,P|124:88|85:117,2,85,2|0|0,0:0|0:0|0:0,0:0:0:0:
229,133,21752,1,0,0:0:0:0:
143,249,21956,6,0,P|129:283|134:331,2,85,2|2|0,0:0|0:0|0:0,0:0:0:0:
220,214,22568,1,2,0:0:0:0:
211,298,22772,2,0,P|247:293|286:265,2,85,2|0|0,0:0|0:0|0:0,0:0:0:0:
143,249,23385,1,0,0:0:0:0:
158,82,23589,6,0,P|197:96|225:128,1,85,2|2,0:0|0:0,0:0:0:0:
294,179,23997,2,0,P|261:205|220:214,1,85,0|2,0:0|0:0,0:0:0:0:
144,249,24405,2,0,P|137:207|150:167,2,85,2|0|0,0:0|0:0|0:0,0:0:0:0:
213,299,25017,1,0,0:0:0:0:
343,181,25221,5,2,0:0:0:0:
303,191,25425,1,2,0:0:0:0:
261,202,25629,1,0,0:0:0:0:
220,214,25833,1,2,0:0:0:0:
213,299,26038,5,2,0:0:0:0:
253,309,26242,1,0,0:0:0:0:
295,320,26446,1,0,0:0:0:0:
336,332,26650,1,0,0:0:0:0:
476,245,26854,6,0,P|483:209|471:161,2,85,2|2|0,0:0|0:0|0:0,0:0:0:0:
406,293,27467,1,2,0:0:0:0:
400,208,27671,2,0,P|365:218|331:253,2,85,2|0|0,0:0|0:0|0:0,0:0:0:0:
472,163,28283,1,0,0:0:0:0:
311,91,28487,6,0,P|297:56|302:8,2,85,2|2|0,0:0|0:0|0:0,0:0:0:0:
390,126,29099,1,2,0:0:0:0:
380,41,29303,2,0,P|417:44|455:71,2,85,2|0|0,0:0|0:3|0:3,0:3:0:0:
302,9,29916,1,0,0:0:0:0:
220,128,30119,6,0,P|181:114|153:82,1,85,2|2,0:0|0:0,0:0:0:0:
228,44,30527,2,0,P|259:17|301:9,1,85,0|2,0:0|0:0,0:0:0:0:
296,93,30936,2,8,P|303:133|289:174,2,85,2|0|0,0:0|0:0|0:0,0:0:0:0:
302,9,31547,1,0,0:0:0:0:
153,82,31752,5,2,0:0:0:0:
160,123,31956,1,2,0:0:0:0:
167,165,32160,1,0,0:0:0:0:
175,207,32364,1,2,0:0:0:0:
267,299,32568,5,2,0:0:0:0:
274,258,32772,1,0,0:0:0:0:
281,216,32976,1,0,0:0:0:0:
289,174,33180,1,0,0:0:0:0:
433,182,33385,6,0,P|440:216|428:264,2,85,2|2|0,0:0|0:0|0:0,0:0:0:0:
353,304,33998,1,2,0:0:0:0:
288,173,34202,2,0,P|317:205|357:219,2,85,2|0|0,0:0|0:0|0:0,0:0:0:0:
363,135,34814,1,0,0:0:0:0:
215,213,35017,6,0,P|179:201|146:167,2,85,2|2|0,0:0|0:0|0:0,0:0:0:0:
149,82,35630,1,2,0:0:0:0:
292,89,35834,2,0,P|251:98|220:126,2,85,2|0|0,0:0|0:0|0:0,0:0:0:0:
289,174,36446,1,0,0:0:0:0:
430,182,36650,6,0,P|402:150|362:135,1,85,2|2,0:0|0:0,0:0:0:0:
424,267,37058,2,0,P|465:258|498:232,1,85,0|2,0:0|0:0,0:0:0:0:
354,221,37466,2,0,P|341:261|348:302,2,85,2|0|0,0:0|0:0|0:0,0:0:0:0:
424,267,38078,1,0,0:0:0:0:
269,339,38283,5,2,0:0:0:0:
230,325,38487,1,2,0:0:0:0:
189,310,38691,1,0,0:0:0:0:
149,295,38895,1,2,0:0:0:0:
177,131,39099,5,2,0:0:0:0:
216,117,39303,1,0,0:0:0:0:
257,102,39507,1,0,0:0:0:0:
293,91,39711,1,0,0:0:0:0:
431,180,39915,6,0,P|443:140|437:99,2,85,2|2|0,0:0|0:0|0:0,0:0:0:0:
366,54,40528,1,2,0:0:0:0:
355,224,40732,2,0,P|383:254|423:267,2,85,2|0|0,0:0|0:0|0:0,0:0:0:0:
361,139,41344,1,0,0:0:0:0:
189,216,41548,6,0,P|230:209|270:221,2,85,2|2|0,0:0|0:0|0:0,0:0:0:0:
312,297,42161,1,2,0:0:0:0:
142,287,42364,2,0,P|113:255|103:214,2,85,2|0|0,0:0|0:0|0:0,0:0:0:0:
227,291,42977,1,0,0:0:0:0:
236,147,43180,6,0,P|251:107|282:80,1,85,2|2,0:0|0:0,0:0:0:0:
403,162,43589,2,0,P|361:169|321:156,1,85,0|2,0:0|0:0,0:0:0:0:
331,11,43997,2,0,P|357:44|365:86,2,85,2|0|0,0:0|0:0|0:0,0:0:0:0:
282,80,44608,1,0,0:0:0:0:
361,232,44813,5,2,0:0:0:0:
347,271,45017,1,2,0:0:0:0:
332,312,45221,1,0,0:0:0:0:
317,352,45425,1,2,0:0:0:0:
239,194,45629,5,2,0:0:0:0:
281,205,45833,1,0,0:0:0:0:
171,337,46038,5,8,0:0:0:0:
117,156,46242,1,8,0:0:0:0:
281,205,46446,6,0,L|374:205,2,85,2|2|0,0:0|0:0|0:0,0:0:0:0:
323,131,47058,1,2,0:0:0:0:
324,279,47262,2,0,L|324:372,2,85,2|0|0,0:0|0:0|0:0,0:0:0:0:
366,205,47874,1,0,0:0:0:0:
239,131,48078,6,0,L|146:131,2,85,2|2|0,0:0|0:0|0:0,0:0:0:0:
197,57,48690,1,2,0:0:0:0:
196,205,48894,2,0,L|196:298,2,85,2|0|0,0:0|0:0|0:0,0:0:0:0:
154,131,49506,1,0,0:0:0:0:
281,57,49711,6,0,L|374:57,1,85,2|2,0:0|0:0,0:0:0:0:
408,131,50119,2,0,L|323:131,1,85,0|2,0:0|0:0,0:0:0:0:
281,205,50527,2,0,L|366:205,2,85,2|0|0,0:0|0:0|0:0,0:0:0:0:
324,279,51140,1,0,0:0:0:0:
450,205,51344,5,2,0:0:0:0:
450,248,51548,1,2,0:0:0:0:
324,322,51752,1,0,0:0:0:0:
324,279,51956,1,2,0:0:0:0:
198,205,52160,5,2,0:0:0:0:
198,248,52364,1,0,0:0:0:0:
72,322,52568,1,0,0:0:0:0:
72,279,52772,1,0,0:0:0:0:
155,131,52976,6,0,L|155:38,2,85,2|2|0,0:0|0:0|0:0,0:0:0:0:
84,177,53588,1,2,0:0:0:0:
229,88,53792,2,0,L|322:88,2,85,2|0|0,0:0|0:0|0:0,0:0:0:0:
155,131,54404,1,0,0:0:0:0:
256,269,54609,6,0,L|256:362,2,85,2|2|0,0:0|0:0|0:0,0:0:0:0:
327,223,55221,1,2,0:0:0:0:
182,312,55425,2,0,L|89:312,2,85,2|0|0,0:0|0:0|0:0,0:0:0:0:
256,269,56037,1,0,0:0:0:0:
256,121,56242,6,0,L|341:121,1,85,2|2,0:0|0:0,0:0:0:0:
299,195,56650,2,0,L|214:195,1,85,0|2,0:0|0:0,0:0:0:0:
256,269,57058,2,0,L|343:269,1,85,2|0,0:0|0:0,0:0:0:0:
299,342,57466,2,0,L|214:342,1,85
256,121,57874,5,4,0:0:0:0:
256,192,57976,12,8,59099,0:0:0:0:
357,95,59507,6,0,B|373:144|373:144|357:192,1,101.999996887207,6|2,0:0|0:0,0:0:0:0:
205,281,59915,1,8,0:0:0:0:
307,281,60119,1,2,0:0:0:0:
153,95,60323,2,0,B|137:144|137:144|154:192,1,101.999996887207,2|0,0:0|0:0,0:0:0:0:
256,370,60731,1,8,0:0:0:0:
307,281,60936,1,0,0:0:0:0:
109,282,61140,6,0,B|131:296|131:296|205:281,1,101.999996887207,2|2,0:0|0:0,0:0:0:0:
357,192,61548,1,8,0:0:0:0:
307,103,61752,1,2,0:0:0:0:
307,281,61956,2,0,B|381:296|381:296|403:282,1,101.999996887207,2|0,0:0|0:0,0:0:0:0:
307,103,62364,1,8,0:0:0:0:
256,192,62568,1,0,0:0:0:0:
110,102,62772,6,0,B|159:86|159:86|206:103,1,101.999996887207,2|2,0:0|0:0,0:0:0:0:
357,192,63180,1,8,0:0:0:0:
307,281,63385,2,0,L|205:281,1,101.999996887207,2|2,0:0|0:0,0:0:0:0:
155,192,63793,1,0,0:0:0:0:
307,103,63997,2,0,B|356:87|356:87|403:104,1,101.999996887207,8|0,0:0|0:0,0:0:0:0:
458,192,64405,5,2,0:0:0:0:
409,281,64609,2,0,L|307:281,1,101.999996887207,2|8,0:0|0:0,0:0:0:0:
256,192,65017,1,2,0:0:0:0:
103,281,65221,2,0,L|205:281,1,101.999996887207,2|0,0:0|0:0,0:0:0:0:
104,103,65629,1,8,0:0:0:0:
54,192,65834,1,0,0:0:0:0:
207,103,66038,6,0,P|255:89|304:102,1,101.999996887207,2|2,0:0|0:0,0:0:0:0:
458,192,66446,1,8,0:0:0:0:
409,103,66650,1,2,0:0:0:0:
304,281,66854,2,0,P|255:294|207:281,1,101.999996887207,2|0,0:0|0:0,0:0:0:0:
54,192,67262,1,8,0:0:0:0:
3,281,67466,1,0,0:0:0:0:
104,103,67671,6,0,B|155:103|155:103|190:103|211:136,1,101.999996887207,2|2,0:0|0:0,0:0:0:0:
307,281,68079,1,8,0:0:0:0:
205,281,68283,1,2,0:0:0:0:
311,122,68487,2,0,B|322:103|357:103|357:103|408:103,1,101.999996887207,2|0,0:0|0:0,0:0:0:0:
509,281,68895,1,8,0:0:0:0:
458,192,69099,1,0,0:0:0:0:
307,281,69303,6,0,P|293:329|306:378,1,101.999996887207,2|2,0:0|0:0,0:0:0:0:
357,192,69711,1,8,0:0:0:0:
307,103,69915,2,0,L|205:103,1,101.999996887207,2|2,0:0|0:0,0:0:0:0:
155,192,70323,1,0,0:0:0:0:
205,378,70527,2,0,P|218:329|205:281,1,101.999996887207,8|0,0:0|0:0,0:0:0:0:
54,192,70936,5,2,0:0:0:0:
103,103,71140,2,0,L|205:103,1,101.999996887207,2|8,0:0|0:0,0:0:0:0:
256,15,71548,1,2,0:0:0:0:
409,103,71752,2,0,L|307:103,1,101.999996887207,2|0,0:0|0:0,0:0:0:0:
307,281,72160,1,8,0:0:0:0:
356,192,72365,1,0,0:0:0:0:
155,289,72568,6,0,B|139:240|139:240|155:192,1,101.999996887207,6|2,0:0|0:0,0:0:0:0:
307,103,72976,1,8,0:0:0:0:
205,103,73180,1,2,0:0:0:0:
357,289,73384,2,0,B|373:240|373:240|356:192,1,101.999996887207,2|0,0:0|0:0,0:0:0:0:
205,103,73792,1,8,0:0:0:0:
256,192,73997,1,0,0:0:0:0:
403,102,74201,6,0,B|381:88|381:88|307:103,1,101.999996887207,2|2,0:0|0:0,0:0:0:0:
205,281,74609,1,8,0:0:0:0:
307,281,74813,1,2,0:0:0:0:
205,103,75017,2,0,B|131:88|131:88|109:102,1,101.999996887207,2|0,0:0|0:0,0:0:0:0:
103,281,75425,1,8,0:0:0:0:
155,192,75629,1,0,0:0:0:0:
306,274,75834,6,0,B|335:252|335:252|353:224|353:224|357:192,1,101.999996887207,2|2,0:0|0:0,0:0:0:0:
358,15,76241,1,8,0:0:0:0:
307,103,76446,2,0,L|205:103,1,101.999996887207,2|2,0:0|0:0,0:0:0:0:
154,15,76854,1,0,0:0:0:0:
155,192,77058,2,0,B|159:224|159:224|177:252|177:252|206:274,1,101.999996887207,8|0,0:0|0:0,0:0:0:0:
356,192,77466,5,2,0:0:0:0:
307,103,77670,2,0,B|340:93|340:93|375:103|409:103,1,101.999996887207,2|8,0:0|0:0,0:0:0:0:
256,192,78078,1,2,0:0:0:0:
105,102,78283,2,0,B|137:103|172:93|172:93|205:103,1,101.999996887207,2|0,0:0|0:0,0:0:0:0:
307,281,78690,1,8,0:0:0:0:
356,192,78895,1,0,0:0:0:0:
155,192,79099,6,0,P|114:235|104:276,1,101.999996887207,2|2,0:0|0:0,0:0:0:0:
256,369,79507,1,8,0:0:0:0:
205,281,79711,1,2,0:0:0:0:
357,192,79915,2,0,P|398:235|408:276,1,101.999996887207,2|0,0:0|0:0,0:0:0:0:
256,192,80323,1,8,0:0:0:0:
307,280,80527,1,0,0:0:0:0:
404,83,80731,6,0,B|353:83|353:83|318:83|297:116,1,101.999996887207,2|2,0:0|0:0,0:0:0:0:
205,281,81139,1,8,0:0:0:0:
307,281,81343,1,2,0:0:0:0:
204,102,81548,2,0,B|194:83|159:83|159:83|108:83,1,101.999996887207,2|0,0:0|0:0,0:0:0:0:
3,281,81956,1,8,0:0:0:0:
54,192,82160,1,0,0:0:0:0:
205,281,82364,6,0,B|205:315|205:315|193:348|193:348|193:380,1,101.999996887207,2|2,0:0|0:0,0:0:0:0:
155,192,82772,1,8,0:0:0:0:
205,103,82976,2,0,L|307:103,1,101.999996887207,2|2,0:0|0:0,0:0:0:0:
357,192,83384,1,0,0:0:0:0:
319,380,83589,2,0,B|319:348|319:348|307:315|307:315|307:281,1,101.999996887207,8|0,0:0|0:0,0:0:0:0:
458,192,83997,5,2,0:0:0:0:
406,102,84201,2,0,B|375:103|340:93|340:93|307:103,1,101.999996887207,2|8,0:0|0:0,0:0:0:0:
256,15,84609,1,2,0:0:0:0:
105,102,84813,2,0,B|137:103|172:93|172:93|205:103,1,101.999996887207,2|0,0:0|0:0,0:0:0:0:
307,281,85221,1,8,0:0:0:0:
205,281,85426,1,0,0:0:0:0:
256,192,85629,5,0,0:0:0:0:
256,192,85731,12,0,88691,0:0:0:0:
