osu file format v14

[General]
AudioFilename: Spell (TV Size).mp3
AudioLeadIn: 0
PreviewTime: 59405
Countdown: 0
SampleSet: Soft
StackLeniency: 0.7
Mode: 0
LetterboxInBreaks: 0
WidescreenStoryboard: 1

[Editor]
DistanceSpacing: 1.2
BeatDivisor: 4
GridSize: 8
TimelineZoom: 1

[Metadata]
Title:Spell
TitleUnicode:Spell
Artist:LAMA
ArtistUnicode:LAMA
Creator:Yahuri
Version:Advanced
Source:NO.6
Tags:fursum ラマ shion nezumi anime atsuko asano あさの あつこ bones op opening tv size sony
BeatmapID:1397387
BeatmapSetID:406860

[Difficulty]
HPDrainRate:4
CircleSize:3.5
OverallDifficulty:5
ApproachRate:6.5
SliderMultiplier:1.4
SliderTickRate:1

[Events]
//Background and Video events
0,0,"background.jpg",0,0
//Break Periods
//Storyboard Layer 0 (Background)
//Storyboard Layer 1 (Fail)
//Storyboard Layer 2 (Pass)
//Storyboard Layer 3 (Foreground)
//Storyboard Sound Samples

[TimingPoints]
732,408.163265306122,4,2,1,50,1,0
19915,-100,4,2,2,50,0,0
20323,-100,4,2,1,40,0,0
46038,-100,4,2,2,50,0,0
46446,-100,4,2,1,50,0,0
59099,-100,4,2,2,60,0,0
59507,-100,4,2,1,60,0,1
72466,-100,4,2,1,60,0,0
72568,-100,4,2,1,60,0,1
85629,-100,4,2,1,40,0,0
86446,-100,4,2,1,30,0,0
87262,-100,4,2,1,20,0,0
88078,-100,4,2,1,10,0,0
88691,-100,4,2,1,5,0,0

[Colours]
Combo1 : 208,208,208
Combo2 : 118,199,248
Combo3 : 84,103,158
Combo4 : 170,94,89

[HitObjects]
255,163,7262,6,0,B|255:234|255:234|278:297,1,140,6|8,0:0|0:0,0:0:0:0:
336,361,7874,1,0,0:0:0:0:
395,297,8078,2,0,B|418:233|418:233|418:162,1,140,2|8,0:0|0:0,0:0:0:0:
274,76,8895,6,0,L|202:88,1,70,2|0,0:0|0:0,0:0:0:0:
161,159,9303,2,0,P|173:191|173:226,1,70,8|0,0:0|0:0,0:0:0:0:
222,294,9711,2,0,P|190:309|155:308,1,70,2|0,0:0|0:0,0:0:0:0:
87,357,10119,2,0,P|72:319|76:283,1,70,8|0,0:0|0:0,0:0:0:0:
28,220,10527,6,0,B|51:156|51:156|51:85,1,140,2|8,0:0|0:0,0:0:0:0:
93,11,11140,1,0,0:0:0:0:
168,48,11344,2,0,B|231:71|231:71|302:71,1,140,2|8,0:0|0:0,0:0:0:0:
467,109,12160,6,0,B|444:173|444:173|444:244,1,140,2|8,0:0|0:0,0:0:0:0:
399,317,12773,1,0,0:0:0:0:
324,280,12977,2,0,B|261:257|261:257|190:257,1,140,2|8,0:0|0:0,0:0:0:0:
25,297,13793,6,0,B|25:226|25:226|48:163,1,140,2|8,0:0|0:0,0:0:0:0:
86,86,14405,1,0,0:0:0:0:
164,117,14609,2,0,B|228:140|228:140|299:140,1,140,2|8,0:0|0:0,0:0:0:0:
465,170,15426,6,0,L|453:242,1,70,2|0,0:0|0:0,0:0:0:0:
409,310,15834,2,0,P|376:322|341:322,1,70,8|0,0:0|0:0,0:0:0:0:
273,371,16242,2,0,P|258:339|259:304,1,70,2|0,0:0|0:0,0:0:0:0:
211,236,16650,2,0,P|249:221|285:225,1,70,8|0,0:0|0:0,0:0:0:0:
347,176,17058,6,0,B|370:112|370:112|370:41,1,140,2|8,0:0|0:0,0:0:0:0:
294,4,17670,1,0,0:0:0:0:
219,41,17874,2,0,B|155:64|155:64|84:64,1,140,2|8,0:0|0:0,0:0:0:0:
11,216,18691,6,0,L|23:288,1,70,2|0,0:0|0:0,0:0:0:0:
97,323,19099,2,0,P|132:310|168:311,1,70,8|0,0:0|0:0,0:0:0:0:
240,274,19507,2,0,P|274:274|307:286,1,70,2|0,0:0|0:0,0:0:0:0:
376,334,19915,1,8,0:0:0:0:
445,286,20119,1,8,0:0:0:0:
376,238,20323,6,0,L|363:96,1,140,2|0,0:0|0:0,0:0:0:0:
320,25,20936,1,2,0:0:0:0:
320,25,21140,2,0,P|254:45|178:37,1,140,2|0,0:0|0:0,0:0:0:0:
104,11,21752,1,0,0:0:0:0:
104,11,21956,6,0,L|91:150,1,140,2|0,0:0|0:0,0:0:0:0:
124,227,22568,1,2,0:0:0:0:
124,227,22772,2,0,P|192:218|265:239,1,140,2|0,0:0|0:0,0:0:0:0:
392,341,23589,6,0,L|398:272,1,70,2|0,0:0|0:0,0:0:0:0:
440,198,23997,2,0,P|453:163|452:127,1,70,0|2,0:0|0:0,0:0:0:0:
416,54,24405,2,0,L|276:66,1,140,2|0,0:0|0:0,0:0:0:0:
138,162,25221,6,0,P|103:149|67:150,2,70,2|2|0,0:0|0:0|0:0,0:0:0:0:
180,235,25834,1,2,0:0:0:0:
222,162,26038,2,0,P|257:149|293:150,2,70,2|0|0,0:0|0:0|0:0,0:0:0:0:
180,235,26650,1,0,0:0:0:0:
222,308,26854,6,0,L|363:295,1,140,2|0,0:0|0:0,0:0:0:0:
438,261,27466,1,2,0:0:0:0:
438,261,27670,2,0,P|429:192|450:119,1,140,2|0,0:0|0:0,0:0:0:0:
414,47,28283,1,0,0:0:0:0:
414,47,28487,6,0,L|274:34,1,140,2|0,0:0|0:0,0:0:0:0:
233,108,29099,1,2,0:0:0:0:
233,108,29303,2,0,P|224:176|245:249,1,140,2|0,0:0|0:0,0:0:0:0:
399,304,30119,6,0,L|330:310,1,70,2|2,0:0|0:0,0:0:0:0:
254,348,30527,2,0,P|219:335|183:336,1,70,0|2,0:0|0:0,0:0:0:0:
110,370,30936,2,0,L|97:230,1,140,2|0,0:0|0:0,0:0:0:0:
167,77,31752,6,0,P|132:64|96:65,2,70,2|2|0,0:0|0:0|0:0,0:0:0:0:
209,150,32365,1,2,0:0:0:0:
251,77,32569,2,0,P|286:64|322:65,2,70,2|0|0,0:0|0:0|0:0,0:0:0:0:
209,150,33181,1,0,0:0:0:0:
250,223,33385,6,0,P|270:288|262:364,1,140,2|0,0:0|0:0,0:0:0:0:
180,357,33997,1,2,0:0:0:0:
180,357,34201,2,0,L|40:344,1,140,2|0,0:0|0:0,0:0:0:0:
8,266,34813,1,0,0:0:0:0:
8,266,35017,6,0,P|-1:197|20:124,1,140,2|0,0:0|0:0,0:0:0:0:
64,60,35629,1,2,0:0:0:0:
64,60,35833,2,0,L|204:47,1,140,2|0,0:0|0:0,0:0:0:0:
368,12,36650,6,0,L|374:81,1,70,2|2,0:0|0:0,0:0:0:0:
412,157,37058,2,0,P|399:192|400:228,1,70,0|2,0:0|0:0,0:0:0:0:
414,307,37466,2,0,L|274:294,1,140,2|0,0:0|0:0,0:0:0:0:
114,242,38283,6,0,P|101:277|102:313,2,70,2|2|0,0:0|0:0|0:0,0:0:0:0:
187,200,38896,1,2,0:0:0:0:
114,158,39100,2,0,P|101:123|102:87,2,70,2|0|0,0:0|0:0|0:0,0:0:0:0:
187,200,39711,1,0,0:0:0:0:
259,158,39915,6,0,P|324:138|400:146,1,140,2|0,0:0|0:0,0:0:0:0:
472,176,40527,1,2,0:0:0:0:
472,176,40731,2,0,L|485:316,1,140,2|0,0:0|0:0,0:0:0:0:
412,358,41344,1,0,0:0:0:0:
412,358,41548,6,0,P|344:367|271:346,1,140,2|0,0:0|0:0,0:0:0:0:
202,308,42160,1,2,0:0:0:0:
202,308,42364,2,0,L|215:168,1,140,2|0,0:0|0:0,0:0:0:0:
357,79,43180,6,0,L|288:73,1,70,2|2,0:0|0:0,0:0:0:0:
212,35,43588,2,0,P|177:48|141:47,1,70,0|2,0:0|0:0,0:0:0:0:
68,13,43997,2,0,L|55:153,1,140,2|0,0:0|0:0,0:0:0:0:
123,305,44813,6,0,P|88:318|52:317,2,70,2|2|0,0:0|0:0|0:0,0:0:0:0:
165,232,45426,1,2,0:0:0:0:
207,305,45630,2,0,P|242:318|278:317,1,70,2|0,0:0|0:0,0:0:0:0:
345,273,46038,1,8,0:0:0:0:
416,317,46241,1,8,0:0:0:0:
488,273,46446,6,0,B|520:211|468:202|510:138,1,140,2|0,0:0|0:0,0:0:0:0:
481,60,47058,1,2,0:0:0:0:
481,60,47262,2,0,P|413:51|340:72,1,140,2|0,0:0|0:0,0:0:0:0:
302,142,47874,1,0,0:0:0:0:
302,142,48078,6,0,B|334:203|282:212|324:276,1,140,2|0,0:0|0:0,0:0:0:0:
294,354,48691,1,2,0:0:0:0:
294,354,48895,2,0,P|226:363|153:342,1,140,2|0,0:0|0:0,0:0:0:0:
16,254,49711,6,0,L|27:185,1,70,2|2,0:0|0:0,0:0:0:0:
72,113,50119,2,0,P|109:113|142:99,1,70,0|2,0:3|0:0,0:0:0:0:
214,63,50527,2,0,B|282:53|273:104|347:87,1,140,2|0,0:0|0:0,0:0:0:0:
428,63,51140,1,0,0:0:0:0:
408,145,51344,6,0,P|407:182|421:215,1,70,2|2,0:0|0:0,0:0:0:0:
342,247,51752,2,0,P|323:279|317:314,1,70,0|2,0:0|0:0,0:0:0:0:
233,302,52160,2,0,P|200:320|178:348,1,70,2|0,0:0|0:0,0:0:0:0:
111,295,52568,2,0,P|73:294|40:308,1,70
9,229,52976,6,0,B|0:160|50:169|33:95,1,140,2|0,0:0|0:0,0:0:0:0:
66,17,53589,1,2,0:0:0:0:
66,17,53793,2,0,P|134:8|207:29,1,140,2|0,0:0|0:0,0:0:0:0:
244,99,54405,1,0,0:0:0:0:
244,99,54609,6,0,B|276:160|224:169|266:233,1,140,2|0,0:0|0:0,0:0:0:0:
315,301,55221,1,2,0:0:0:0:
315,301,55425,2,0,P|383:310|456:289,1,140,2|0,0:0|0:0,0:0:0:0:
486,126,56242,6,0,L|473:57,1,70,2|2,0:0|0:0,0:0:0:0:
390,57,56650,2,0,L|377:125,1,70,0|2,0:0|0:0,0:0:0:0:
300,161,57058,2,0,P|263:160|230:174,1,70,2|0,0:0|0:0,0:0:0:0:
188,243,57466,2,0,P|155:255|120:254,1,70
45,216,57874,5,6,0:0:0:0:
256,192,58078,12,8,59099,0:0:0:0:
324,201,59507,6,0,B|316:167|316:167|332:99|332:99|324:65,1,140,6|8,0:0|0:0,0:0:0:0:
256,14,60119,1,2,0:0:0:0:
189,65,60323,2,0,B|181:99|181:99|197:167|197:167|189:201,1,140,2|8,0:0|0:0,0:0:0:0:
132,265,60936,1,0,0:0:0:0:
189,327,61140,6,0,B|255:346|255:346|325:327,1,140,2|8,0:0|0:0,0:0:0:0:
380,265,61752,1,2,0:0:0:0:
324,201,61956,2,0,B|255:182|255:182|189:201,1,140,2|8,0:0|0:0,0:0:0:0:
132,139,62568,1,0,0:0:0:0:
75,201,62772,6,0,L|7:183,1,70,2|2,0:0|0:0,0:0:0:0:
7,99,63180,2,0,L|25:31,2,70,8|2|2,0:0|0:0|0:0,0:0:0:0:
7,183,63793,1,0,0:0:0:0:
6,266,63997,2,0,L|163:307,1,140,8|2,0:0|0:0,0:0:0:0:
219,269,64609,6,0,P|215:231|199:199,2,70,2|8|2,0:0|0:0|0:0,0:0:0:0:
296,303,65221,2,0,P|332:300|364:284,1,70,2|0,0:0|0:0,0:0:0:0:
412,218,65629,2,0,P|395:185|393:149,1,70,8|0,0:0|0:0,0:0:0:0:
321,106,66038,6,0,B|285:106|285:106|221:79|221:79|175:79,1,140,2|8,0:0|0:0,0:0:0:0:
143,152,66650,1,2,0:0:0:0:
187,224,66854,2,0,B|221:224|221:224|285:197|285:197|321:197,1,140,2|8,0:0|0:0,0:0:0:0:
393,153,67466,1,0,0:0:0:0:
464,196,67670,6,0,B|479:298|479:298|454:347,1,140,2|8,0:0|0:0,0:0:0:0:
393,377,68283,1,2,0:0:0:0:
323,332,68487,2,0,B|306:299|306:299|322:197,1,140,2|8,0:0|0:0,0:0:0:0:
251,153,69099,1,0,0:0:0:0:
179,197,69303,6,0,P|147:211|112:213,1,70,2|2,0:0|0:0,0:0:0:0:
40,172,69711,2,0,P|37:137|23:105,2,70,8|2|2,0:0|0:0|0:0,0:0:0:0:
40,257,70324,1,0,0:0:0:0:
113,303,70527,2,0,P|178:322|254:313,1,140,8|2,0:0|0:0,0:0:0:0:
333,315,71140,6,0,L|350:382,2,70,2|8|2,0:0|0:0|0:0,0:0:0:0:
401,266,71752,2,0,L|468:248,1,70,2|0,0:0|0:0,0:0:0:0:
491,166,72160,2,0,L|473:98,1,70,8|0,0:0|0:0,0:0:0:0:
430,25,72568,6,0,B|400:42|400:42|329:42|329:42|298:25,1,140,6|8,0:0|0:0,0:0:0:0:
241,86,73180,1,2,0:0:0:0:
182,25,73385,2,0,B|152:8|152:8|81:8|81:8|51:25,1,140,2|8,0:0|0:0,0:0:0:0:
4,95,73997,1,0,0:0:0:0:
51,165,74201,6,0,B|51:204|33:232|33:232|51:260|51:299,1,140,2|8,0:0|0:0,0:0:0:0:
107,360,74813,1,2,0:0:0:0:
165,299,75017,2,0,B|165:260|183:232|183:232|165:204|165:165,1,140,2|8,0:0|0:0,0:0:0:0:
188,85,75629,1,0,0:0:0:0:
269,62,75834,6,0,L|336:80,1,70,2|2,0:0|0:0,0:0:0:0:
315,162,76242,2,0,L|247:144,2,70,8|2|2,0:0|0:0|0:0,0:0:0:0:
396,139,76855,1,0,0:0:0:0:
376,221,77059,2,0,L|334:378,1,140,8|2,0:0|0:0,0:0:0:0:
264,321,77670,6,0,P|226:325|194:341,2,70,2|8|2,0:0|0:0|0:0,0:0:0:0:
283,239,78282,2,0,P|280:203|264:171,1,70,2|0,0:0|0:0,0:0:0:0:
197,124,78690,2,0,P|164:141|128:143,1,70,8|0,0:0|0:0,0:0:0:0:
66,197,79099,6,0,B|51:228|51:228|57:299|57:299|77:328,1,140,2|8,0:0|0:0,0:0:0:0:
153,360,79711,1,2,0:0:0:0:
230,327,79915,2,0,B|249:297|249:297|255:226|255:226|241:195,1,140,2|8,0:0|0:0,0:0:0:0:
197,124,80527,1,0,0:0:0:0:
241,52,80731,6,0,B|295:54|345:35|345:35|392:62,1,140,2|8,0:0|0:0,0:0:0:0:
418,124,81344,1,2,0:0:0:0:
375,196,81548,2,0,B|345:212|345:212|295:193|241:195,1,140,2|8,0:0|0:0,0:0:0:0:
183,256,82160,1,0,0:0:0:0:
123,196,82364,6,0,P|109:164|107:129,1,70,2|2,0:0|0:0,0:0:0:0:
149,57,82772,2,0,P|184:54|216:40,2,70,8|2|2,0:0|0:0|0:0,0:0:0:0:
64,57,83385,1,0,0:0:0:0:
22,129,83588,2,0,P|3:194|12:270,1,140,8|2,0:0|0:0,0:0:0:0:
68,327,84201,6,0,L|134:345,2,70,2|8|2,0:0|0:0|0:0,0:0:0:0:
93,246,84813,2,0,L|142:197,1,70,2|0,0:0|0:0,0:0:0:0:
200,259,85221,2,0,L|216:326,1,70,8|0,0:0|0:0,0:0:0:0:
293,361,85629,5,0,0:0:0:0:
256,192,85834,12,0,88691,0:0:0:0:
