osu file format v14

[General]
AudioFilename: audio.mp3
AudioLeadIn: 1300
PreviewTime: 57320
Countdown: 0
SampleSet: None
StackLeniency: 0.7
Mode: 0
LetterboxInBreaks: 0
WidescreenStoryboard: 1

[Editor]
Bookmarks: 33057
DistanceSpacing: 1
BeatDivisor: 2
GridSize: 32
TimelineZoom: 1

[Metadata]
Title:Kimi no Matsu Sekai (TV Size)
TitleUnicode:君の待つ世界 (TVサイズ)
Artist:LAGOON
ArtistUnicode:LAGOON
Creator:marcuddles
Version:Shiinoha's Easy
Source:まじっく快斗1412
Tags:opening Kuroba Kaito 1412
BeatmapID:1803301
BeatmapSetID:861922

[Difficulty]
HPDrainRate:2
CircleSize:2.5
OverallDifficulty:3
ApproachRate:3
SliderMultiplier:0.899999999999999
SliderTickRate:1

[Events]
//Background and Video events
0,0,"710662.jpg",0,0
//Break Periods
2,15880,18631
2,26699,30142
//Storyboard Layer 0 (Background)
//Storyboard Layer 1 (Fail)
//Storyboard Layer 2 (Pass)
//Storyboard Layer 3 (Foreground)
//Storyboard Sound Samples

[TimingPoints]
100,338.983050847458,4,2,1,50,1,0
5354,327.868852459016,4,2,1,50,1,0
5517,327.868852459016,4,2,1,80,1,0
57812,-100,4,2,1,80,0,1
78795,-100,4,2,1,80,0,0

[Colours]
Combo1 : 255,128,128
Combo2 : 141,235,202
Combo3 : 226,91,46
Combo4 : 30,174,236

[HitObjects]
42,87,5354,6,0,B|177:62|118:140|263:116,1,225
363,32,6664,2,0,P|347:126|333:268,1,225
417,361,7976,2,0,B|334:340|334:340|286:364|286:364|200:344,1,225
103,252,9287,2,0,L|94:156,1,89.9999999999999
43,88,9943,2,0,P|85:70|139:84,1,89.9999999999999
211,44,10598,6,0,P|298:103|417:71,1,225
501,175,11910,2,0,B|453:205|459:271|459:271|410:230|339:249,1,225
239,321,13221,2,0,L|146:331,1,89.9999999999999
137,241,13877,2,0,L|226:231,1,89.9999999999999
220,141,14533,2,0,L|130:150,1,89.9999999999999
94,67,15189,2,0,L|230:53,1,135
76,290,21090,6,0,B|153:289|135:340|215:333,1,135
286,306,21910,1,0,0:0:0:0:
406,367,22402,2,0,P|442:312|426:248,1,135
368,180,23221,2,0,L|362:119,1,45
302,68,23713,6,0,L|168:54,1,135
88,96,24533,2,0,P|82:118|82:142,1,45
139,209,25025,2,0,P|148:253|136:298,1,89.9999999999999
93,374,25680,2,0,P|136:384|179:375,1,89.9999999999999
257,328,26336,2,0,P|287:326|312:333,1,45
426,36,31582,6,0,L|412:184,1,135
349,233,32402,2,0,P|324:232|299:225,1,45
238,166,32894,2,0,P|172:149|112:186,1,135
70,257,33713,2,0,L|82:311,1,45
152,355,34205,6,0,B|208:348|208:348|228:358|228:358|286:352,1,135
355,297,35025,2,0,B|360:273|360:273|351:252,1,45
304,177,35516,2,0,B|294:133|294:133|311:84,1,89.9999999999999
356,13,36172,2,0,B|313:-1|313:-1|269:8,1,89.9999999999999
206,72,36828,6,0,B|189:141|228:138|204:218,1,135
161,282,37648,2,0,P|105:258|26:248,2,135
229,340,38959,2,0,P|295:331|357:305,2,135
161,282,40271,2,0,P|169:215|195:153,2,135
229,340,41582,1,0,0:0:0:0:
317,237,42074,6,0,P|308:170|282:108,1,135
199,73,42894,2,0,P|143:102|61:94,2,135
269,17,44205,1,0,0:0:0:0:
384,87,44697,6,0,P|366:141|351:243,1,135
399,294,45516,2,0,P|357:308|305:292,1,89.9999999999999
247,236,46172,2,0,P|205:222|153:238,1,89.9999999999999
79,269,46828,1,0,0:0:0:0:
40,139,47320,6,0,B|93:131|93:131|121:143|121:143|187:132,1,135
251,176,48139,2,0,P|261:110|213:53,2,135
217,259,49451,1,0,0:0:0:0:
326,337,49943,2,0,B|400:314|385:366|479:342,1,135
433,259,50762,2,0,L|415:112,2,135
359,311,52074,2,0,P|323:286|260:285,1,89.9999999999999
205,226,52730,6,0,P|156:259|58:252,2,135
287,189,54041,2,0,P|353:189|410:224,2,135
212,137,55353,2,0,L|203:-2,2,135
169,216,56664,2,0,L|162:268,2,45
212,137,57812,6,0,B|298:128|263:171|357:164,1,135
412,109,58631,2,0,P|432:151|422:199,1,89.9999999999999
360,255,59287,2,0,L|261:262,1,89.9999999999999
193,309,59943,2,0,P|175:265|189:218,1,89.9999999999999
212,137,60598,6,0,L|68:130,2,135
289,91,61910,2,0,L|383:85,1,89.9999999999999
455,132,62566,1,0,0:0:0:0:
401,255,63057,2,0,P|358:225|264:238,1,135
189,215,63877,2,0,P|150:237|91:239,1,89.9999999999999
44,175,64533,2,0,L|36:29,1,135
117,0,65353,6,0,L|209:15,1,89.9999999999999
261,85,66008,2,0,L|353:100,1,89.9999999999999
411,165,66664,1,0,0:0:0:0:
368,244,66992,2,0,B|310:244|275:294|275:294|244:239|178:232,1,225
107,120,68303,6,0,P|152:89|255:114,1,135
296,155,69123,2,0,L|391:147,1,89.9999999999999
457,202,69779,2,0,B|471:245|471:245|455:295,1,89.9999999999999
383,339,70435,2,0,L|288:331,1,89.9999999999999
235,262,71090,6,0,P|182:300|100:296,2,135
313,216,72402,2,0,P|366:254|448:250,1,135
473,174,73221,1,0,0:0:0:0:
438,91,73549,6,0,P|371:91|317:130,1,135
236,171,74369,2,0,P|188:173|149:154,1,89.9999999999999
85,92,75025,2,0,L|96:237,1,135
74,314,75844,1,0,0:0:0:0:
153,355,76172,6,0,B|213:346|213:346|232:354|232:354|305:343,1,135
367,383,76992,2,0,P|376:338|359:292,1,89.9999999999999
311,222,77648,2,0,L|300:86,1,135
231,29,78467,1,0,0:0:0:0:
166,91,78795,6,0,B|125:121|65:109|65:109|109:158|88:222,1,225
43,347,80107,2,0,P|151:361|240:296,1,225
330,196,81418,6,0,L|425:205,1,89.9999999999999
436,115,82074,2,0,L|346:106,1,89.9999999999999
262,138,82730,2,0,P|219:153|169:144,1,89.9999999999999
165,57,83385,2,0,P|208:42|258:51,1,89.9999999999999
358,130,84205,6,0,L|347:279,2,135
251,48,85680,2,0,L|254:96,1,45
